<?xml version="1.0" standalone="no"?>
<!DOCTYPE svg PUBLIC "-//W3C//DTD SVG 1.1//EN" "http://www.w3.org/Graphics/SVG/1.1/DTD/svg11.dtd" >
<svg xmlns="http://www.w3.org/2000/svg" xmlns:xlink="http://www.w3.org/1999/xlink" version="1.1">
<metadata>
Created by FontForge 20190801 at Wed Oct 23 08:29:17 2019
 By Jimmy Wärting
Copyright (c) 2015, Impallari Type (www.impallari.com)
</metadata>
<defs>
<font id="PublicSans-SemiBold" horiz-adv-x="0" >
  <font-face 
    font-family="Public Sans SemiBold"
    font-weight="600"
    font-stretch="normal"
    units-per-em="2000"
    panose-1="0 0 0 0 0 0 0 0 0 0"
    ascent="1600"
    descent="-400"
    x-height="1034"
    cap-height="1446"
    bbox="-324 -480 2551 2222.41"
    underline-thickness="140"
    underline-position="-440"
    unicode-range="U+000D-FB02"
  />
<missing-glyph horiz-adv-x="1341" 
d="M1166 -266q0 -56 -65 -56h-873q-31 0 -42 12t-11 36v1880q0 46 38 46h918q35 0 35 -42v-1876zM1064 -178v1698q0 34 -29 34h-727q-31 0 -31 -36v-1702q0 -19 9.5 -29.5t34.5 -10.5h689q54 0 54 46zM1010 -268l-793 1840l101 52l809 -1882z" />
    <glyph glyph-name="fi" unicode="fi" horiz-adv-x="1350" 
d="M747 1034v-172h-233v-862h-243v862h-204v172h204v154q0 124 68.5 191t198.5 67h218l1 -166h-144q-59 0 -81 -30.5t-22 -95.5v-120h237zM1196 1034v-1034h-234v1034h234zM1199 1445v-230h-241v230h241z" />
    <glyph glyph-name="fl" unicode="fl" horiz-adv-x="1432" 
d="M747 1034v-172h-233v-862h-243v862h-204v172h204v154q0 124 68.5 191t198.5 67h218l1 -166h-144q-59 0 -81 -30.5t-22 -95.5v-120h237zM1243 -15q-100 0 -160 25t-90 67t-39 94.5t-9 107.5v1207h238v-1179q0 -67 27.5 -104t89.5 -43l52 -2v-153q-27 -8 -55 -14t-54 -6z
" />
    <glyph glyph-name="colon_one_eight_F_colon.liga" unicode="&#x3a;&#x31;&#x38;F&#x3a;" horiz-adv-x="1552" 
d="M751 742q43 0 72 -29t29 -73q0 -42 -29 -72t-72 -30t-73 30t-30 72q0 44 30 73t73 29zM39 1522h1475q22 0 22 -24v-1472q0 -26 -22 -26h-1475q-23 0 -23 26v1472q0 24 23 24zM494 486v544q0 10 -8 10h-135q-7 0 -7 -10v-52q0 -8 7 -8h73v-484q0 -8 7 -8h55q8 0 8 8z
M751 468q70 0 120.5 51t50.5 121q0 90 -74 140q53 50 53 116q0 62 -44.5 106t-105.5 44q-66 0 -109.5 -44t-43.5 -106t54 -116q-74 -49 -74 -140q0 -70 50.5 -121t122.5 -51zM1232 978v52q0 10 -8 10h-210q-8 0 -8 -10v-544q0 -8 8 -8h52q12 0 12 8v248h122q7 0 7 8v50
q0 10 -7 10h-122v168h146q8 0 8 8zM751 816q-35 0 -59.5 22t-24.5 58q0 35 24.5 58.5t59.5 23.5q34 0 57.5 -23.5t23.5 -58.5q0 -36 -23.5 -58t-57.5 -22z" />
    <glyph glyph-name="colon_f_l_a_g_two_colon.liga" unicode="&#x3a;flag&#x32;&#x3a;" horiz-adv-x="2325" 
d="M212 1396l8 -1270h1884v1270h-1892zM96 1522h2133v-1520h-2133v1520zM116 354h2084v-124h-2084v124zM116 588h2084v-124h-2084v124zM1032 822h1168v-124h-1168v124zM1032 1056h1168v-124h-1168v124zM1032 1290h1168v-124h-1168v124zM285 1288v-118h125v118h-125z
M756 1288v-118h122v118h-122zM522 1170v-116h122v116h-122zM288 1054v-118h122v118h-122zM756 1054v-118h122v118h-122zM522 936v-116h122v116h-122zM288 820v-118h122v118h-122zM756 820v-118h122v118h-122zM197 1446h837v-860h-844z" />
    <glyph glyph-name="colon_f_l_a_g_colon.liga" unicode="&#x3a;flag&#x3a;" horiz-adv-x="2325" 
d="M212 1404v-1286h1900v1286h-1900zM96 1522h2133v-1520h-2133v1520zM116 352h2084v-118h-2084v118zM116 586h2084v-118h-2084v118zM1032 820h1168v-118h-1168v118zM1032 1054h1168v-118h-1168v118zM1032 1288h1168v-118h-1168v118zM330 1288h116v-118h-116v118zM564 1170
h116v-116h-116v116zM798 1288h116v-118h-116v118zM564 1170h116v-116h-116v116zM330 1054h116v-118h-116v118zM564 936h116v-116h-116v116zM798 1054h116v-118h-116v118zM564 936h116v-116h-116v116zM330 820h116v-118h-116v118zM798 820h116v-118h-116v118z" />
    <glyph glyph-name=".notdef" horiz-adv-x="1341" 
d="M1166 -266q0 -56 -65 -56h-873q-31 0 -42 12t-11 36v1880q0 46 38 46h918q35 0 35 -42v-1876zM1064 -178v1698q0 34 -29 34h-727q-31 0 -31 -36v-1702q0 -19 9.5 -29.5t34.5 -10.5h689q54 0 54 46zM1010 -268l-793 1840l101 52l809 -1882z" />
    <glyph glyph-name="A" unicode="A" horiz-adv-x="1438" 
d="M68 0l520 1446h263l519 -1446h-244l-129 363h-552l-132 -363h-245zM501 579h436l-217 630z" />
    <glyph glyph-name="Aacute" unicode="&#xc1;" horiz-adv-x="1438" 
d="M68 0l520 1446h263l519 -1446h-244l-129 363h-552l-132 -363h-245zM501 579h436l-217 630zM834 1858h260l-286 -291h-180z" />
    <glyph glyph-name="Abreve" unicode="&#x102;" horiz-adv-x="1438" 
d="M68 0l520 1446h263l519 -1446h-244l-129 363h-552l-132 -363h-245zM501 579h436l-217 630zM1048 1803q-16 -76 -63.5 -129t-116 -80.5t-150.5 -27.5q-79 0 -147.5 26.5t-116 79.5t-64.5 131h162q15 -49 58.5 -80t107.5 -31q63 0 108 31t62 80h160z" />
    <glyph glyph-name="uni1EAE" unicode="&#x1eae;" horiz-adv-x="1438" 
d="M68 0l520 1446h263l519 -1446h-244l-129 363h-552l-132 -363h-245zM501 579h436l-217 630zM1051 1803q-16 -76 -63.5 -129t-116 -80.5t-150.5 -27.5q-79 0 -147.5 26.5t-116 79.5t-64.5 131h162q15 -49 58.5 -80t107.5 -31q63 0 108 31t62 80h160zM799 2101h201
l-213 -253h-137z" />
    <glyph glyph-name="uni1EB6" unicode="&#x1eb6;" horiz-adv-x="1438" 
d="M68 0l520 1446h263l519 -1446h-244l-129 363h-552l-132 -363h-245zM501 579h436l-217 630zM601 -380v210h237v-210h-237zM1048 1803q-16 -76 -63.5 -129t-116 -80.5t-150.5 -27.5q-79 0 -147.5 26.5t-116 79.5t-64.5 131h162q15 -49 58.5 -80t107.5 -31q63 0 108 31
t62 80h160z" />
    <glyph glyph-name="uni1EB0" unicode="&#x1eb0;" horiz-adv-x="1438" 
d="M68 0l520 1446h263l519 -1446h-244l-129 363h-552l-132 -363h-245zM501 579h436l-217 630zM1051 1803q-16 -76 -63.5 -129t-116 -80.5t-150.5 -27.5q-79 0 -147.5 26.5t-116 79.5t-64.5 131h162q15 -49 58.5 -80t107.5 -31q63 0 108 31t62 80h160zM646 2100l158 -253
h-140l-220 253h202z" />
    <glyph glyph-name="uni1EB2" unicode="&#x1eb2;" horiz-adv-x="1438" 
d="M68 0l520 1446h263l519 -1446h-244l-129 363h-552l-132 -363h-245zM501 579h436l-217 630zM1051 1803q-16 -76 -63.5 -129t-116 -80.5t-150.5 -27.5q-79 0 -147.5 26.5t-116 79.5t-64.5 131h162q15 -49 58.5 -80t107.5 -31q63 0 108 31t62 80h160zM601 2176l62 -96
q38 25 78.5 24.5t59.5 -32.5q21 -33 5.5 -68t-56.5 -61l62 -97q96 57 120 135t-29 159q-43 67 -128.5 80t-173.5 -44z" />
    <glyph glyph-name="uni1EB4" unicode="&#x1eb4;" horiz-adv-x="1438" 
d="M68 0l520 1446h263l519 -1446h-244l-129 363h-552l-132 -363h-245zM501 579h436l-217 630zM1051 1803q-16 -76 -63.5 -129t-116 -80.5t-150.5 -27.5q-79 0 -147.5 26.5t-116 79.5t-64.5 131h162q15 -49 58.5 -80t107.5 -31q63 0 108 31t62 80h160zM1045 1979
q-29 -22 -76 -43t-112 -21q-55 0 -98.5 13.5t-84.5 27t-89 13.5q-50 0 -82 -16.5t-68 -44.5l-40 133q35 34 76.5 59t104.5 25q53 0 100 -14.5t91.5 -29.5t89.5 -15q49 0 86 20t68 43z" />
    <glyph glyph-name="Acircumflex" unicode="&#xc2;" horiz-adv-x="1438" 
d="M68 0l520 1446h263l519 -1446h-244l-129 363h-552l-132 -363h-245zM501 579h436l-217 630zM852 1567l-135 135l-149 -135h-192l258 244h170l252 -244h-204z" />
    <glyph glyph-name="uni1EA4" unicode="&#x1ea4;" horiz-adv-x="1438" 
d="M68 0l520 1446h263l519 -1446h-244l-129 363h-552l-132 -363h-245zM501 579h436l-217 630zM853 1567l-135 135l-149 -135h-192l258 244h170l252 -244h-204zM1075 2053h201l-213 -253h-137z" />
    <glyph glyph-name="uni1EAC" unicode="&#x1eac;" horiz-adv-x="1438" 
d="M68 0l520 1446h263l519 -1446h-244l-129 363h-552l-132 -363h-245zM501 579h436l-217 630zM601 -380v210h237v-210h-237zM853 1567l-135 135l-149 -135h-192l258 244h170l252 -244h-204z" />
    <glyph glyph-name="uni1EA6" unicode="&#x1ea6;" horiz-adv-x="1438" 
d="M68 0l520 1446h263l519 -1446h-244l-129 363h-552l-132 -363h-245zM501 579h436l-217 630zM853 1567l-135 135l-149 -135h-192l258 244h170l252 -244h-204zM1000 2053l158 -253h-140l-220 253h202z" />
    <glyph glyph-name="uni1EA8" unicode="&#x1ea8;" horiz-adv-x="1438" 
d="M68 0l520 1446h263l519 -1446h-244l-129 363h-552l-132 -363h-245zM501 579h436l-217 630zM859 1567l-135 135l-149 -135h-192l258 244h170l252 -244h-204zM778 2085l62 -96q38 25 78.5 24.5t59.5 -32.5q21 -33 5.5 -68t-56.5 -61l62 -97q96 57 120 135t-29 159
q-43 67 -128.5 80t-173.5 -44z" />
    <glyph glyph-name="uni1EAA" unicode="&#x1eaa;" horiz-adv-x="1438" 
d="M68 0l520 1446h263l519 -1446h-244l-129 363h-552l-132 -363h-245zM501 579h436l-217 630zM856 1567l-135 135l-149 -135h-192l258 244h170l252 -244h-204zM1044 1981q-29 -22 -76 -43t-112 -21q-55 0 -98.5 13.5t-84.5 27t-89 13.5q-50 0 -82 -16.5t-68 -44.5l-40 133
q35 34 76.5 59t104.5 25q53 0 100 -14.5t91.5 -29.5t89.5 -15q49 0 86 20t68 43z" />
    <glyph glyph-name="uni0200" unicode="&#x200;" horiz-adv-x="1438" 
d="M68 0l520 1446h263l519 -1446h-244l-129 363h-552l-132 -363h-245zM501 579h436l-217 630zM767 1858l199 -291h-179l-253 291h233zM405 1858l242 -291h-180l-302 291h240z" />
    <glyph glyph-name="Adieresis" unicode="&#xc4;" horiz-adv-x="1438" 
d="M68 0l520 1446h263l519 -1446h-244l-129 363h-552l-132 -363h-245zM501 579h436l-217 630zM818 1611l2 210h232l-3 -210h-231zM387 1611l2 210h232l-3 -210h-231z" />
    <glyph glyph-name="uni1EA0" unicode="&#x1ea0;" horiz-adv-x="1438" 
d="M68 0l520 1446h263l519 -1446h-244l-129 363h-552l-132 -363h-245zM501 579h436l-217 630zM601 -380v210h237v-210h-237z" />
    <glyph glyph-name="Agrave" unicode="&#xc0;" horiz-adv-x="1438" 
d="M68 0l520 1446h263l519 -1446h-244l-129 363h-552l-132 -363h-245zM501 579h436l-217 630zM599 1858h-260l286 -291h180z" />
    <glyph glyph-name="uni1EA2" unicode="&#x1ea2;" horiz-adv-x="1438" 
d="M68 0l520 1446h263l519 -1446h-244l-129 363h-552l-132 -363h-245zM501 579h436l-217 630zM580 1895l62 -96q38 25 78.5 24.5t59.5 -32.5q21 -33 5.5 -68t-56.5 -61l62 -97q96 57 120 135t-29 159q-43 67 -128.5 80t-173.5 -44z" />
    <glyph glyph-name="uni0202" unicode="&#x202;" horiz-adv-x="1438" 
d="M68 0l520 1446h263l519 -1446h-244l-129 363h-552l-132 -363h-245zM501 579h436l-217 630zM1045 1605q-16 76 -63.5 129t-116 80.5t-150.5 27.5q-79 0 -147.5 -26.5t-116 -79.5t-64.5 -131h162q15 49 58.5 80t107.5 31q63 0 108 -31t62 -80h160z" />
    <glyph glyph-name="Amacron" unicode="&#x100;" horiz-adv-x="1438" 
d="M68 0l520 1446h263l519 -1446h-244l-129 363h-552l-132 -363h-245zM501 579h436l-217 630zM1046 1792v-161h-654v161h654z" />
    <glyph glyph-name="Aogonek" unicode="&#x104;" horiz-adv-x="1438" 
d="M68 0l520 1446h263l519 -1446h-244l-129 363h-552l-132 -363h-245zM501 579h436l-217 630zM1002 -178q0 57 39.5 104.5t158.5 85.5l172 -9q-103 -40 -145.5 -75t-42.5 -79q0 -34 19.5 -51t62.5 -17q46 0 82.5 13t61.5 27v-116q-26 -15 -81 -29.5t-118 -14.5
q-100 0 -154.5 42t-54.5 119z" />
    <glyph glyph-name="Aring" unicode="&#xc5;" horiz-adv-x="1438" 
d="M68 0l520 1446h263l519 -1446h-244l-129 363h-552l-132 -363h-245zM501 579h436l-217 630zM933 1768q0 -90 -62 -151t-151 -61t-150.5 62.5t-61.5 153.5q0 85 62.5 145t149.5 60q59 0 107.5 -28t77 -75.5t28.5 -105.5zM820 1767q0 44 -29.5 73t-72.5 29q-42 0 -73.5 -29
t-31.5 -73q0 -42 31.5 -74t73.5 -32q43 0 72.5 32t29.5 74z" />
    <glyph glyph-name="Aringacute" unicode="&#x1fa;" horiz-adv-x="1438" 
d="M68 0l520 1446h263l519 -1446h-244l-129 363h-552l-132 -363h-245zM501 579h436l-217 630zM718 1360q-86 0 -145 56.5t-59 145.5q0 82 60 137.5t144 55.5q86 0 146 -56t60 -141q0 -88 -60 -143t-146 -55zM716 1450q43 0 73.5 32.5t30.5 73.5q0 44 -30.5 73.5t-73.5 29.5
q-40 0 -72 -29.5t-32 -73.5q0 -41 32 -73.5t72 -32.5zM660 1706l41 174h155l-72 -174h-124z" />
    <glyph glyph-name="Atilde" unicode="&#xc3;" horiz-adv-x="1438" 
d="M68 0l520 1446h263l519 -1446h-244l-129 363h-552l-132 -363h-245zM501 579h436l-217 630zM1048 1687q-29 -22 -76 -43t-112 -21q-55 0 -98.5 13.5t-84.5 27t-89 13.5q-50 0 -82 -16.5t-68 -44.5l-40 133q35 34 76.5 59t104.5 25q53 0 100 -14.5t91.5 -29.5t89.5 -15
q49 0 86 20t68 43z" />
    <glyph glyph-name="AE" unicode="&#xc6;" horiz-adv-x="2020" 
d="M1909 207v-207h-987v366h-478l-198 -366h-246l786 1446h1101l-1 -205h-687v-410h604v-204h-604v-420h710zM922 579v702l-385 -702h385z" />
    <glyph glyph-name="AEacute" unicode="&#x1fc;" horiz-adv-x="2020" 
d="M1909 207v-207h-987v366h-478l-198 -366h-246l786 1446h1101l-1 -205h-687v-410h604v-204h-604v-420h710zM922 579v702l-385 -702h385zM1427 1858h260l-286 -291h-180z" />
    <glyph glyph-name="B" unicode="B" horiz-adv-x="1356" 
d="M175 0v1446h497q275 0 411.5 -97.5t136.5 -280.5q0 -111 -57 -192t-201 -137q88 -21 145.5 -57.5t89.5 -83t45 -99.5t13 -109q0 -198 -137.5 -294t-425.5 -96h-517zM418 194h277q154 0 233.5 55.5t79.5 160.5q0 76 -39 125.5t-106 73.5t-150 24h-295v-439zM418 830h295
q51 0 99 11t87 35t62.5 64t23.5 97q0 109 -82.5 162.5t-211.5 53.5h-273v-423z" />
    <glyph glyph-name="C" unicode="C" horiz-adv-x="1409" 
d="M738 1466q159 0 282 -64.5t198.5 -174.5t89.5 -245h-257q-15 80 -55.5 143t-106.5 100t-158 37q-115 0 -195.5 -54.5t-123 -172.5t-42.5 -306q0 -285 94 -415t267 -130q92 0 158 40.5t106.5 108t55.5 147.5h257q-12 -98 -49.5 -188t-105.5 -160.5t-170.5 -111
t-244.5 -40.5q-199 0 -341.5 91.5t-219 260t-76.5 400.5q0 231 76 395t218.5 251.5t342.5 87.5z" />
    <glyph glyph-name="Cacute" unicode="&#x106;" horiz-adv-x="1409" 
d="M738 1466q159 0 282 -64.5t198.5 -174.5t89.5 -245h-257q-15 80 -55.5 143t-106.5 100t-158 37q-115 0 -195.5 -54.5t-123 -172.5t-42.5 -306q0 -285 94 -415t267 -130q92 0 158 40.5t106.5 108t55.5 147.5h257q-12 -98 -49.5 -188t-105.5 -160.5t-170.5 -111
t-244.5 -40.5q-199 0 -341.5 91.5t-219 260t-76.5 400.5q0 231 76 395t218.5 251.5t342.5 87.5zM848 1858h260l-286 -291h-180z" />
    <glyph glyph-name="Ccaron" unicode="&#x10c;" horiz-adv-x="1409" 
d="M738 1466q159 0 282 -64.5t198.5 -174.5t89.5 -245h-257q-15 80 -55.5 143t-106.5 100t-158 37q-115 0 -195.5 -54.5t-123 -172.5t-42.5 -306q0 -285 94 -415t267 -130q92 0 158 40.5t106.5 108t55.5 147.5h257q-12 -98 -49.5 -188t-105.5 -160.5t-170.5 -111
t-244.5 -40.5q-199 0 -341.5 91.5t-219 260t-76.5 400.5q0 231 76 395t218.5 251.5t342.5 87.5zM649 1567l-258 245h193l149 -144l135 144h204l-252 -245h-171z" />
    <glyph glyph-name="Ccedilla" unicode="&#xc7;" horiz-adv-x="1409" 
d="M738 1466q159 0 282 -64.5t198.5 -174.5t89.5 -245h-257q-15 80 -55.5 143t-106.5 100t-158 37q-115 0 -195.5 -54.5t-123 -172.5t-42.5 -306q0 -285 94 -415t267 -130q92 0 158 40.5t106.5 108t55.5 147.5h257q-12 -98 -49.5 -188t-105.5 -160.5t-170.5 -111
t-244.5 -40.5q-199 0 -341.5 91.5t-219 260t-76.5 400.5q0 231 76 395t218.5 251.5t342.5 87.5zM951 -260q0 -51 -31.5 -86.5t-83.5 -54t-114 -18.5q-58 0 -111.5 12t-99.5 40l35 89q29 -19 66 -33.5t81 -14.5q51 0 77 17.5t26 49.5q0 41 -37.5 62t-127.5 22
q-11 0 -14.5 3.5t0.5 13.5l73 168h115l-46 -119q72 -2 114 -25.5t60 -57.5t18 -68z" />
    <glyph glyph-name="Ccircumflex" unicode="&#x108;" horiz-adv-x="1409" 
d="M738 1466q159 0 282 -64.5t198.5 -174.5t89.5 -245h-257q-15 80 -55.5 143t-106.5 100t-158 37q-115 0 -195.5 -54.5t-123 -172.5t-42.5 -306q0 -285 94 -415t267 -130q92 0 158 40.5t106.5 108t55.5 147.5h257q-12 -98 -49.5 -188t-105.5 -160.5t-170.5 -111
t-244.5 -40.5q-199 0 -341.5 91.5t-219 260t-76.5 400.5q0 231 76 395t218.5 251.5t342.5 87.5zM868 1567l-135 135l-149 -135h-192l258 244h170l252 -244h-204z" />
    <glyph glyph-name="Cdotaccent" unicode="&#x10a;" horiz-adv-x="1409" 
d="M738 1466q159 0 282 -64.5t198.5 -174.5t89.5 -245h-257q-15 80 -55.5 143t-106.5 100t-158 37q-115 0 -195.5 -54.5t-123 -172.5t-42.5 -306q0 -285 94 -415t267 -130q92 0 158 40.5t106.5 108t55.5 147.5h257q-12 -98 -49.5 -188t-105.5 -160.5t-170.5 -111
t-244.5 -40.5q-199 0 -341.5 91.5t-219 260t-76.5 400.5q0 231 76 395t218.5 251.5t342.5 87.5zM615 1611v210h237v-210h-237z" />
    <glyph glyph-name="D" unicode="D" horiz-adv-x="1416" 
d="M175 1446h53h104.5t123 -0.5t108.5 -1.5q264 -5 429.5 -90.5t243 -243t77.5 -379.5q0 -232 -82.5 -395t-252 -249.5t-430.5 -86.5h-374v1446zM422 1245v-1044h131q149 0 263 51.5t178.5 167.5t64.5 310q0 188 -60 301t-172 163.5t-268 50.5h-137z" />
    <glyph glyph-name="Eth" unicode="&#xd0;" horiz-adv-x="1460" 
d="M773 813v-184h-703v184h703zM219 1446h52.5h104.5t123 -0.5t108 -1.5q265 -5 430.5 -90.5t243 -243t77.5 -379.5q0 -232 -82.5 -395t-252 -249.5t-430.5 -86.5h-374v1446zM466 1245v-1044h131q149 0 263 51.5t178.5 167.5t64.5 310q0 188 -60 301t-172 163.5t-269 50.5
h-136z" />
    <glyph glyph-name="Dcaron" unicode="&#x10e;" horiz-adv-x="1416" 
d="M175 1446h53h104.5t123 -0.5t108.5 -1.5q264 -5 429.5 -90.5t243 -243t77.5 -379.5q0 -232 -82.5 -395t-252 -249.5t-430.5 -86.5h-374v1446zM422 1245v-1044h131q149 0 263 51.5t178.5 167.5t64.5 310q0 188 -60 301t-172 163.5t-268 50.5h-137zM614 1567l-258 245h193
l149 -144l135 144h204l-252 -245h-171z" />
    <glyph glyph-name="Dcroat" unicode="&#x110;" horiz-adv-x="1460" 
d="M773 813v-184h-703v184h703zM219 1446h52.5h104.5t123 -0.5t108 -1.5q265 -5 430.5 -90.5t243 -243t77.5 -379.5q0 -232 -82.5 -395t-252 -249.5t-430.5 -86.5h-374v1446zM466 1245v-1044h131q149 0 263 51.5t178.5 167.5t64.5 310q0 188 -60 301t-172 163.5t-269 50.5
h-136z" />
    <glyph glyph-name="uni1E0C" unicode="&#x1e0c;" horiz-adv-x="1416" 
d="M175 1446h53h104.5t123 -0.5t108.5 -1.5q264 -5 429.5 -90.5t243 -243t77.5 -379.5q0 -232 -82.5 -395t-252 -249.5t-430.5 -86.5h-374v1446zM422 1245v-1044h131q149 0 263 51.5t178.5 167.5t64.5 310q0 188 -60 301t-172 163.5t-268 50.5h-137zM591 -380v210h237v-210
h-237z" />
    <glyph glyph-name="E" unicode="E" horiz-adv-x="1257" 
d="M175 0v1446h956l-1 -209h-710v-405h627v-206h-629v-414l727 -1v-211h-970z" />
    <glyph glyph-name="Eacute" unicode="&#xc9;" horiz-adv-x="1257" 
d="M175 0v1446h956l-1 -209h-710v-405h627v-206h-629v-414l727 -1v-211h-970zM770 1858h260l-286 -291h-180z" />
    <glyph glyph-name="Ebreve" unicode="&#x114;" horiz-adv-x="1257" 
d="M175 0v1446h956l-1 -209h-710v-405h627v-206h-629v-414l727 -1v-211h-970zM984 1803q-16 -76 -63.5 -129t-116 -80.5t-150.5 -27.5q-79 0 -147.5 26.5t-116 79.5t-64.5 131h162q15 -49 58.5 -80t107.5 -31q63 0 108 31t62 80h160z" />
    <glyph glyph-name="Ecaron" unicode="&#x11a;" horiz-adv-x="1257" 
d="M175 0v1446h956l-1 -209h-710v-405h627v-206h-629v-414l727 -1v-211h-970zM570 1567l-258 245h193l149 -144l135 144h204l-252 -245h-171z" />
    <glyph glyph-name="Ecircumflex" unicode="&#xca;" horiz-adv-x="1257" 
d="M175 0v1446h956l-1 -209h-710v-405h627v-206h-629v-414l727 -1v-211h-970zM789 1567l-135 135l-149 -135h-192l258 244h170l252 -244h-204z" />
    <glyph glyph-name="uni1EBE" unicode="&#x1ebe;" horiz-adv-x="1257" 
d="M175 0v1446h956l-1 -209h-710v-405h627v-206h-629v-414l727 -1v-211h-970zM789 1567l-135 135l-149 -135h-192l258 244h170l252 -244h-204zM1011 2053h201l-213 -253h-137z" />
    <glyph glyph-name="uni1EC6" unicode="&#x1ec6;" horiz-adv-x="1257" 
d="M175 0v1446h956l-1 -209h-710v-405h627v-206h-629v-414l727 -1v-211h-970zM563 -380v210h237v-210h-237zM789 1567l-135 135l-149 -135h-192l258 244h170l252 -244h-204z" />
    <glyph glyph-name="uni1EC0" unicode="&#x1ec0;" horiz-adv-x="1257" 
d="M175 0v1446h956l-1 -209h-710v-405h627v-206h-629v-414l727 -1v-211h-970zM789 1567l-135 135l-149 -135h-192l258 244h170l252 -244h-204zM936 2053l158 -253h-140l-220 253h202z" />
    <glyph glyph-name="uni1EC2" unicode="&#x1ec2;" horiz-adv-x="1257" 
d="M175 0v1446h956l-1 -209h-710v-405h627v-206h-629v-414l727 -1v-211h-970zM795 1567l-135 135l-149 -135h-192l258 244h170l252 -244h-204zM714 2085l62 -96q38 25 78.5 24.5t59.5 -32.5q21 -33 5.5 -68t-56.5 -61l62 -97q96 57 120 135t-29 159q-43 67 -128.5 80
t-173.5 -44z" />
    <glyph glyph-name="uni1EC4" unicode="&#x1ec4;" horiz-adv-x="1257" 
d="M175 0v1446h956l-1 -209h-710v-405h627v-206h-629v-414l727 -1v-211h-970zM791 1567l-135 135l-149 -135h-192l258 244h170l252 -244h-204zM979 1981q-29 -22 -76 -43t-112 -21q-55 0 -98.5 13.5t-84.5 27t-89 13.5q-50 0 -82 -16.5t-68 -44.5l-40 133q35 34 76.5 59
t104.5 25q53 0 100 -14.5t91.5 -29.5t89.5 -15q49 0 86 20t68 43z" />
    <glyph glyph-name="uni0204" unicode="&#x204;" horiz-adv-x="1257" 
d="M175 0v1446h956l-1 -209h-710v-405h627v-206h-629v-414l727 -1v-211h-970zM703 1858l199 -291h-179l-253 291h233zM341 1858l242 -291h-180l-302 291h240z" />
    <glyph glyph-name="Edieresis" unicode="&#xcb;" horiz-adv-x="1257" 
d="M175 0v1446h956l-1 -209h-710v-405h627v-206h-629v-414l727 -1v-211h-970zM754 1611l2 210h232l-3 -210h-231zM323 1611l2 210h232l-3 -210h-231z" />
    <glyph glyph-name="Edotaccent" unicode="&#x116;" horiz-adv-x="1257" 
d="M175 0v1446h956l-1 -209h-710v-405h627v-206h-629v-414l727 -1v-211h-970zM536 1611v210h237v-210h-237z" />
    <glyph glyph-name="uni1EB8" unicode="&#x1eb8;" horiz-adv-x="1257" 
d="M175 0v1446h956l-1 -209h-710v-405h627v-206h-629v-414l727 -1v-211h-970zM563 -380v210h237v-210h-237z" />
    <glyph glyph-name="Egrave" unicode="&#xc8;" horiz-adv-x="1257" 
d="M175 0v1446h956l-1 -209h-710v-405h627v-206h-629v-414l727 -1v-211h-970zM535 1858h-260l286 -291h180z" />
    <glyph glyph-name="uni1EBA" unicode="&#x1eba;" horiz-adv-x="1257" 
d="M175 0v1446h956l-1 -209h-710v-405h627v-206h-629v-414l727 -1v-211h-970zM516 1895l62 -96q38 25 78.5 24.5t59.5 -32.5q21 -33 5.5 -68t-56.5 -61l62 -97q96 57 120 135t-29 159q-43 67 -128.5 80t-173.5 -44z" />
    <glyph glyph-name="uni0206" unicode="&#x206;" horiz-adv-x="1257" 
d="M175 0v1446h956l-1 -209h-710v-405h627v-206h-629v-414l727 -1v-211h-970zM981 1605q-16 76 -63.5 129t-116 80.5t-150.5 27.5q-79 0 -147.5 -26.5t-116 -79.5t-64.5 -131h162q15 49 58.5 80t107.5 31q63 0 108 -31t62 -80h160z" />
    <glyph glyph-name="Emacron" unicode="&#x112;" horiz-adv-x="1257" 
d="M175 0v1446h956l-1 -209h-710v-405h627v-206h-629v-414l727 -1v-211h-970zM982 1792v-161h-654v161h654z" />
    <glyph glyph-name="Eogonek" unicode="&#x118;" horiz-adv-x="1257" 
d="M175 0v1446h956l-1 -209h-710v-405h627v-206h-629v-414l727 -1v-211h-970zM798 -175q0 57 39.5 104.5t158.5 85.5l172 -9q-103 -40 -145.5 -75t-42.5 -79q0 -34 19.5 -51t62.5 -17q46 0 82.5 13t61.5 27v-116q-26 -15 -81 -29.5t-118 -14.5q-100 0 -154.5 42t-54.5 119z
" />
    <glyph glyph-name="uni1EBC" unicode="&#x1ebc;" horiz-adv-x="1257" 
d="M175 0v1446h956l-1 -209h-710v-405h627v-206h-629v-414l727 -1v-211h-970zM984 1687q-29 -22 -76 -43t-112 -21q-55 0 -98.5 13.5t-84.5 27t-89 13.5q-50 0 -82 -16.5t-68 -44.5l-40 133q35 34 76.5 59t104.5 25q53 0 100 -14.5t91.5 -29.5t89.5 -15q49 0 86 20t68 43z
" />
    <glyph glyph-name="F" unicode="F" horiz-adv-x="1209" 
d="M175 1446h946l-1 -206h-698v-416h616v-203h-616v-621h-247v1446z" />
    <glyph glyph-name="G" unicode="G" horiz-adv-x="1494" 
d="M735 -20q-194 0 -337 89t-220 254.5t-77 395.5q0 232 80 400t225.5 257.5t341.5 89.5q120 0 221.5 -40t178 -108t120.5 -155t49 -181h-257q-14 74 -56.5 136.5t-109 100.5t-151.5 38q-109 0 -194.5 -55t-134 -172.5t-48.5 -304.5q0 -148 30.5 -249.5t84 -163t123.5 -89
t148 -27.5q76 0 134 26t98.5 68t63 90.5t26.5 94.5l9 106h-323v172l577 -2v-751h-172v203q-37 -55 -93.5 -106t-138 -84t-198.5 -33z" />
    <glyph glyph-name="Gbreve" unicode="&#x11e;" horiz-adv-x="1494" 
d="M735 -20q-194 0 -337 89t-220 254.5t-77 395.5q0 232 80 400t225.5 257.5t341.5 89.5q120 0 221.5 -40t178 -108t120.5 -155t49 -181h-257q-14 74 -56.5 136.5t-109 100.5t-151.5 38q-109 0 -194.5 -55t-134 -172.5t-48.5 -304.5q0 -148 30.5 -249.5t84 -163t123.5 -89
t148 -27.5q76 0 134 26t98.5 68t63 90.5t26.5 94.5l9 106h-323v172l577 -2v-751h-172v203q-37 -55 -93.5 -106t-138 -84t-198.5 -33zM1071 1803q-16 -76 -63.5 -129t-116 -80.5t-150.5 -27.5q-79 0 -147.5 26.5t-116 79.5t-64.5 131h162q15 -49 58.5 -80t107.5 -31
q63 0 108 31t62 80h160z" />
    <glyph glyph-name="Gcircumflex" unicode="&#x11c;" horiz-adv-x="1494" 
d="M735 -20q-194 0 -337 89t-220 254.5t-77 395.5q0 232 80 400t225.5 257.5t341.5 89.5q120 0 221.5 -40t178 -108t120.5 -155t49 -181h-257q-14 74 -56.5 136.5t-109 100.5t-151.5 38q-109 0 -194.5 -55t-134 -172.5t-48.5 -304.5q0 -148 30.5 -249.5t84 -163t123.5 -89
t148 -27.5q76 0 134 26t98.5 68t63 90.5t26.5 94.5l9 106h-323v172l577 -2v-751h-172v203q-37 -55 -93.5 -106t-138 -84t-198.5 -33zM876 1567l-135 135l-149 -135h-192l258 244h170l252 -244h-204z" />
    <glyph glyph-name="uni0122" unicode="&#x122;" horiz-adv-x="1494" 
d="M735 -20q-194 0 -337 89t-220 254.5t-77 395.5q0 232 80 400t225.5 257.5t341.5 89.5q120 0 221.5 -40t178 -108t120.5 -155t49 -181h-257q-14 74 -56.5 136.5t-109 100.5t-151.5 38q-109 0 -194.5 -55t-134 -172.5t-48.5 -304.5q0 -148 30.5 -249.5t84 -163t123.5 -89
t148 -27.5q76 0 134 26t98.5 68t63 90.5t26.5 94.5l9 106h-323v172l577 -2v-751h-172v203q-37 -55 -93.5 -106t-138 -84t-198.5 -33zM613 -413l87 138l-72 7v173h220v-144l-144 -174h-91z" />
    <glyph glyph-name="Gdotaccent" unicode="&#x120;" horiz-adv-x="1494" 
d="M735 -20q-194 0 -337 89t-220 254.5t-77 395.5q0 232 80 400t225.5 257.5t341.5 89.5q120 0 221.5 -40t178 -108t120.5 -155t49 -181h-257q-14 74 -56.5 136.5t-109 100.5t-151.5 38q-109 0 -194.5 -55t-134 -172.5t-48.5 -304.5q0 -148 30.5 -249.5t84 -163t123.5 -89
t148 -27.5q76 0 134 26t98.5 68t63 90.5t26.5 94.5l9 106h-323v172l577 -2v-751h-172v203q-37 -55 -93.5 -106t-138 -84t-198.5 -33zM623 1611v210h237v-210h-237z" />
    <glyph glyph-name="H" unicode="H" horiz-adv-x="1536" 
d="M1118 642h-700v-642h-243v1446h243v-597h700v597h243v-1446h-243v642z" />
    <glyph glyph-name="Hbar" unicode="&#x126;" horiz-adv-x="1619" 
d="M1588 1247v-143h-1557v143h1557zM1167 642h-700v-642h-243v1446h243v-597h700v597h243v-1446h-243v642z" />
    <glyph glyph-name="Hcircumflex" unicode="&#x124;" horiz-adv-x="1536" 
d="M1118 642h-700v-642h-243v1446h243v-597h700v597h243v-1446h-243v642zM902 1573l-135 135l-149 -135h-192l258 244h170l252 -244h-204z" />
    <glyph glyph-name="uni1E24" unicode="&#x1e24;" horiz-adv-x="1536" 
d="M1118 642h-700v-642h-243v1446h243v-597h700v597h243v-1446h-243v642zM661 -380v210h237v-210h-237z" />
    <glyph glyph-name="I" unicode="I" horiz-adv-x="593" 
d="M175 1446h243v-1446h-243v1446z" />
    <glyph glyph-name="Iacute" unicode="&#xcd;" horiz-adv-x="593" 
d="M175 1446h243v-1446h-243v1446zM412 1858h260l-286 -291h-180z" />
    <glyph glyph-name="Ibreve" unicode="&#x12c;" horiz-adv-x="593" 
d="M175 1446h243v-1446h-243v1446zM626 1803q-16 -76 -63.5 -129t-116 -80.5t-150.5 -27.5q-79 0 -147.5 26.5t-116 79.5t-64.5 131h162q15 -49 58.5 -80t107.5 -31q63 0 108 31t62 80h160z" />
    <glyph glyph-name="Icircumflex" unicode="&#xce;" horiz-adv-x="593" 
d="M175 1446h243v-1446h-243v1446zM432 1567l-135 135l-149 -135h-192l258 244h170l252 -244h-204z" />
    <glyph glyph-name="uni0208" unicode="&#x208;" horiz-adv-x="593" 
d="M175 1446h243v-1446h-243v1446zM345 1858l199 -291h-179l-253 291h233zM-17 1858l242 -291h-180l-302 291h240z" />
    <glyph glyph-name="Idieresis" unicode="&#xcf;" horiz-adv-x="593" 
d="M175 1446h243v-1446h-243v1446zM396 1611l2 210h232l-3 -210h-231zM-35 1611l2 210h232l-3 -210h-231z" />
    <glyph glyph-name="Idotaccent" unicode="&#x130;" horiz-adv-x="593" 
d="M175 1446h243v-1446h-243v1446zM179 1611v210h237v-210h-237z" />
    <glyph glyph-name="uni1ECA" unicode="&#x1eca;" horiz-adv-x="593" 
d="M175 1446h243v-1446h-243v1446zM191 -380v210h237v-210h-237z" />
    <glyph glyph-name="Igrave" unicode="&#xcc;" horiz-adv-x="593" 
d="M175 1446h243v-1446h-243v1446zM177 1858h-260l286 -291h180z" />
    <glyph glyph-name="uni1EC8" unicode="&#x1ec8;" horiz-adv-x="593" 
d="M175 1446h243v-1446h-243v1446zM159 1895l62 -96q38 25 78.5 24.5t59.5 -32.5q21 -33 5.5 -68t-56.5 -61l62 -97q96 57 120 135t-29 159q-43 67 -128.5 80t-173.5 -44z" />
    <glyph glyph-name="uni020A" unicode="&#x20a;" horiz-adv-x="593" 
d="M175 1446h243v-1446h-243v1446zM624 1605q-16 76 -63.5 129t-116 80.5t-150.5 27.5q-79 0 -147.5 -26.5t-116 -79.5t-64.5 -131h162q15 49 58.5 80t107.5 31q63 0 108 -31t62 -80h160z" />
    <glyph glyph-name="Imacron" unicode="&#x12a;" horiz-adv-x="593" 
d="M175 1446h243v-1446h-243v1446zM624 1792v-161h-654v161h654z" />
    <glyph glyph-name="Iogonek" unicode="&#x12e;" horiz-adv-x="593" 
d="M175 1446h243v-1446h-243v1446zM47 -182q0 57 39.5 104.5t158.5 85.5l172 -9q-103 -40 -145.5 -75t-42.5 -79q0 -34 19.5 -51t62.5 -17q46 0 82.5 13t61.5 27v-116q-26 -15 -81 -29.5t-118 -14.5q-100 0 -154.5 42t-54.5 119z" />
    <glyph glyph-name="Itilde" unicode="&#x128;" horiz-adv-x="593" 
d="M175 1446h243v-1446h-243v1446zM627 1687q-29 -22 -76 -43t-112 -21q-55 0 -98.5 13.5t-84.5 27t-89 13.5q-50 0 -82 -16.5t-68 -44.5l-40 133q35 34 76.5 59t104.5 25q53 0 100 -14.5t91.5 -29.5t89.5 -15q49 0 86 20t68 43z" />
    <glyph glyph-name="J" unicode="J" horiz-adv-x="791" 
d="M652 375q0 -129 -28.5 -216.5t-102.5 -133t-211 -45.5q-72 0 -142.5 14.5t-99.5 23.5l9 226q30 -9 69 -21.5t91 -12.5q100 0 135.5 54t35.5 177v1005h244v-1071z" />
    <glyph glyph-name="Jcircumflex" unicode="&#x134;" horiz-adv-x="791" 
d="M652 375q0 -129 -28.5 -216.5t-102.5 -133t-211 -45.5q-72 0 -142.5 14.5t-99.5 23.5l9 226q30 -9 69 -21.5t91 -12.5q100 0 135.5 54t35.5 177v1005h244v-1071zM658 1567l-135 135l-149 -135h-192l258 244h170l252 -244h-204z" />
    <glyph glyph-name="K" unicode="K" horiz-adv-x="1402" 
d="M1341 0h-269l-413 705l-231 -271v-434h-253v1446h253v-701l582 701h283l-459 -564z" />
    <glyph glyph-name="uni0136" unicode="&#x136;" horiz-adv-x="1402" 
d="M1341 0h-269l-413 705l-231 -271v-434h-253v1446h253v-701l582 701h283l-459 -564zM569 -413l87 138l-72 7v173h220v-144l-144 -174h-91z" />
    <glyph glyph-name="L" unicode="L" horiz-adv-x="1155" 
d="M176 1446h246v-1236h653v-210h-900z" />
    <glyph glyph-name="Lacute" unicode="&#x139;" horiz-adv-x="1155" 
d="M176 1446h246v-1236h653v-210h-900zM409 1858h260l-286 -291h-180z" />
    <glyph glyph-name="Lcaron" unicode="&#x13d;" horiz-adv-x="1155" 
d="M176 1446h246v-1236h653v-210h-900zM878 1038l79 193l-63 11v210h178v-220l-83 -194h-111z" />
    <glyph glyph-name="uni013B" unicode="&#x13b;" horiz-adv-x="1155" 
d="M176 1446h246v-1236h653v-210h-900zM492 -413l87 138l-72 7v173h220v-144l-144 -174h-91z" />
    <glyph glyph-name="Ldot" unicode="&#x13f;" horiz-adv-x="1155" 
d="M176 1446h246v-1236h653v-210h-900zM1061 924v-257h-267v257h267z" />
    <glyph glyph-name="Lslash" unicode="&#x141;" horiz-adv-x="1172" 
d="M762 979v-194l-734 -202v205zM192 1446h246v-1236h653v-210h-900z" />
    <glyph glyph-name="M" unicode="M" horiz-adv-x="1806" 
d="M175 0v1446h348l379 -1105l383 1105h346v-1446h-247v1134l-381 -1134h-203l-378 1127v-1127h-247z" />
    <glyph glyph-name="N" unicode="N" horiz-adv-x="1539" 
d="M1121 1446h243v-1446h-219l-727 1061v-1061h-243v1446h238l708 -1033v1033z" />
    <glyph glyph-name="Nacute" unicode="&#x143;" horiz-adv-x="1539" 
d="M1121 1446h243v-1446h-219l-727 1061v-1061h-243v1446h238l708 -1033v1033zM883 1858h260l-286 -291h-180z" />
    <glyph glyph-name="Ncaron" unicode="&#x147;" horiz-adv-x="1539" 
d="M1121 1446h243v-1446h-219l-727 1061v-1061h-243v1446h238l708 -1033v1033zM684 1567l-258 245h193l149 -144l135 144h204l-252 -245h-171z" />
    <glyph glyph-name="uni0145" unicode="&#x145;" horiz-adv-x="1539" 
d="M1121 1446h243v-1446h-219l-727 1061v-1061h-243v1446h238l708 -1033v1033zM622 -413l87 138l-72 7v173h220v-144l-144 -174h-91z" />
    <glyph glyph-name="uni1E44" unicode="&#x1e44;" horiz-adv-x="1539" 
d="M1121 1446h243v-1446h-219l-727 1061v-1061h-243v1446h238l708 -1033v1033zM650 1611v210h237v-210h-237z" />
    <glyph glyph-name="Eng" unicode="&#x14a;" horiz-adv-x="1541" 
d="M1121 1446h243v-1446h-219l-727 1061v-1061h-243v1446h238l708 -1033v1033zM1363 -85q0 -129 -28.5 -216.5t-102.5 -133t-211 -45.5q-72 0 -142.5 14.5t-99.5 23.5l10 226q29 -9 68 -21.5t91 -12.5q100 0 136 54t36 177v119h243v-185z" />
    <glyph glyph-name="Ntilde" unicode="&#xd1;" horiz-adv-x="1539" 
d="M1121 1446h243v-1446h-219l-727 1061v-1061h-243v1446h238l708 -1033v1033zM1098 1687q-29 -22 -76 -43t-112 -21q-55 0 -98.5 13.5t-84.5 27t-89 13.5q-50 0 -82 -16.5t-68 -44.5l-40 133q35 34 76.5 59t104.5 25q53 0 100 -14.5t91.5 -29.5t89.5 -15q49 0 86 20t68 43z
" />
    <glyph glyph-name="O" unicode="O" horiz-adv-x="1497" 
d="M751 -20q-200 0 -345.5 88t-225 254t-79.5 398q0 234 80 401t226.5 256t343.5 89t341.5 -89t223.5 -256t79 -401q0 -232 -78 -397.5t-223 -254t-343 -88.5zM751 184q118 0 203 55.5t130.5 173t45.5 304.5q0 190 -46 310.5t-131 177.5t-202 57q-118 0 -203.5 -57.5
t-132.5 -178t-47 -309.5q0 -187 47 -304.5t132.5 -173t203.5 -55.5z" />
    <glyph glyph-name="Oacute" unicode="&#xd3;" horiz-adv-x="1497" 
d="M751 -20q-200 0 -345.5 88t-225 254t-79.5 398q0 234 80 401t226.5 256t343.5 89t341.5 -89t223.5 -256t79 -401q0 -232 -78 -397.5t-223 -254t-343 -88.5zM751 184q118 0 203 55.5t130.5 173t45.5 304.5q0 190 -46 310.5t-131 177.5t-202 57q-118 0 -203.5 -57.5
t-132.5 -178t-47 -309.5q0 -187 47 -304.5t132.5 -173t203.5 -55.5zM865 1858h260l-286 -291h-180z" />
    <glyph glyph-name="Obreve" unicode="&#x14e;" horiz-adv-x="1497" 
d="M751 -20q-200 0 -345.5 88t-225 254t-79.5 398q0 234 80 401t226.5 256t343.5 89t341.5 -89t223.5 -256t79 -401q0 -232 -78 -397.5t-223 -254t-343 -88.5zM751 184q118 0 203 55.5t130.5 173t45.5 304.5q0 190 -46 310.5t-131 177.5t-202 57q-118 0 -203.5 -57.5
t-132.5 -178t-47 -309.5q0 -187 47 -304.5t132.5 -173t203.5 -55.5zM1080 1803q-16 -76 -63.5 -129t-116 -80.5t-150.5 -27.5q-79 0 -147.5 26.5t-116 79.5t-64.5 131h162q15 -49 58.5 -80t107.5 -31q63 0 108 31t62 80h160z" />
    <glyph glyph-name="Ocircumflex" unicode="&#xd4;" horiz-adv-x="1497" 
d="M751 -20q-200 0 -345.5 88t-225 254t-79.5 398q0 234 80 401t226.5 256t343.5 89t341.5 -89t223.5 -256t79 -401q0 -232 -78 -397.5t-223 -254t-343 -88.5zM751 184q118 0 203 55.5t130.5 173t45.5 304.5q0 190 -46 310.5t-131 177.5t-202 57q-118 0 -203.5 -57.5
t-132.5 -178t-47 -309.5q0 -187 47 -304.5t132.5 -173t203.5 -55.5zM885 1567l-135 135l-149 -135h-192l258 244h170l252 -244h-204z" />
    <glyph glyph-name="uni1ED0" unicode="&#x1ed0;" horiz-adv-x="1497" 
d="M751 -20q-200 0 -345.5 88t-225 254t-79.5 398q0 234 80 401t226.5 256t343.5 89t341.5 -89t223.5 -256t79 -401q0 -232 -78 -397.5t-223 -254t-343 -88.5zM751 184q118 0 203 55.5t130.5 173t45.5 304.5q0 190 -46 310.5t-131 177.5t-202 57q-118 0 -203.5 -57.5
t-132.5 -178t-47 -309.5q0 -187 47 -304.5t132.5 -173t203.5 -55.5zM885 1567l-135 135l-149 -135h-192l258 244h170l252 -244h-204zM1107 2053h201l-213 -253h-137z" />
    <glyph glyph-name="uni1ED8" unicode="&#x1ed8;" horiz-adv-x="1497" 
d="M751 -20q-200 0 -345.5 88t-225 254t-79.5 398q0 234 80 401t226.5 256t343.5 89t341.5 -89t223.5 -256t79 -401q0 -232 -78 -397.5t-223 -254t-343 -88.5zM751 184q118 0 203 55.5t130.5 173t45.5 304.5q0 190 -46 310.5t-131 177.5t-202 57q-118 0 -203.5 -57.5
t-132.5 -178t-47 -309.5q0 -187 47 -304.5t132.5 -173t203.5 -55.5zM635 -380v210h237v-210h-237zM885 1567l-135 135l-149 -135h-192l258 244h170l252 -244h-204z" />
    <glyph glyph-name="uni1ED2" unicode="&#x1ed2;" horiz-adv-x="1497" 
d="M751 -20q-200 0 -345.5 88t-225 254t-79.5 398q0 234 80 401t226.5 256t343.5 89t341.5 -89t223.5 -256t79 -401q0 -232 -78 -397.5t-223 -254t-343 -88.5zM751 184q118 0 203 55.5t130.5 173t45.5 304.5q0 190 -46 310.5t-131 177.5t-202 57q-118 0 -203.5 -57.5
t-132.5 -178t-47 -309.5q0 -187 47 -304.5t132.5 -173t203.5 -55.5zM885 1567l-135 135l-149 -135h-192l258 244h170l252 -244h-204zM1032 2053l158 -253h-140l-220 253h202z" />
    <glyph glyph-name="uni1ED4" unicode="&#x1ed4;" horiz-adv-x="1497" 
d="M751 -20q-200 0 -345.5 88t-225 254t-79.5 398q0 234 80 401t226.5 256t343.5 89t341.5 -89t223.5 -256t79 -401q0 -232 -78 -397.5t-223 -254t-343 -88.5zM751 184q118 0 203 55.5t130.5 173t45.5 304.5q0 190 -46 310.5t-131 177.5t-202 57q-118 0 -203.5 -57.5
t-132.5 -178t-47 -309.5q0 -187 47 -304.5t132.5 -173t203.5 -55.5zM890 1567l-135 135l-149 -135h-192l258 244h170l252 -244h-204zM809 2085l62 -96q38 25 78.5 24.5t59.5 -32.5q21 -33 5.5 -68t-56.5 -61l62 -97q96 57 120 135t-29 159q-43 67 -128.5 80t-173.5 -44z" />
    <glyph glyph-name="uni1ED6" unicode="&#x1ed6;" horiz-adv-x="1497" 
d="M751 -20q-200 0 -345.5 88t-225 254t-79.5 398q0 234 80 401t226.5 256t343.5 89t341.5 -89t223.5 -256t79 -401q0 -232 -78 -397.5t-223 -254t-343 -88.5zM751 184q118 0 203 55.5t130.5 173t45.5 304.5q0 190 -46 310.5t-131 177.5t-202 57q-118 0 -203.5 -57.5
t-132.5 -178t-47 -309.5q0 -187 47 -304.5t132.5 -173t203.5 -55.5zM887 1567l-135 135l-149 -135h-192l258 244h170l252 -244h-204zM1075 1981q-29 -22 -76 -43t-112 -21q-55 0 -98.5 13.5t-84.5 27t-89 13.5q-50 0 -82 -16.5t-68 -44.5l-40 133q35 34 76.5 59t104.5 25
q53 0 100 -14.5t91.5 -29.5t89.5 -15q49 0 86 20t68 43z" />
    <glyph glyph-name="uni020C" unicode="&#x20c;" horiz-adv-x="1497" 
d="M751 -20q-200 0 -345.5 88t-225 254t-79.5 398q0 234 80 401t226.5 256t343.5 89t341.5 -89t223.5 -256t79 -401q0 -232 -78 -397.5t-223 -254t-343 -88.5zM751 184q118 0 203 55.5t130.5 173t45.5 304.5q0 190 -46 310.5t-131 177.5t-202 57q-118 0 -203.5 -57.5
t-132.5 -178t-47 -309.5q0 -187 47 -304.5t132.5 -173t203.5 -55.5zM798 1858l199 -291h-179l-253 291h233zM436 1858l242 -291h-180l-302 291h240z" />
    <glyph glyph-name="Odieresis" unicode="&#xd6;" horiz-adv-x="1497" 
d="M751 -20q-200 0 -345.5 88t-225 254t-79.5 398q0 234 80 401t226.5 256t343.5 89t341.5 -89t223.5 -256t79 -401q0 -232 -78 -397.5t-223 -254t-343 -88.5zM751 184q118 0 203 55.5t130.5 173t45.5 304.5q0 190 -46 310.5t-131 177.5t-202 57q-118 0 -203.5 -57.5
t-132.5 -178t-47 -309.5q0 -187 47 -304.5t132.5 -173t203.5 -55.5zM850 1611l2 210h232l-3 -210h-231zM419 1611l2 210h232l-3 -210h-231z" />
    <glyph glyph-name="uni1ECC" unicode="&#x1ecc;" horiz-adv-x="1497" 
d="M751 -20q-200 0 -345.5 88t-225 254t-79.5 398q0 234 80 401t226.5 256t343.5 89t341.5 -89t223.5 -256t79 -401q0 -232 -78 -397.5t-223 -254t-343 -88.5zM751 184q118 0 203 55.5t130.5 173t45.5 304.5q0 190 -46 310.5t-131 177.5t-202 57q-118 0 -203.5 -57.5
t-132.5 -178t-47 -309.5q0 -187 47 -304.5t132.5 -173t203.5 -55.5zM635 -380v210h237v-210h-237z" />
    <glyph glyph-name="Ograve" unicode="&#xd2;" horiz-adv-x="1497" 
d="M751 -20q-200 0 -345.5 88t-225 254t-79.5 398q0 234 80 401t226.5 256t343.5 89t341.5 -89t223.5 -256t79 -401q0 -232 -78 -397.5t-223 -254t-343 -88.5zM751 184q118 0 203 55.5t130.5 173t45.5 304.5q0 190 -46 310.5t-131 177.5t-202 57q-118 0 -203.5 -57.5
t-132.5 -178t-47 -309.5q0 -187 47 -304.5t132.5 -173t203.5 -55.5zM630 1858h-260l286 -291h180z" />
    <glyph glyph-name="uni1ECE" unicode="&#x1ece;" horiz-adv-x="1497" 
d="M751 -20q-200 0 -345.5 88t-225 254t-79.5 398q0 234 80 401t226.5 256t343.5 89t341.5 -89t223.5 -256t79 -401q0 -232 -78 -397.5t-223 -254t-343 -88.5zM751 184q118 0 203 55.5t130.5 173t45.5 304.5q0 190 -46 310.5t-131 177.5t-202 57q-118 0 -203.5 -57.5
t-132.5 -178t-47 -309.5q0 -187 47 -304.5t132.5 -173t203.5 -55.5zM612 1895l62 -96q38 25 78.5 24.5t59.5 -32.5q21 -33 5.5 -68t-56.5 -61l62 -97q96 57 120 135t-29 159q-43 67 -128.5 80t-173.5 -44z" />
    <glyph glyph-name="Ohorn" unicode="&#x1a0;" horiz-adv-x="1625" 
d="M751 -20q-200 0 -345.5 88t-225 254t-79.5 398q0 234 80 401t226.5 256t343.5 89t341.5 -89t223.5 -256t79 -401q0 -232 -78 -397.5t-223 -254t-343 -88.5zM751 184q118 0 203 55.5t130.5 173t45.5 304.5q0 190 -46 310.5t-131 177.5t-202 57q-118 0 -203.5 -57.5
t-132.5 -178t-47 -309.5q0 -187 47 -304.5t132.5 -173t203.5 -55.5zM1557 1481q-1 -131 -34.5 -209t-111.5 -108t-213 -15v126q48 -1 81.5 4.5t55 25t34 61.5t16.5 115h172z" />
    <glyph glyph-name="uni1EDA" unicode="&#x1eda;" horiz-adv-x="1625" 
d="M751 -20q-200 0 -345.5 88t-225 254t-79.5 398q0 234 80 401t226.5 256t343.5 89t341.5 -89t223.5 -256t79 -401q0 -232 -78 -397.5t-223 -254t-343 -88.5zM751 184q118 0 203 55.5t130.5 173t45.5 304.5q0 190 -46 310.5t-131 177.5t-202 57q-118 0 -203.5 -57.5
t-132.5 -178t-47 -309.5q0 -187 47 -304.5t132.5 -173t203.5 -55.5zM1557 1481q-1 -131 -34.5 -209t-111.5 -108t-213 -15v126q48 -1 81.5 4.5t55 25t34 61.5t16.5 115h172zM865 1858h260l-286 -291h-180z" />
    <glyph glyph-name="uni1EE2" unicode="&#x1ee2;" horiz-adv-x="1625" 
d="M751 -20q-200 0 -345.5 88t-225 254t-79.5 398q0 234 80 401t226.5 256t343.5 89t341.5 -89t223.5 -256t79 -401q0 -232 -78 -397.5t-223 -254t-343 -88.5zM751 184q118 0 203 55.5t130.5 173t45.5 304.5q0 190 -46 310.5t-131 177.5t-202 57q-118 0 -203.5 -57.5
t-132.5 -178t-47 -309.5q0 -187 47 -304.5t132.5 -173t203.5 -55.5zM1557 1481q-1 -131 -34.5 -209t-111.5 -108t-213 -15v126q48 -1 81.5 4.5t55 25t34 61.5t16.5 115h172zM635 -380v210h237v-210h-237z" />
    <glyph glyph-name="uni1EDC" unicode="&#x1edc;" horiz-adv-x="1625" 
d="M751 -20q-200 0 -345.5 88t-225 254t-79.5 398q0 234 80 401t226.5 256t343.5 89t341.5 -89t223.5 -256t79 -401q0 -232 -78 -397.5t-223 -254t-343 -88.5zM751 184q118 0 203 55.5t130.5 173t45.5 304.5q0 190 -46 310.5t-131 177.5t-202 57q-118 0 -203.5 -57.5
t-132.5 -178t-47 -309.5q0 -187 47 -304.5t132.5 -173t203.5 -55.5zM1557 1481q-1 -131 -34.5 -209t-111.5 -108t-213 -15v126q48 -1 81.5 4.5t55 25t34 61.5t16.5 115h172zM630 1858h-260l286 -291h180z" />
    <glyph glyph-name="uni1EDE" unicode="&#x1ede;" horiz-adv-x="1625" 
d="M751 -20q-200 0 -345.5 88t-225 254t-79.5 398q0 234 80 401t226.5 256t343.5 89t341.5 -89t223.5 -256t79 -401q0 -232 -78 -397.5t-223 -254t-343 -88.5zM751 184q118 0 203 55.5t130.5 173t45.5 304.5q0 190 -46 310.5t-131 177.5t-202 57q-118 0 -203.5 -57.5
t-132.5 -178t-47 -309.5q0 -187 47 -304.5t132.5 -173t203.5 -55.5zM1557 1481q-1 -131 -34.5 -209t-111.5 -108t-213 -15v126q48 -1 81.5 4.5t55 25t34 61.5t16.5 115h172zM612 1895l62 -96q38 25 78.5 24.5t59.5 -32.5q21 -33 5.5 -68t-56.5 -61l62 -97q96 57 120 135
t-29 159q-43 67 -128.5 80t-173.5 -44z" />
    <glyph glyph-name="uni1EE0" unicode="&#x1ee0;" horiz-adv-x="1625" 
d="M751 -20q-200 0 -345.5 88t-225 254t-79.5 398q0 234 80 401t226.5 256t343.5 89t341.5 -89t223.5 -256t79 -401q0 -232 -78 -397.5t-223 -254t-343 -88.5zM751 184q118 0 203 55.5t130.5 173t45.5 304.5q0 190 -46 310.5t-131 177.5t-202 57q-118 0 -203.5 -57.5
t-132.5 -178t-47 -309.5q0 -187 47 -304.5t132.5 -173t203.5 -55.5zM1557 1481q-1 -131 -34.5 -209t-111.5 -108t-213 -15v126q48 -1 81.5 4.5t55 25t34 61.5t16.5 115h172zM1080 1687q-29 -22 -76 -43t-112 -21q-55 0 -98.5 13.5t-84.5 27t-89 13.5q-50 0 -82 -16.5
t-68 -44.5l-40 133q35 34 76.5 59t104.5 25q53 0 100 -14.5t91.5 -29.5t89.5 -15q49 0 86 20t68 43z" />
    <glyph glyph-name="Ohungarumlaut" unicode="&#x150;" horiz-adv-x="1497" 
d="M751 -20q-200 0 -345.5 88t-225 254t-79.5 398q0 234 80 401t226.5 256t343.5 89t341.5 -89t223.5 -256t79 -401q0 -232 -78 -397.5t-223 -254t-343 -88.5zM751 184q118 0 203 55.5t130.5 173t45.5 304.5q0 190 -46 310.5t-131 177.5t-202 57q-118 0 -203.5 -57.5
t-132.5 -178t-47 -309.5q0 -187 47 -304.5t132.5 -173t203.5 -55.5zM704 1858l-199 -291h179l253 291h-233zM1066 1858l-242 -291h180l302 291h-240z" />
    <glyph glyph-name="uni020E" unicode="&#x20e;" horiz-adv-x="1497" 
d="M751 -20q-200 0 -345.5 88t-225 254t-79.5 398q0 234 80 401t226.5 256t343.5 89t341.5 -89t223.5 -256t79 -401q0 -232 -78 -397.5t-223 -254t-343 -88.5zM751 184q118 0 203 55.5t130.5 173t45.5 304.5q0 190 -46 310.5t-131 177.5t-202 57q-118 0 -203.5 -57.5
t-132.5 -178t-47 -309.5q0 -187 47 -304.5t132.5 -173t203.5 -55.5zM1077 1605q-16 76 -63.5 129t-116 80.5t-150.5 27.5q-79 0 -147.5 -26.5t-116 -79.5t-64.5 -131h162q15 49 58.5 80t107.5 31q63 0 108 -31t62 -80h160z" />
    <glyph glyph-name="Omacron" unicode="&#x14c;" horiz-adv-x="1497" 
d="M751 -20q-200 0 -345.5 88t-225 254t-79.5 398q0 234 80 401t226.5 256t343.5 89t341.5 -89t223.5 -256t79 -401q0 -232 -78 -397.5t-223 -254t-343 -88.5zM751 184q118 0 203 55.5t130.5 173t45.5 304.5q0 190 -46 310.5t-131 177.5t-202 57q-118 0 -203.5 -57.5
t-132.5 -178t-47 -309.5q0 -187 47 -304.5t132.5 -173t203.5 -55.5zM1077 1792v-161h-654v161h654z" />
    <glyph glyph-name="uni01EA" unicode="&#x1ea;" horiz-adv-x="1497" 
d="M751 -20q-200 0 -345.5 88t-225 254t-79.5 398q0 234 80 401t226.5 256t343.5 89t341.5 -89t223.5 -256t79 -401q0 -232 -78 -397.5t-223 -254t-343 -88.5zM751 184q118 0 203 55.5t130.5 173t45.5 304.5q0 190 -46 310.5t-131 177.5t-202 57q-118 0 -203.5 -57.5
t-132.5 -178t-47 -309.5q0 -187 47 -304.5t132.5 -173t203.5 -55.5zM570 -176q0 57 39.5 104.5t158.5 85.5l172 -9q-103 -40 -145.5 -75t-42.5 -79q0 -34 19.5 -51t62.5 -17q46 0 82.5 13t61.5 27v-116q-26 -15 -81 -29.5t-118 -14.5q-100 0 -154.5 42t-54.5 119z" />
    <glyph glyph-name="Oslash" unicode="&#xd8;" horiz-adv-x="1529" 
d="M164 -27l-115 116l168 179q-51 88 -78.5 201t-27.5 249q0 235 79.5 402t225.5 256.5t344 89.5q136 0 246 -42t192 -123l162 170l115 -114l-175 -187q52 -88 79 -201t27 -249q0 -232 -78.5 -398t-224 -254t-344.5 -88q-135 0 -245 41t-191 118zM761 181q159 0 243.5 103
t95.5 320q7 90 1 175.5t-23 170.5l-587 -641q88 -128 270 -128zM438 487l589 643q-43 71 -109.5 104t-157.5 33q-162 0 -249 -111t-99 -344q-4 -86 2.5 -167t23.5 -158z" />
    <glyph glyph-name="Oslashacute" unicode="&#x1fe;" horiz-adv-x="1529" 
d="M164 -27l-115 116l168 179q-51 88 -78.5 201t-27.5 249q0 235 79.5 402t225.5 256.5t344 89.5q136 0 246 -42t192 -123l162 170l115 -114l-175 -187q52 -88 79 -201t27 -249q0 -232 -78.5 -398t-224 -254t-344.5 -88q-135 0 -245 41t-191 118zM761 181q159 0 243.5 103
t95.5 320q7 90 1 175.5t-23 170.5l-587 -641q88 -128 270 -128zM438 487l589 643q-43 71 -109.5 104t-157.5 33q-162 0 -249 -111t-99 -344q-4 -86 2.5 -167t23.5 -158zM873 1858h260l-286 -291h-180z" />
    <glyph glyph-name="Otilde" unicode="&#xd5;" horiz-adv-x="1497" 
d="M751 -20q-200 0 -345.5 88t-225 254t-79.5 398q0 234 80 401t226.5 256t343.5 89t341.5 -89t223.5 -256t79 -401q0 -232 -78 -397.5t-223 -254t-343 -88.5zM751 184q118 0 203 55.5t130.5 173t45.5 304.5q0 190 -46 310.5t-131 177.5t-202 57q-118 0 -203.5 -57.5
t-132.5 -178t-47 -309.5q0 -187 47 -304.5t132.5 -173t203.5 -55.5zM1080 1687q-29 -22 -76 -43t-112 -21q-55 0 -98.5 13.5t-84.5 27t-89 13.5q-50 0 -82 -16.5t-68 -44.5l-40 133q35 34 76.5 59t104.5 25q53 0 100 -14.5t91.5 -29.5t89.5 -15q49 0 86 20t68 43z" />
    <glyph glyph-name="OE" unicode="&#x152;" horiz-adv-x="2224" 
d="M2113 207v-207h-920l-52 128q-63 -73 -159 -110.5t-219 -37.5q-207 0 -355 88t-227.5 253t-79.5 397q0 235 81.5 402t232 256.5t360.5 89.5q121 0 213 -37.5t153 -111.5l65 129h884l-1 -205h-705v-410h497v-204h-497v-420h729zM752 180q181 0 266 128t85 409
q0 285 -86.5 418t-265.5 133q-181 0 -269.5 -133.5t-88.5 -417.5q0 -280 88 -408.5t271 -128.5z" />
    <glyph glyph-name="P" unicode="P" horiz-adv-x="1290" 
d="M175 0v1446h513q156 0 279.5 -53.5t194.5 -157.5t71 -256q0 -143 -64.5 -245t-179.5 -156t-269 -54h-298v-524h-247zM420 719h294q127 0 207.5 76t80.5 198q0 124 -84 192.5t-211 68.5h-287v-535z" />
    <glyph glyph-name="Thorn" unicode="&#xde;" horiz-adv-x="1334" 
d="M1276 742q0 -143 -69.5 -238.5t-191.5 -143t-279 -47.5h-314v-313h-247v1446h247v-286h309q159 0 282 -45.5t193 -138t70 -234.5zM1022 742q0 75 -40 122t-106.5 69.5t-145.5 22.5h-308v-439h314q77 0 141.5 23t104.5 73t40 129z" />
    <glyph glyph-name="Q" unicode="Q" horiz-adv-x="1523" 
d="M101 720q0 235 80 402t225.5 255.5t343.5 88.5t343 -88.5t224.5 -255.5t79.5 -402q0 -210 -63 -364.5t-197 -253.5q30 -70 98.5 -107.5t152.5 -39.5v-199q-84 0 -165.5 16.5t-158.5 68t-147 155.5q-50 -8 -88.5 -12t-78.5 -4q-198 0 -343.5 87t-225.5 252.5t-80 400.5z
M370 716q0 -280 99.5 -406t280.5 -126t281 126t100 408q0 281 -99.5 412.5t-281.5 131.5q-181 0 -280.5 -131.5t-99.5 -414.5z" />
    <glyph glyph-name="R" unicode="R" horiz-adv-x="1374" 
d="M1257 0h-254l-249 587h-336v-587h-243v1446h587q166 0 273.5 -51.5t159.5 -145t52 -218.5q0 -116 -38 -194.5t-98.5 -128t-129.5 -80.5zM707 780q138 0 215.5 64t77.5 178q0 112 -72 173t-190 61h-320v-476h289z" />
    <glyph glyph-name="Racute" unicode="&#x154;" horiz-adv-x="1374" 
d="M1257 0h-254l-249 587h-336v-587h-243v1446h587q166 0 273.5 -51.5t159.5 -145t52 -218.5q0 -116 -38 -194.5t-98.5 -128t-129.5 -80.5zM707 780q138 0 215.5 64t77.5 178q0 112 -72 173t-190 61h-320v-476h289zM785 1858h260l-286 -291h-180z" />
    <glyph glyph-name="Rcaron" unicode="&#x158;" horiz-adv-x="1374" 
d="M1257 0h-254l-249 587h-336v-587h-243v1446h587q166 0 273.5 -51.5t159.5 -145t52 -218.5q0 -116 -38 -194.5t-98.5 -128t-129.5 -80.5zM707 780q138 0 215.5 64t77.5 178q0 112 -72 173t-190 61h-320v-476h289zM585 1567l-258 245h193l149 -144l135 144h204l-252 -245
h-171z" />
    <glyph glyph-name="uni0156" unicode="&#x156;" horiz-adv-x="1374" 
d="M1257 0h-254l-249 587h-336v-587h-243v1446h587q166 0 273.5 -51.5t159.5 -145t52 -218.5q0 -116 -38 -194.5t-98.5 -128t-129.5 -80.5zM707 780q138 0 215.5 64t77.5 178q0 112 -72 173t-190 61h-320v-476h289zM563 -413l87 138l-72 7v173h220v-144l-144 -174h-91z" />
    <glyph glyph-name="uni0210" unicode="&#x210;" horiz-adv-x="1374" 
d="M1257 0h-254l-249 587h-336v-587h-243v1446h587q166 0 273.5 -51.5t159.5 -145t52 -218.5q0 -116 -38 -194.5t-98.5 -128t-129.5 -80.5zM707 780q138 0 215.5 64t77.5 178q0 112 -72 173t-190 61h-320v-476h289zM718 1858l199 -291h-179l-253 291h233zM356 1858l242 -291
h-180l-302 291h240z" />
    <glyph glyph-name="uni1E5A" unicode="&#x1e5a;" horiz-adv-x="1374" 
d="M1257 0h-254l-249 587h-336v-587h-243v1446h587q166 0 273.5 -51.5t159.5 -145t52 -218.5q0 -116 -38 -194.5t-98.5 -128t-129.5 -80.5zM707 780q138 0 215.5 64t77.5 178q0 112 -72 173t-190 61h-320v-476h289zM569 -380v210h237v-210h-237z" />
    <glyph glyph-name="uni0212" unicode="&#x212;" horiz-adv-x="1374" 
d="M1257 0h-254l-249 587h-336v-587h-243v1446h587q166 0 273.5 -51.5t159.5 -145t52 -218.5q0 -116 -38 -194.5t-98.5 -128t-129.5 -80.5zM707 780q138 0 215.5 64t77.5 178q0 112 -72 173t-190 61h-320v-476h289zM996 1605q-16 76 -63.5 129t-116 80.5t-150.5 27.5
q-79 0 -147.5 -26.5t-116 -79.5t-64.5 -131h162q15 49 58.5 80t107.5 31q63 0 108 -31t62 -80h160z" />
    <glyph glyph-name="S" unicode="S" horiz-adv-x="1369" 
d="M695 -20q-105 0 -205 26.5t-181.5 79t-135.5 131t-66 183.5h252q16 -73 63 -123t117.5 -76t154.5 -26q90 0 162.5 24t115 70t42.5 113q0 59 -31 100t-86.5 67.5t-129.5 42.5l-266 58q-161 33 -255 128t-96 253q-1 131 69.5 228.5t192.5 151t276 53.5q180 0 303.5 -58.5
t187 -156.5t64.5 -215h-246q-9 86 -51.5 137t-108.5 73t-146 22q-60 0 -112 -14t-91 -41t-60.5 -65.5t-21.5 -87.5q0 -70 46.5 -113.5t174.5 -73.5l260 -58q121 -24 195 -72t113 -109.5t52 -125.5t13 -122q0 -113 -69.5 -205t-196 -145.5t-299.5 -53.5z" />
    <glyph glyph-name="Sacute" unicode="&#x15a;" horiz-adv-x="1369" 
d="M695 -20q-105 0 -205 26.5t-181.5 79t-135.5 131t-66 183.5h252q16 -73 63 -123t117.5 -76t154.5 -26q90 0 162.5 24t115 70t42.5 113q0 59 -31 100t-86.5 67.5t-129.5 42.5l-266 58q-161 33 -255 128t-96 253q-1 131 69.5 228.5t192.5 151t276 53.5q180 0 303.5 -58.5
t187 -156.5t64.5 -215h-246q-9 86 -51.5 137t-108.5 73t-146 22q-60 0 -112 -14t-91 -41t-60.5 -65.5t-21.5 -87.5q0 -70 46.5 -113.5t174.5 -73.5l260 -58q121 -24 195 -72t113 -109.5t52 -125.5t13 -122q0 -113 -69.5 -205t-196 -145.5t-299.5 -53.5zM800 1858h260
l-286 -291h-180z" />
    <glyph glyph-name="Scaron" unicode="&#x160;" horiz-adv-x="1369" 
d="M695 -20q-105 0 -205 26.5t-181.5 79t-135.5 131t-66 183.5h252q16 -73 63 -123t117.5 -76t154.5 -26q90 0 162.5 24t115 70t42.5 113q0 59 -31 100t-86.5 67.5t-129.5 42.5l-266 58q-161 33 -255 128t-96 253q-1 131 69.5 228.5t192.5 151t276 53.5q180 0 303.5 -58.5
t187 -156.5t64.5 -215h-246q-9 86 -51.5 137t-108.5 73t-146 22q-60 0 -112 -14t-91 -41t-60.5 -65.5t-21.5 -87.5q0 -70 46.5 -113.5t174.5 -73.5l260 -58q121 -24 195 -72t113 -109.5t52 -125.5t13 -122q0 -113 -69.5 -205t-196 -145.5t-299.5 -53.5zM601 1567l-258 245
h193l149 -144l135 144h204l-252 -245h-171z" />
    <glyph glyph-name="Scedilla" unicode="&#x15e;" horiz-adv-x="1369" 
d="M695 -20q-105 0 -205 26.5t-181.5 79t-135.5 131t-66 183.5h252q16 -73 63 -123t117.5 -76t154.5 -26q90 0 162.5 24t115 70t42.5 113q0 59 -31 100t-86.5 67.5t-129.5 42.5l-266 58q-161 33 -255 128t-96 253q-1 131 69.5 228.5t192.5 151t276 53.5q180 0 303.5 -58.5
t187 -156.5t64.5 -215h-246q-9 86 -51.5 137t-108.5 73t-146 22q-60 0 -112 -14t-91 -41t-60.5 -65.5t-21.5 -87.5q0 -70 46.5 -113.5t174.5 -73.5l260 -58q121 -24 195 -72t113 -109.5t52 -125.5t13 -122q0 -113 -69.5 -205t-196 -145.5t-299.5 -53.5zM890 -260
q0 -51 -31.5 -86.5t-83.5 -54t-114 -18.5q-58 0 -111.5 12t-99.5 40l35 89q29 -19 66 -33.5t81 -14.5q51 0 77 17.5t26 49.5q0 41 -37.5 62t-127.5 22q-11 0 -14.5 3.5t0.5 13.5l73 168h115l-46 -119q72 -2 114 -25.5t60 -57.5t18 -68z" />
    <glyph glyph-name="Scircumflex" unicode="&#x15c;" horiz-adv-x="1369" 
d="M695 -20q-105 0 -205 26.5t-181.5 79t-135.5 131t-66 183.5h252q16 -73 63 -123t117.5 -76t154.5 -26q90 0 162.5 24t115 70t42.5 113q0 59 -31 100t-86.5 67.5t-129.5 42.5l-266 58q-161 33 -255 128t-96 253q-1 131 69.5 228.5t192.5 151t276 53.5q180 0 303.5 -58.5
t187 -156.5t64.5 -215h-246q-9 86 -51.5 137t-108.5 73t-146 22q-60 0 -112 -14t-91 -41t-60.5 -65.5t-21.5 -87.5q0 -70 46.5 -113.5t174.5 -73.5l260 -58q121 -24 195 -72t113 -109.5t52 -125.5t13 -122q0 -113 -69.5 -205t-196 -145.5t-299.5 -53.5zM820 1567l-135 135
l-149 -135h-192l258 244h170l252 -244h-204z" />
    <glyph glyph-name="uni0218" unicode="&#x218;" horiz-adv-x="1369" 
d="M695 -20q-105 0 -205 26.5t-181.5 79t-135.5 131t-66 183.5h252q16 -73 63 -123t117.5 -76t154.5 -26q90 0 162.5 24t115 70t42.5 113q0 59 -31 100t-86.5 67.5t-129.5 42.5l-266 58q-161 33 -255 128t-96 253q-1 131 69.5 228.5t192.5 151t276 53.5q180 0 303.5 -58.5
t187 -156.5t64.5 -215h-246q-9 86 -51.5 137t-108.5 73t-146 22q-60 0 -112 -14t-91 -41t-60.5 -65.5t-21.5 -87.5q0 -70 46.5 -113.5t174.5 -73.5l260 -58q121 -24 195 -72t113 -109.5t52 -125.5t13 -122q0 -113 -69.5 -205t-196 -145.5t-299.5 -53.5zM556 -413l87 138
l-72 7v173h220v-144l-144 -174h-91z" />
    <glyph glyph-name="uni1E62" unicode="&#x1e62;" horiz-adv-x="1369" 
d="M695 -20q-105 0 -205 26.5t-181.5 79t-135.5 131t-66 183.5h252q16 -73 63 -123t117.5 -76t154.5 -26q90 0 162.5 24t115 70t42.5 113q0 59 -31 100t-86.5 67.5t-129.5 42.5l-266 58q-161 33 -255 128t-96 253q-1 131 69.5 228.5t192.5 151t276 53.5q180 0 303.5 -58.5
t187 -156.5t64.5 -215h-246q-9 86 -51.5 137t-108.5 73t-146 22q-60 0 -112 -14t-91 -41t-60.5 -65.5t-21.5 -87.5q0 -70 46.5 -113.5t174.5 -73.5l260 -58q121 -24 195 -72t113 -109.5t52 -125.5t13 -122q0 -113 -69.5 -205t-196 -145.5t-299.5 -53.5zM562 -380v210h237
v-210h-237z" />
    <glyph glyph-name="uni018F" unicode="&#x18f;" horiz-adv-x="1494" 
d="M747 -20q-192 0 -337 85.5t-226 264.5t-81 458h1001q0 213 -94 330.5t-268 117.5q-87 0 -155 -26t-114.5 -69t-71 -93t-24.5 -97h-276q0 85 45 175.5t129.5 167t203.5 124.5t268 48q202 0 346.5 -86.5t222 -250.5t77.5 -397q0 -252 -82 -419t-227 -250t-337 -83zM747 197
q116 0 194.5 52.5t118.5 144.5t41 210l-702 1q0 -119 40 -211.5t117.5 -144.5t190.5 -52z" />
    <glyph glyph-name="T" unicode="T" horiz-adv-x="1212" 
d="M42 1227v219h1128v-219h-434v-1227h-244v1227h-450z" />
    <glyph glyph-name="Tbar" unicode="&#x166;" horiz-adv-x="1212" 
d="M999 804v-184h-788v184h788zM42 1227v219h1128v-219h-434v-1227h-244v1227h-450z" />
    <glyph glyph-name="Tcaron" unicode="&#x164;" horiz-adv-x="1212" 
d="M42 1227v219h1128v-219h-434v-1227h-244v1227h-450zM540 1567l-258 245h193l149 -144l135 144h204l-252 -245h-171z" />
    <glyph glyph-name="uni0162" unicode="&#x162;" horiz-adv-x="1212" 
d="M42 1227v219h1128v-219h-434v-1227h-244v1227h-450zM835 -258q0 -51 -31.5 -86.5t-83.5 -54t-114 -18.5q-58 0 -111.5 12t-99.5 40l35 89q29 -19 66 -33.5t81 -14.5q51 0 77 17.5t26 49.5q0 41 -37.5 62t-127.5 22q-11 0 -14.5 3.5t0.5 13.5l73 168h115l-46 -119
q72 -2 114 -25.5t60 -57.5t18 -68z" />
    <glyph glyph-name="uni021A" unicode="&#x21a;" horiz-adv-x="1212" 
d="M42 1227v219h1128v-219h-434v-1227h-244v1227h-450zM501 -411l87 138l-72 7v173h220v-144l-144 -174h-91z" />
    <glyph glyph-name="uni1E6C" unicode="&#x1e6c;" horiz-adv-x="1212" 
d="M42 1227v219h1128v-219h-434v-1227h-244v1227h-450zM507 -378v210h237v-210h-237z" />
    <glyph glyph-name="U" unicode="U" horiz-adv-x="1427" 
d="M1287 528q0 -172 -56 -294.5t-178.5 -188t-322.5 -65.5t-322.5 66.5t-177.5 192t-55 303.5v904h249v-929q0 -168 82.5 -248t223.5 -80q95 0 165 35t108 107.5t38 185.5v929h246v-918z" />
    <glyph glyph-name="Uacute" unicode="&#xda;" horiz-adv-x="1427" 
d="M1287 528q0 -172 -56 -294.5t-178.5 -188t-322.5 -65.5t-322.5 66.5t-177.5 192t-55 303.5v904h249v-929q0 -168 82.5 -248t223.5 -80q95 0 165 35t108 107.5t38 185.5v929h246v-918zM846 1858h260l-286 -291h-180z" />
    <glyph glyph-name="Ubreve" unicode="&#x16c;" horiz-adv-x="1427" 
d="M1287 528q0 -172 -56 -294.5t-178.5 -188t-322.5 -65.5t-322.5 66.5t-177.5 192t-55 303.5v904h249v-929q0 -168 82.5 -248t223.5 -80q95 0 165 35t108 107.5t38 185.5v929h246v-918zM1061 1803q-16 -76 -63.5 -129t-116 -80.5t-150.5 -27.5q-79 0 -147.5 26.5t-116 79.5
t-64.5 131h162q15 -49 58.5 -80t107.5 -31q63 0 108 31t62 80h160z" />
    <glyph glyph-name="Ucircumflex" unicode="&#xdb;" horiz-adv-x="1427" 
d="M1287 528q0 -172 -56 -294.5t-178.5 -188t-322.5 -65.5t-322.5 66.5t-177.5 192t-55 303.5v904h249v-929q0 -168 82.5 -248t223.5 -80q95 0 165 35t108 107.5t38 185.5v929h246v-918zM866 1567l-135 135l-149 -135h-192l258 244h170l252 -244h-204z" />
    <glyph glyph-name="uni0214" unicode="&#x214;" horiz-adv-x="1427" 
d="M1287 528q0 -172 -56 -294.5t-178.5 -188t-322.5 -65.5t-322.5 66.5t-177.5 192t-55 303.5v904h249v-929q0 -168 82.5 -248t223.5 -80q95 0 165 35t108 107.5t38 185.5v929h246v-918zM780 1858l199 -291h-179l-253 291h233zM418 1858l242 -291h-180l-302 291h240z" />
    <glyph glyph-name="Udieresis" unicode="&#xdc;" horiz-adv-x="1427" 
d="M1287 528q0 -172 -56 -294.5t-178.5 -188t-322.5 -65.5t-322.5 66.5t-177.5 192t-55 303.5v904h249v-929q0 -168 82.5 -248t223.5 -80q95 0 165 35t108 107.5t38 185.5v929h246v-918zM831 1611l2 210h232l-3 -210h-231zM400 1611l2 210h232l-3 -210h-231z" />
    <glyph glyph-name="uni1EE4" unicode="&#x1ee4;" horiz-adv-x="1427" 
d="M1287 528q0 -172 -56 -294.5t-178.5 -188t-322.5 -65.5t-322.5 66.5t-177.5 192t-55 303.5v904h249v-929q0 -168 82.5 -248t223.5 -80q95 0 165 35t108 107.5t38 185.5v929h246v-918zM611 -378v210h237v-210h-237z" />
    <glyph glyph-name="Ugrave" unicode="&#xd9;" horiz-adv-x="1427" 
d="M1287 528q0 -172 -56 -294.5t-178.5 -188t-322.5 -65.5t-322.5 66.5t-177.5 192t-55 303.5v904h249v-929q0 -168 82.5 -248t223.5 -80q95 0 165 35t108 107.5t38 185.5v929h246v-918zM612 1858h-260l286 -291h180z" />
    <glyph glyph-name="uni1EE6" unicode="&#x1ee6;" horiz-adv-x="1427" 
d="M1287 528q0 -172 -56 -294.5t-178.5 -188t-322.5 -65.5t-322.5 66.5t-177.5 192t-55 303.5v904h249v-929q0 -168 82.5 -248t223.5 -80q95 0 165 35t108 107.5t38 185.5v929h246v-918zM593 1895l62 -96q38 25 78.5 24.5t59.5 -32.5q21 -33 5.5 -68t-56.5 -61l62 -97
q96 57 120 135t-29 159q-43 67 -128.5 80t-173.5 -44z" />
    <glyph glyph-name="Uhorn" unicode="&#x1af;" horiz-adv-x="1675" 
d="M1287 528q0 -172 -56 -294.5t-178.5 -188t-322.5 -65.5t-322.5 66.5t-177.5 192t-55 303.5v904h249v-929q0 -168 82.5 -248t223.5 -80q95 0 165 35t108 107.5t38 185.5v929h246v-918zM1595 1481q-1 -131 -34.5 -209t-111.5 -108t-213 -15v126q48 -1 81.5 4.5t55 25
t34 61.5t16.5 115h172z" />
    <glyph glyph-name="uni1EE8" unicode="&#x1ee8;" horiz-adv-x="1675" 
d="M1287 528q0 -172 -56 -294.5t-178.5 -188t-322.5 -65.5t-322.5 66.5t-177.5 192t-55 303.5v904h249v-929q0 -168 82.5 -248t223.5 -80q95 0 165 35t108 107.5t38 185.5v929h246v-918zM1595 1481q-1 -131 -34.5 -209t-111.5 -108t-213 -15v126q48 -1 81.5 4.5t55 25
t34 61.5t16.5 115h172zM846 1858h260l-286 -291h-180z" />
    <glyph glyph-name="uni1EF0" unicode="&#x1ef0;" horiz-adv-x="1675" 
d="M1287 528q0 -172 -56 -294.5t-178.5 -188t-322.5 -65.5t-322.5 66.5t-177.5 192t-55 303.5v904h249v-929q0 -168 82.5 -248t223.5 -80q95 0 165 35t108 107.5t38 185.5v929h246v-918zM1595 1481q-1 -131 -34.5 -209t-111.5 -108t-213 -15v126q48 -1 81.5 4.5t55 25
t34 61.5t16.5 115h172zM611 -378v210h237v-210h-237z" />
    <glyph glyph-name="uni1EEA" unicode="&#x1eea;" horiz-adv-x="1675" 
d="M1287 528q0 -172 -56 -294.5t-178.5 -188t-322.5 -65.5t-322.5 66.5t-177.5 192t-55 303.5v904h249v-929q0 -168 82.5 -248t223.5 -80q95 0 165 35t108 107.5t38 185.5v929h246v-918zM1595 1481q-1 -131 -34.5 -209t-111.5 -108t-213 -15v126q48 -1 81.5 4.5t55 25
t34 61.5t16.5 115h172zM612 1858h-260l286 -291h180z" />
    <glyph glyph-name="uni1EEC" unicode="&#x1eec;" horiz-adv-x="1675" 
d="M1287 528q0 -172 -56 -294.5t-178.5 -188t-322.5 -65.5t-322.5 66.5t-177.5 192t-55 303.5v904h249v-929q0 -168 82.5 -248t223.5 -80q95 0 165 35t108 107.5t38 185.5v929h246v-918zM1595 1481q-1 -131 -34.5 -209t-111.5 -108t-213 -15v126q48 -1 81.5 4.5t55 25
t34 61.5t16.5 115h172zM593 1895l62 -96q38 25 78.5 24.5t59.5 -32.5q21 -33 5.5 -68t-56.5 -61l62 -97q96 57 120 135t-29 159q-43 67 -128.5 80t-173.5 -44z" />
    <glyph glyph-name="uni1EEE" unicode="&#x1eee;" horiz-adv-x="1669" 
d="M1287 528q0 -172 -56 -294.5t-178.5 -188t-322.5 -65.5t-322.5 66.5t-177.5 192t-55 303.5v904h249v-929q0 -168 82.5 -248t223.5 -80q95 0 165 35t108 107.5t38 185.5v929h246v-918zM1595 1481q-1 -131 -34.5 -209t-111.5 -108t-213 -15v126q48 -1 81.5 4.5t55 25
t34 61.5t16.5 115h172zM1061 1687q-29 -22 -76 -43t-112 -21q-55 0 -98.5 13.5t-84.5 27t-89 13.5q-50 0 -82 -16.5t-68 -44.5l-40 133q35 34 76.5 59t104.5 25q53 0 100 -14.5t91.5 -29.5t89.5 -15q49 0 86 20t68 43z" />
    <glyph glyph-name="Uhungarumlaut" unicode="&#x170;" horiz-adv-x="1427" 
d="M1287 528q0 -172 -56 -294.5t-178.5 -188t-322.5 -65.5t-322.5 66.5t-177.5 192t-55 303.5v904h249v-929q0 -168 82.5 -248t223.5 -80q95 0 165 35t108 107.5t38 185.5v929h246v-918zM685 1858l-199 -291h179l253 291h-233zM1047 1858l-242 -291h180l302 291h-240z" />
    <glyph glyph-name="uni0216" unicode="&#x216;" horiz-adv-x="1427" 
d="M1287 528q0 -172 -56 -294.5t-178.5 -188t-322.5 -65.5t-322.5 66.5t-177.5 192t-55 303.5v904h249v-929q0 -168 82.5 -248t223.5 -80q95 0 165 35t108 107.5t38 185.5v929h246v-918zM1058 1605q-16 76 -63.5 129t-116 80.5t-150.5 27.5q-79 0 -147.5 -26.5t-116 -79.5
t-64.5 -131h162q15 49 58.5 80t107.5 31q63 0 108 -31t62 -80h160z" />
    <glyph glyph-name="Umacron" unicode="&#x16a;" horiz-adv-x="1427" 
d="M1287 528q0 -172 -56 -294.5t-178.5 -188t-322.5 -65.5t-322.5 66.5t-177.5 192t-55 303.5v904h249v-929q0 -168 82.5 -248t223.5 -80q95 0 165 35t108 107.5t38 185.5v929h246v-918zM1059 1792v-161h-654v161h654z" />
    <glyph glyph-name="Uogonek" unicode="&#x172;" horiz-adv-x="1427" 
d="M1287 528q0 -172 -56 -294.5t-178.5 -188t-322.5 -65.5t-322.5 66.5t-177.5 192t-55 303.5v904h249v-929q0 -168 82.5 -248t223.5 -80q95 0 165 35t108 107.5t38 185.5v929h246v-918zM538 -174q0 57 39.5 104.5t158.5 85.5l172 -9q-103 -40 -145.5 -75t-42.5 -79
q0 -34 19.5 -51t62.5 -17q46 0 82.5 13t61.5 27v-116q-26 -15 -81 -29.5t-118 -14.5q-100 0 -154.5 42t-54.5 119z" />
    <glyph glyph-name="Uring" unicode="&#x16e;" horiz-adv-x="1427" 
d="M1287 528q0 -172 -56 -294.5t-178.5 -188t-322.5 -65.5t-322.5 66.5t-177.5 192t-55 303.5v904h249v-929q0 -168 82.5 -248t223.5 -80q95 0 165 35t108 107.5t38 185.5v929h246v-918zM945 1768q0 -90 -62 -151t-151 -61t-150.5 62.5t-61.5 153.5q0 85 62.5 145t149.5 60
q59 0 107.5 -28t77 -75.5t28.5 -105.5zM832 1767q0 44 -29.5 73t-72.5 29q-42 0 -73.5 -29t-31.5 -73q0 -42 31.5 -74t73.5 -32q43 0 72.5 32t29.5 74z" />
    <glyph glyph-name="Utilde" unicode="&#x168;" horiz-adv-x="1427" 
d="M1287 528q0 -172 -56 -294.5t-178.5 -188t-322.5 -65.5t-322.5 66.5t-177.5 192t-55 303.5v904h249v-929q0 -168 82.5 -248t223.5 -80q95 0 165 35t108 107.5t38 185.5v929h246v-918zM1061 1687q-29 -22 -76 -43t-112 -21q-55 0 -98.5 13.5t-84.5 27t-89 13.5
q-50 0 -82 -16.5t-68 -44.5l-40 133q35 34 76.5 59t104.5 25q53 0 100 -14.5t91.5 -29.5t89.5 -15q49 0 86 20t68 43z" />
    <glyph glyph-name="V" unicode="V" horiz-adv-x="1370" 
d="M1328 1446l-505 -1446h-282l-499 1446h235l405 -1165l411 1165h235z" />
    <glyph glyph-name="W" unicode="W" horiz-adv-x="1923" 
d="M1882 1446l-425 -1446h-205l-292 1025l-296 -1025h-200l-422 1446h240l293 -1044l294 1044h182l296 -1044l294 1044h241z" />
    <glyph glyph-name="Wacute" unicode="&#x1e82;" horiz-adv-x="1923" 
d="M1882 1446l-425 -1446h-205l-292 1025l-296 -1025h-200l-422 1446h240l293 -1044l294 1044h182l296 -1044l294 1044h241zM1075 1858h260l-286 -291h-180z" />
    <glyph glyph-name="Wcircumflex" unicode="&#x174;" horiz-adv-x="1923" 
d="M1882 1446l-425 -1446h-205l-292 1025l-296 -1025h-200l-422 1446h240l293 -1044l294 1044h182l296 -1044l294 1044h241zM1094 1567l-135 135l-149 -135h-192l258 244h170l252 -244h-204z" />
    <glyph glyph-name="Wdieresis" unicode="&#x1e84;" horiz-adv-x="1923" 
d="M1882 1446l-425 -1446h-205l-292 1025l-296 -1025h-200l-422 1446h240l293 -1044l294 1044h182l296 -1044l294 1044h241zM1059 1611l2 210h232l-3 -210h-231zM628 1611l2 210h232l-3 -210h-231z" />
    <glyph glyph-name="Wgrave" unicode="&#x1e80;" horiz-adv-x="1923" 
d="M1882 1446l-425 -1446h-205l-292 1025l-296 -1025h-200l-422 1446h240l293 -1044l294 1044h182l296 -1044l294 1044h241zM840 1858h-260l286 -291h180z" />
    <glyph glyph-name="X" unicode="X" horiz-adv-x="1408" 
d="M1340 0h-302l-356 556l-350 -556h-264l485 736l-469 710h300l321 -506l319 506h262l-453 -681z" />
    <glyph glyph-name="Y" unicode="Y" horiz-adv-x="1280" 
d="M1259 1446l-497 -835v-611h-243v612l-498 834h264l357 -622l351 622h266z" />
    <glyph glyph-name="Yacute" unicode="&#xdd;" horiz-adv-x="1280" 
d="M1259 1446l-497 -835v-611h-243v612l-498 834h264l357 -622l351 622h266zM781 1860h260l-286 -291h-180z" />
    <glyph glyph-name="Ycircumflex" unicode="&#x176;" horiz-adv-x="1280" 
d="M1259 1446l-497 -835v-611h-243v612l-498 834h264l357 -622l351 622h266zM800 1569l-135 135l-149 -135h-192l258 244h170l252 -244h-204z" />
    <glyph glyph-name="Ydieresis" unicode="&#x178;" horiz-adv-x="1280" 
d="M1259 1446l-497 -835v-611h-243v612l-498 834h264l357 -622l351 622h266zM765 1613l2 210h232l-3 -210h-231zM334 1613l2 210h232l-3 -210h-231z" />
    <glyph glyph-name="uni1EF4" unicode="&#x1ef4;" horiz-adv-x="1280" 
d="M1259 1446l-497 -835v-611h-243v612l-498 834h264l357 -622l351 622h266zM524 -380v210h237v-210h-237z" />
    <glyph glyph-name="Ygrave" unicode="&#x1ef2;" horiz-adv-x="1280" 
d="M1259 1446l-497 -835v-611h-243v612l-498 834h264l357 -622l351 622h266zM546 1860h-260l286 -291h180z" />
    <glyph glyph-name="uni1EF6" unicode="&#x1ef6;" horiz-adv-x="1280" 
d="M1259 1446l-497 -835v-611h-243v612l-498 834h264l357 -622l351 622h266zM527 1897l62 -96q38 25 78.5 24.5t59.5 -32.5q21 -33 5.5 -68t-56.5 -61l62 -97q96 57 120 135t-29 159q-43 67 -128.5 80t-173.5 -44z" />
    <glyph glyph-name="uni1EF8" unicode="&#x1ef8;" horiz-adv-x="1280" 
d="M1259 1446l-497 -835v-611h-243v612l-498 834h264l357 -622l351 622h266zM995 1689q-29 -22 -76 -43t-112 -21q-55 0 -98.5 13.5t-84.5 27t-89 13.5q-50 0 -82 -16.5t-68 -44.5l-40 133q35 34 76.5 59t104.5 25q53 0 100 -14.5t91.5 -29.5t89.5 -15q49 0 86 20t68 43z
" />
    <glyph glyph-name="Z" unicode="Z" horiz-adv-x="1309" 
d="M117 0v124l760 1115h-718v207h1063v-118l-769 -1119h762v-209h-1098z" />
    <glyph glyph-name="Zacute" unicode="&#x179;" horiz-adv-x="1309" 
d="M117 0v124l760 1115h-718v207h1063v-118l-769 -1119h762v-209h-1098zM816 1858h260l-286 -291h-180z" />
    <glyph glyph-name="Zcaron" unicode="&#x17d;" horiz-adv-x="1309" 
d="M117 0v124l760 1115h-718v207h1063v-118l-769 -1119h762v-209h-1098zM616 1567l-258 245h193l149 -144l135 144h204l-252 -245h-171z" />
    <glyph glyph-name="Zdotaccent" unicode="&#x17b;" horiz-adv-x="1309" 
d="M117 0v124l760 1115h-718v207h1063v-118l-769 -1119h762v-209h-1098zM582 1611v210h237v-210h-237z" />
    <glyph glyph-name="uni1E92" unicode="&#x1e92;" horiz-adv-x="1309" 
d="M117 0v124l760 1115h-718v207h1063v-118l-769 -1119h762v-209h-1098zM566 -380v210h237v-210h-237z" />
    <glyph glyph-name="a" unicode="a" horiz-adv-x="1139" 
d="M431 -20q-99 0 -177.5 36.5t-123 105t-44.5 166.5q0 171 123.5 258t394.5 91l154 4v70q0 82 -48.5 128.5t-150.5 45.5q-75 -1 -137.5 -35.5t-82.5 -115.5h-207q6 106 61.5 177.5t152.5 107t224 35.5q148 0 241 -39t137 -112.5t44 -177.5v-725h-205l-19 186
q-56 -117 -141.5 -161.5t-195.5 -44.5zM510 145q45 0 89 16.5t80 45t57.5 63.5t21.5 73v163l-127 -2q-94 -1 -164 -20t-109.5 -60.5t-39.5 -110.5q0 -79 55 -123.5t137 -44.5z" />
    <glyph glyph-name="aacute" unicode="&#xe1;" horiz-adv-x="1139" 
d="M431 -20q-99 0 -177.5 36.5t-123 105t-44.5 166.5q0 171 123.5 258t394.5 91l154 4v70q0 82 -48.5 128.5t-150.5 45.5q-75 -1 -137.5 -35.5t-82.5 -115.5h-207q6 106 61.5 177.5t152.5 107t224 35.5q148 0 241 -39t137 -112.5t44 -177.5v-725h-205l-19 186
q-56 -117 -141.5 -161.5t-195.5 -44.5zM510 145q45 0 89 16.5t80 45t57.5 63.5t21.5 73v163l-127 -2q-94 -1 -164 -20t-109.5 -60.5t-39.5 -110.5q0 -79 55 -123.5t137 -44.5zM687 1446h260l-286 -291h-180z" />
    <glyph glyph-name="abreve" unicode="&#x103;" horiz-adv-x="1139" 
d="M431 -20q-99 0 -177.5 36.5t-123 105t-44.5 166.5q0 171 123.5 258t394.5 91l154 4v70q0 82 -48.5 128.5t-150.5 45.5q-75 -1 -137.5 -35.5t-82.5 -115.5h-207q6 106 61.5 177.5t152.5 107t224 35.5q148 0 241 -39t137 -112.5t44 -177.5v-725h-205l-19 186
q-56 -117 -141.5 -161.5t-195.5 -44.5zM510 145q45 0 89 16.5t80 45t57.5 63.5t21.5 73v163l-127 -2q-94 -1 -164 -20t-109.5 -60.5t-39.5 -110.5q0 -79 55 -123.5t137 -44.5zM901 1391q-16 -76 -63.5 -129t-116 -80.5t-150.5 -27.5q-79 0 -147.5 26.5t-116 79.5t-64.5 131
h162q15 -49 58.5 -80t107.5 -31q63 0 108 31t62 80h160z" />
    <glyph glyph-name="uni1EAF" unicode="&#x1eaf;" horiz-adv-x="1139" 
d="M431 -20q-99 0 -177.5 36.5t-123 105t-44.5 166.5q0 171 123.5 258t394.5 91l154 4v70q0 82 -48.5 128.5t-150.5 45.5q-75 -1 -137.5 -35.5t-82.5 -115.5h-207q6 106 61.5 177.5t152.5 107t224 35.5q148 0 241 -39t137 -112.5t44 -177.5v-725h-205l-19 186
q-56 -117 -141.5 -161.5t-195.5 -44.5zM510 145q45 0 89 16.5t80 45t57.5 63.5t21.5 73v163l-127 -2q-94 -1 -164 -20t-109.5 -60.5t-39.5 -110.5q0 -79 55 -123.5t137 -44.5zM904 1391q-16 -76 -63.5 -129t-116 -80.5t-150.5 -27.5q-79 0 -147.5 26.5t-116 79.5t-64.5 131
h162q15 -49 58.5 -80t107.5 -31q63 0 108 31t62 80h160zM652 1689h201l-213 -253h-137z" />
    <glyph glyph-name="uni1EB7" unicode="&#x1eb7;" horiz-adv-x="1139" 
d="M431 -20q-99 0 -177.5 36.5t-123 105t-44.5 166.5q0 171 123.5 258t394.5 91l154 4v70q0 82 -48.5 128.5t-150.5 45.5q-75 -1 -137.5 -35.5t-82.5 -115.5h-207q6 106 61.5 177.5t152.5 107t224 35.5q148 0 241 -39t137 -112.5t44 -177.5v-725h-205l-19 186
q-56 -117 -141.5 -161.5t-195.5 -44.5zM510 145q45 0 89 16.5t80 45t57.5 63.5t21.5 73v163l-127 -2q-94 -1 -164 -20t-109.5 -60.5t-39.5 -110.5q0 -79 55 -123.5t137 -44.5zM450 -380v210h237v-210h-237zM901 1391q-16 -76 -63.5 -129t-116 -80.5t-150.5 -27.5
q-79 0 -147.5 26.5t-116 79.5t-64.5 131h162q15 -49 58.5 -80t107.5 -31q63 0 108 31t62 80h160z" />
    <glyph glyph-name="uni1EB1" unicode="&#x1eb1;" horiz-adv-x="1139" 
d="M431 -20q-99 0 -177.5 36.5t-123 105t-44.5 166.5q0 171 123.5 258t394.5 91l154 4v70q0 82 -48.5 128.5t-150.5 45.5q-75 -1 -137.5 -35.5t-82.5 -115.5h-207q6 106 61.5 177.5t152.5 107t224 35.5q148 0 241 -39t137 -112.5t44 -177.5v-725h-205l-19 186
q-56 -117 -141.5 -161.5t-195.5 -44.5zM510 145q45 0 89 16.5t80 45t57.5 63.5t21.5 73v163l-127 -2q-94 -1 -164 -20t-109.5 -60.5t-39.5 -110.5q0 -79 55 -123.5t137 -44.5zM904 1391q-16 -76 -63.5 -129t-116 -80.5t-150.5 -27.5q-79 0 -147.5 26.5t-116 79.5t-64.5 131
h162q15 -49 58.5 -80t107.5 -31q63 0 108 31t62 80h160zM499 1688l158 -253h-140l-220 253h202z" />
    <glyph glyph-name="uni1EB3" unicode="&#x1eb3;" horiz-adv-x="1139" 
d="M431 -20q-99 0 -177.5 36.5t-123 105t-44.5 166.5q0 171 123.5 258t394.5 91l154 4v70q0 82 -48.5 128.5t-150.5 45.5q-75 -1 -137.5 -35.5t-82.5 -115.5h-207q6 106 61.5 177.5t152.5 107t224 35.5q148 0 241 -39t137 -112.5t44 -177.5v-725h-205l-19 186
q-56 -117 -141.5 -161.5t-195.5 -44.5zM510 145q45 0 89 16.5t80 45t57.5 63.5t21.5 73v163l-127 -2q-94 -1 -164 -20t-109.5 -60.5t-39.5 -110.5q0 -79 55 -123.5t137 -44.5zM904 1391q-16 -76 -63.5 -129t-116 -80.5t-150.5 -27.5q-79 0 -147.5 26.5t-116 79.5t-64.5 131
h162q15 -49 58.5 -80t107.5 -31q63 0 108 31t62 80h160zM454 1764l62 -96q38 25 78.5 24.5t59.5 -32.5q21 -33 5.5 -68t-56.5 -61l62 -97q96 57 120 135t-29 159q-43 67 -128.5 80t-173.5 -44z" />
    <glyph glyph-name="uni1EB5" unicode="&#x1eb5;" horiz-adv-x="1139" 
d="M431 -20q-99 0 -177.5 36.5t-123 105t-44.5 166.5q0 171 123.5 258t394.5 91l154 4v70q0 82 -48.5 128.5t-150.5 45.5q-75 -1 -137.5 -35.5t-82.5 -115.5h-207q6 106 61.5 177.5t152.5 107t224 35.5q148 0 241 -39t137 -112.5t44 -177.5v-725h-205l-19 186
q-56 -117 -141.5 -161.5t-195.5 -44.5zM510 145q45 0 89 16.5t80 45t57.5 63.5t21.5 73v163l-127 -2q-94 -1 -164 -20t-109.5 -60.5t-39.5 -110.5q0 -79 55 -123.5t137 -44.5zM904 1391q-16 -76 -63.5 -129t-116 -80.5t-150.5 -27.5q-79 0 -147.5 26.5t-116 79.5t-64.5 131
h162q15 -49 58.5 -80t107.5 -31q63 0 108 31t62 80h160zM898 1567q-29 -22 -76 -43t-112 -21q-55 0 -98.5 13.5t-84.5 27t-89 13.5q-50 0 -82 -16.5t-68 -44.5l-40 133q35 34 76.5 59t104.5 25q53 0 100 -14.5t91.5 -29.5t89.5 -15q49 0 86 20t68 43z" />
    <glyph glyph-name="acircumflex" unicode="&#xe2;" horiz-adv-x="1139" 
d="M431 -20q-99 0 -177.5 36.5t-123 105t-44.5 166.5q0 171 123.5 258t394.5 91l154 4v70q0 82 -48.5 128.5t-150.5 45.5q-75 -1 -137.5 -35.5t-82.5 -115.5h-207q6 106 61.5 177.5t152.5 107t224 35.5q148 0 241 -39t137 -112.5t44 -177.5v-725h-205l-19 186
q-56 -117 -141.5 -161.5t-195.5 -44.5zM510 145q45 0 89 16.5t80 45t57.5 63.5t21.5 73v163l-127 -2q-94 -1 -164 -20t-109.5 -60.5t-39.5 -110.5q0 -79 55 -123.5t137 -44.5zM706 1155l-135 135l-149 -135h-192l258 244h170l252 -244h-204z" />
    <glyph glyph-name="uni1EA5" unicode="&#x1ea5;" horiz-adv-x="1139" 
d="M431 -20q-99 0 -177.5 36.5t-123 105t-44.5 166.5q0 171 123.5 258t394.5 91l154 4v70q0 82 -48.5 128.5t-150.5 45.5q-75 -1 -137.5 -35.5t-82.5 -115.5h-207q6 106 61.5 177.5t152.5 107t224 35.5q148 0 241 -39t137 -112.5t44 -177.5v-725h-205l-19 186
q-56 -117 -141.5 -161.5t-195.5 -44.5zM510 145q45 0 89 16.5t80 45t57.5 63.5t21.5 73v163l-127 -2q-94 -1 -164 -20t-109.5 -60.5t-39.5 -110.5q0 -79 55 -123.5t137 -44.5zM706 1155l-135 135l-149 -135h-192l258 244h170l252 -244h-204zM928 1641h201l-213 -253h-137z
" />
    <glyph glyph-name="uni1EAD" unicode="&#x1ead;" horiz-adv-x="1139" 
d="M431 -20q-99 0 -177.5 36.5t-123 105t-44.5 166.5q0 171 123.5 258t394.5 91l154 4v70q0 82 -48.5 128.5t-150.5 45.5q-75 -1 -137.5 -35.5t-82.5 -115.5h-207q6 106 61.5 177.5t152.5 107t224 35.5q148 0 241 -39t137 -112.5t44 -177.5v-725h-205l-19 186
q-56 -117 -141.5 -161.5t-195.5 -44.5zM510 145q45 0 89 16.5t80 45t57.5 63.5t21.5 73v163l-127 -2q-94 -1 -164 -20t-109.5 -60.5t-39.5 -110.5q0 -79 55 -123.5t137 -44.5zM450 -380v210h237v-210h-237zM706 1155l-135 135l-149 -135h-192l258 244h170l252 -244h-204z
" />
    <glyph glyph-name="uni1EA7" unicode="&#x1ea7;" horiz-adv-x="1139" 
d="M431 -20q-99 0 -177.5 36.5t-123 105t-44.5 166.5q0 171 123.5 258t394.5 91l154 4v70q0 82 -48.5 128.5t-150.5 45.5q-75 -1 -137.5 -35.5t-82.5 -115.5h-207q6 106 61.5 177.5t152.5 107t224 35.5q148 0 241 -39t137 -112.5t44 -177.5v-725h-205l-19 186
q-56 -117 -141.5 -161.5t-195.5 -44.5zM510 145q45 0 89 16.5t80 45t57.5 63.5t21.5 73v163l-127 -2q-94 -1 -164 -20t-109.5 -60.5t-39.5 -110.5q0 -79 55 -123.5t137 -44.5zM706 1155l-135 135l-149 -135h-192l258 244h170l252 -244h-204zM853 1641l158 -253h-140
l-220 253h202z" />
    <glyph glyph-name="uni1EA9" unicode="&#x1ea9;" horiz-adv-x="1139" 
d="M431 -20q-99 0 -177.5 36.5t-123 105t-44.5 166.5q0 171 123.5 258t394.5 91l154 4v70q0 82 -48.5 128.5t-150.5 45.5q-75 -1 -137.5 -35.5t-82.5 -115.5h-207q6 106 61.5 177.5t152.5 107t224 35.5q148 0 241 -39t137 -112.5t44 -177.5v-725h-205l-19 186
q-56 -117 -141.5 -161.5t-195.5 -44.5zM510 145q45 0 89 16.5t80 45t57.5 63.5t21.5 73v163l-127 -2q-94 -1 -164 -20t-109.5 -60.5t-39.5 -110.5q0 -79 55 -123.5t137 -44.5zM712 1155l-135 135l-149 -135h-192l258 244h170l252 -244h-204zM631 1673l62 -96
q38 25 78.5 24.5t59.5 -32.5q21 -33 5.5 -68t-56.5 -61l62 -97q96 57 120 135t-29 159q-43 67 -128.5 80t-173.5 -44z" />
    <glyph glyph-name="uni1EAB" unicode="&#x1eab;" horiz-adv-x="1139" 
d="M431 -20q-99 0 -177.5 36.5t-123 105t-44.5 166.5q0 171 123.5 258t394.5 91l154 4v70q0 82 -48.5 128.5t-150.5 45.5q-75 -1 -137.5 -35.5t-82.5 -115.5h-207q6 106 61.5 177.5t152.5 107t224 35.5q148 0 241 -39t137 -112.5t44 -177.5v-725h-205l-19 186
q-56 -117 -141.5 -161.5t-195.5 -44.5zM510 145q45 0 89 16.5t80 45t57.5 63.5t21.5 73v163l-127 -2q-94 -1 -164 -20t-109.5 -60.5t-39.5 -110.5q0 -79 55 -123.5t137 -44.5zM708 1155l-135 135l-149 -135h-192l258 244h170l252 -244h-204zM896 1569q-29 -22 -76 -43
t-112 -21q-55 0 -98.5 13.5t-84.5 27t-89 13.5q-50 0 -82 -16.5t-68 -44.5l-40 133q35 34 76.5 59t104.5 25q53 0 100 -14.5t91.5 -29.5t89.5 -15q49 0 86 20t68 43z" />
    <glyph glyph-name="uni0201" unicode="&#x201;" horiz-adv-x="1139" 
d="M431 -20q-99 0 -177.5 36.5t-123 105t-44.5 166.5q0 171 123.5 258t394.5 91l154 4v70q0 82 -48.5 128.5t-150.5 45.5q-75 -1 -137.5 -35.5t-82.5 -115.5h-207q6 106 61.5 177.5t152.5 107t224 35.5q148 0 241 -39t137 -112.5t44 -177.5v-725h-205l-19 186
q-56 -117 -141.5 -161.5t-195.5 -44.5zM510 145q45 0 89 16.5t80 45t57.5 63.5t21.5 73v163l-127 -2q-94 -1 -164 -20t-109.5 -60.5t-39.5 -110.5q0 -79 55 -123.5t137 -44.5zM620 1446l199 -291h-179l-253 291h233zM258 1446l242 -291h-180l-302 291h240z" />
    <glyph glyph-name="adieresis" unicode="&#xe4;" horiz-adv-x="1139" 
d="M431 -20q-99 0 -177.5 36.5t-123 105t-44.5 166.5q0 171 123.5 258t394.5 91l154 4v70q0 82 -48.5 128.5t-150.5 45.5q-75 -1 -137.5 -35.5t-82.5 -115.5h-207q6 106 61.5 177.5t152.5 107t224 35.5q148 0 241 -39t137 -112.5t44 -177.5v-725h-205l-19 186
q-56 -117 -141.5 -161.5t-195.5 -44.5zM510 145q45 0 89 16.5t80 45t57.5 63.5t21.5 73v163l-127 -2q-94 -1 -164 -20t-109.5 -60.5t-39.5 -110.5q0 -79 55 -123.5t137 -44.5zM671 1199l2 210h232l-3 -210h-231zM240 1199l2 210h232l-3 -210h-231z" />
    <glyph glyph-name="uni1EA1" unicode="&#x1ea1;" horiz-adv-x="1139" 
d="M431 -20q-99 0 -177.5 36.5t-123 105t-44.5 166.5q0 171 123.5 258t394.5 91l154 4v70q0 82 -48.5 128.5t-150.5 45.5q-75 -1 -137.5 -35.5t-82.5 -115.5h-207q6 106 61.5 177.5t152.5 107t224 35.5q148 0 241 -39t137 -112.5t44 -177.5v-725h-205l-19 186
q-56 -117 -141.5 -161.5t-195.5 -44.5zM510 145q45 0 89 16.5t80 45t57.5 63.5t21.5 73v163l-127 -2q-94 -1 -164 -20t-109.5 -60.5t-39.5 -110.5q0 -79 55 -123.5t137 -44.5zM450 -380v210h237v-210h-237z" />
    <glyph glyph-name="agrave" unicode="&#xe0;" horiz-adv-x="1139" 
d="M431 -20q-99 0 -177.5 36.5t-123 105t-44.5 166.5q0 171 123.5 258t394.5 91l154 4v70q0 82 -48.5 128.5t-150.5 45.5q-75 -1 -137.5 -35.5t-82.5 -115.5h-207q6 106 61.5 177.5t152.5 107t224 35.5q148 0 241 -39t137 -112.5t44 -177.5v-725h-205l-19 186
q-56 -117 -141.5 -161.5t-195.5 -44.5zM510 145q45 0 89 16.5t80 45t57.5 63.5t21.5 73v163l-127 -2q-94 -1 -164 -20t-109.5 -60.5t-39.5 -110.5q0 -79 55 -123.5t137 -44.5zM452 1446h-260l286 -291h180z" />
    <glyph glyph-name="uni1EA3" unicode="&#x1ea3;" horiz-adv-x="1139" 
d="M431 -20q-99 0 -177.5 36.5t-123 105t-44.5 166.5q0 171 123.5 258t394.5 91l154 4v70q0 82 -48.5 128.5t-150.5 45.5q-75 -1 -137.5 -35.5t-82.5 -115.5h-207q6 106 61.5 177.5t152.5 107t224 35.5q148 0 241 -39t137 -112.5t44 -177.5v-725h-205l-19 186
q-56 -117 -141.5 -161.5t-195.5 -44.5zM510 145q45 0 89 16.5t80 45t57.5 63.5t21.5 73v163l-127 -2q-94 -1 -164 -20t-109.5 -60.5t-39.5 -110.5q0 -79 55 -123.5t137 -44.5zM433 1483l62 -96q38 25 78.5 24.5t59.5 -32.5q21 -33 5.5 -68t-56.5 -61l62 -97q96 57 120 135
t-29 159q-43 67 -128.5 80t-173.5 -44z" />
    <glyph glyph-name="uni0203" unicode="&#x203;" horiz-adv-x="1139" 
d="M431 -20q-99 0 -177.5 36.5t-123 105t-44.5 166.5q0 171 123.5 258t394.5 91l154 4v70q0 82 -48.5 128.5t-150.5 45.5q-75 -1 -137.5 -35.5t-82.5 -115.5h-207q6 106 61.5 177.5t152.5 107t224 35.5q148 0 241 -39t137 -112.5t44 -177.5v-725h-205l-19 186
q-56 -117 -141.5 -161.5t-195.5 -44.5zM510 145q45 0 89 16.5t80 45t57.5 63.5t21.5 73v163l-127 -2q-94 -1 -164 -20t-109.5 -60.5t-39.5 -110.5q0 -79 55 -123.5t137 -44.5zM898 1193q-16 76 -63.5 129t-116 80.5t-150.5 27.5q-79 0 -147.5 -26.5t-116 -79.5t-64.5 -131
h162q15 49 58.5 80t107.5 31q63 0 108 -31t62 -80h160z" />
    <glyph glyph-name="amacron" unicode="&#x101;" horiz-adv-x="1139" 
d="M431 -20q-99 0 -177.5 36.5t-123 105t-44.5 166.5q0 171 123.5 258t394.5 91l154 4v70q0 82 -48.5 128.5t-150.5 45.5q-75 -1 -137.5 -35.5t-82.5 -115.5h-207q6 106 61.5 177.5t152.5 107t224 35.5q148 0 241 -39t137 -112.5t44 -177.5v-725h-205l-19 186
q-56 -117 -141.5 -161.5t-195.5 -44.5zM510 145q45 0 89 16.5t80 45t57.5 63.5t21.5 73v163l-127 -2q-94 -1 -164 -20t-109.5 -60.5t-39.5 -110.5q0 -79 55 -123.5t137 -44.5zM899 1380v-161h-654v161h654z" />
    <glyph glyph-name="aogonek" unicode="&#x105;" horiz-adv-x="1139" 
d="M431 -20q-99 0 -177.5 36.5t-123 105t-44.5 166.5q0 171 123.5 258t394.5 91l154 4v70q0 82 -48.5 128.5t-150.5 45.5q-75 -1 -137.5 -35.5t-82.5 -115.5h-207q6 106 61.5 177.5t152.5 107t224 35.5q148 0 241 -39t137 -112.5t44 -177.5v-725h-205l-19 186
q-56 -117 -141.5 -161.5t-195.5 -44.5zM510 145q45 0 89 16.5t80 45t57.5 63.5t21.5 73v163l-127 -2q-94 -1 -164 -20t-109.5 -60.5t-39.5 -110.5q0 -79 55 -123.5t137 -44.5zM615 -171q0 57 39.5 104.5t158.5 85.5l172 -9q-103 -40 -145.5 -75t-42.5 -79q0 -34 19.5 -51
t62.5 -17q46 0 82.5 13t61.5 27v-116q-26 -15 -81 -29.5t-118 -14.5q-100 0 -154.5 42t-54.5 119z" />
    <glyph glyph-name="aring" unicode="&#xe5;" horiz-adv-x="1139" 
d="M431 -20q-99 0 -177.5 36.5t-123 105t-44.5 166.5q0 171 123.5 258t394.5 91l154 4v70q0 82 -48.5 128.5t-150.5 45.5q-75 -1 -137.5 -35.5t-82.5 -115.5h-207q6 106 61.5 177.5t152.5 107t224 35.5q148 0 241 -39t137 -112.5t44 -177.5v-725h-205l-19 186
q-56 -117 -141.5 -161.5t-195.5 -44.5zM510 145q45 0 89 16.5t80 45t57.5 63.5t21.5 73v163l-127 -2q-94 -1 -164 -20t-109.5 -60.5t-39.5 -110.5q0 -79 55 -123.5t137 -44.5zM786 1356q0 -90 -62 -151t-151 -61t-150.5 62.5t-61.5 153.5q0 85 62.5 145t149.5 60
q59 0 107.5 -28t77 -75.5t28.5 -105.5zM673 1355q0 44 -29.5 73t-72.5 29q-42 0 -73.5 -29t-31.5 -73q0 -42 31.5 -74t73.5 -32q43 0 72.5 32t29.5 74z" />
    <glyph glyph-name="aringacute" unicode="&#x1fb;" horiz-adv-x="1139" 
d="M431 -20q-99 0 -177.5 36.5t-123 105t-44.5 166.5q0 171 123.5 258t394.5 91l154 4v70q0 82 -48.5 128.5t-150.5 45.5q-75 -1 -137.5 -35.5t-82.5 -115.5h-207q6 106 61.5 177.5t152.5 107t224 35.5q148 0 241 -39t137 -112.5t44 -177.5v-725h-205l-19 186
q-56 -117 -141.5 -161.5t-195.5 -44.5zM510 145q45 0 89 16.5t80 45t57.5 63.5t21.5 73v163l-127 -2q-94 -1 -164 -20t-109.5 -60.5t-39.5 -110.5q0 -79 55 -123.5t137 -44.5zM570 975q-86 0 -145 56.5t-59 145.5q0 82 60 137.5t144 55.5q86 0 146 -56t60 -141
q0 -88 -60 -143t-146 -55zM568 1065q43 0 73.5 32.5t30.5 73.5q0 44 -30.5 73.5t-73.5 29.5q-40 0 -72 -29.5t-32 -73.5q0 -41 32 -73.5t72 -32.5zM512 1321l41 174h155l-72 -174h-124z" />
    <glyph glyph-name="atilde" unicode="&#xe3;" horiz-adv-x="1139" 
d="M431 -20q-99 0 -177.5 36.5t-123 105t-44.5 166.5q0 171 123.5 258t394.5 91l154 4v70q0 82 -48.5 128.5t-150.5 45.5q-75 -1 -137.5 -35.5t-82.5 -115.5h-207q6 106 61.5 177.5t152.5 107t224 35.5q148 0 241 -39t137 -112.5t44 -177.5v-725h-205l-19 186
q-56 -117 -141.5 -161.5t-195.5 -44.5zM510 145q45 0 89 16.5t80 45t57.5 63.5t21.5 73v163l-127 -2q-94 -1 -164 -20t-109.5 -60.5t-39.5 -110.5q0 -79 55 -123.5t137 -44.5zM901 1275q-29 -22 -76 -43t-112 -21q-55 0 -98.5 13.5t-84.5 27t-89 13.5q-50 0 -82 -16.5
t-68 -44.5l-40 133q35 34 76.5 59t104.5 25q53 0 100 -14.5t91.5 -29.5t89.5 -15q49 0 86 20t68 43z" />
    <glyph glyph-name="ae" unicode="&#xe6;" horiz-adv-x="1810" 
d="M431 -20q-99 0 -177.5 36.5t-123 105t-44.5 166.5q0 171 124 258t394 91l155 4v70q0 85 -53.5 130t-146.5 44q-74 -1 -137 -37t-83 -114h-207q6 99 61.5 171t152.5 110.5t224 38.5q147 0 240.5 -41t137.5 -115t44 -173l-137 -472q-13 -84 -70 -145.5t-147.5 -94.5
t-206.5 -33zM510 145q74 0 129.5 34.5t87 85t32.5 100.5v141l-128 -2q-93 -1 -163.5 -20t-110 -60.5t-39.5 -110.5q0 -79 55 -123.5t137 -44.5zM1007 461q-1 -88 28 -156t86 -106.5t141 -38.5q86 0 149.5 38.5t84.5 117.5h222q-18 -108 -85.5 -183t-164 -114t-201.5 -39
q-149 0 -262.5 63.5t-177 181.5t-63.5 281q0 159 57.5 282.5t167 194.5t264.5 71q153 0 257 -65t158 -181.5t54 -272.5v-74h-715zM1006 612h486q0 75 -26.5 135.5t-79.5 96t-134 35.5t-135.5 -39t-82.5 -100.5t-28 -127.5z" />
    <glyph glyph-name="aeacute" unicode="&#x1fd;" horiz-adv-x="1810" 
d="M431 -20q-99 0 -177.5 36.5t-123 105t-44.5 166.5q0 171 124 258t394 91l155 4v70q0 85 -53.5 130t-146.5 44q-74 -1 -137 -37t-83 -114h-207q6 99 61.5 171t152.5 110.5t224 38.5q147 0 240.5 -41t137.5 -115t44 -173l-137 -472q-13 -84 -70 -145.5t-147.5 -94.5
t-206.5 -33zM510 145q74 0 129.5 34.5t87 85t32.5 100.5v141l-128 -2q-93 -1 -163.5 -20t-110 -60.5t-39.5 -110.5q0 -79 55 -123.5t137 -44.5zM1007 461q-1 -88 28 -156t86 -106.5t141 -38.5q86 0 149.5 38.5t84.5 117.5h222q-18 -108 -85.5 -183t-164 -114t-201.5 -39
q-149 0 -262.5 63.5t-177 181.5t-63.5 281q0 159 57.5 282.5t167 194.5t264.5 71q153 0 257 -65t158 -181.5t54 -272.5v-74h-715zM1006 612h486q0 75 -26.5 135.5t-79.5 96t-134 35.5t-135.5 -39t-82.5 -100.5t-28 -127.5zM977 1446h260l-286 -291h-180z" />
    <glyph glyph-name="b" unicode="b" horiz-adv-x="1201" 
d="M684 -20q-83 0 -142 22t-98.5 57t-63 75.5t-35.5 77.5l-28 -212h-179v1486h244v-603q16 30 44.5 60t69.5 55t93.5 40.5t116.5 15.5q193 0 305 -137t112 -395q0 -163 -49.5 -285t-147 -189.5t-242.5 -67.5zM634 159q109 0 179 87t70 282q0 170 -66 257.5t-186 87.5
q-86 0 -140.5 -39t-81 -116t-27.5 -190q0 -198 60.5 -283.5t191.5 -85.5z" />
    <glyph glyph-name="c" unicode="c" horiz-adv-x="1080" 
d="M567 1054q121 0 213 -48t147.5 -133t66.5 -193h-208q-7 47 -34 89.5t-73 69t-111 26.5q-116 0 -188.5 -86t-72.5 -264q0 -164 69 -261t197 -97q64 0 109.5 28.5t72 71t34.5 85.5h202q-9 -105 -65.5 -187t-148 -128.5t-210.5 -46.5q-142 0 -252.5 62.5t-173.5 182
t-63 288.5q0 161 59 282.5t169 190t261 68.5z" />
    <glyph glyph-name="cacute" unicode="&#x107;" horiz-adv-x="1080" 
d="M567 1054q121 0 213 -48t147.5 -133t66.5 -193h-208q-7 47 -34 89.5t-73 69t-111 26.5q-116 0 -188.5 -86t-72.5 -264q0 -164 69 -261t197 -97q64 0 109.5 28.5t72 71t34.5 85.5h202q-9 -105 -65.5 -187t-148 -128.5t-210.5 -46.5q-142 0 -252.5 62.5t-173.5 182
t-63 288.5q0 161 59 282.5t169 190t261 68.5zM681 1446h260l-286 -291h-180z" />
    <glyph glyph-name="ccaron" unicode="&#x10d;" horiz-adv-x="1080" 
d="M567 1054q121 0 213 -48t147.5 -133t66.5 -193h-208q-7 47 -34 89.5t-73 69t-111 26.5q-116 0 -188.5 -86t-72.5 -264q0 -164 69 -261t197 -97q64 0 109.5 28.5t72 71t34.5 85.5h202q-9 -105 -65.5 -187t-148 -128.5t-210.5 -46.5q-142 0 -252.5 62.5t-173.5 182
t-63 288.5q0 161 59 282.5t169 190t261 68.5zM482 1155l-258 245h193l149 -144l135 144h204l-252 -245h-171z" />
    <glyph glyph-name="ccedilla" unicode="&#xe7;" horiz-adv-x="1080" 
d="M567 1054q121 0 213 -48t147.5 -133t66.5 -193h-208q-7 47 -34 89.5t-73 69t-111 26.5q-116 0 -188.5 -86t-72.5 -264q0 -164 69 -261t197 -97q64 0 109.5 28.5t72 71t34.5 85.5h202q-9 -105 -65.5 -187t-148 -128.5t-210.5 -46.5q-142 0 -252.5 62.5t-173.5 182
t-63 288.5q0 161 59 282.5t169 190t261 68.5zM776 -260q0 -51 -31.5 -86.5t-83.5 -54t-114 -18.5q-58 0 -111.5 12t-99.5 40l35 89q29 -19 66 -33.5t81 -14.5q51 0 77 17.5t26 49.5q0 41 -37.5 62t-127.5 22q-11 0 -14.5 3.5t0.5 13.5l73 168h115l-46 -119q72 -2 114 -25.5
t60 -57.5t18 -68z" />
    <glyph glyph-name="ccircumflex" unicode="&#x109;" horiz-adv-x="1080" 
d="M567 1054q121 0 213 -48t147.5 -133t66.5 -193h-208q-7 47 -34 89.5t-73 69t-111 26.5q-116 0 -188.5 -86t-72.5 -264q0 -164 69 -261t197 -97q64 0 109.5 28.5t72 71t34.5 85.5h202q-9 -105 -65.5 -187t-148 -128.5t-210.5 -46.5q-142 0 -252.5 62.5t-173.5 182
t-63 288.5q0 161 59 282.5t169 190t261 68.5zM701 1155l-135 135l-149 -135h-192l258 244h170l252 -244h-204z" />
    <glyph glyph-name="cdotaccent" unicode="&#x10b;" horiz-adv-x="1080" 
d="M567 1054q121 0 213 -48t147.5 -133t66.5 -193h-208q-7 47 -34 89.5t-73 69t-111 26.5q-116 0 -188.5 -86t-72.5 -264q0 -164 69 -261t197 -97q64 0 109.5 28.5t72 71t34.5 85.5h202q-9 -105 -65.5 -187t-148 -128.5t-210.5 -46.5q-142 0 -252.5 62.5t-173.5 182
t-63 288.5q0 161 59 282.5t169 190t261 68.5zM447 1199v210h237v-210h-237z" />
    <glyph glyph-name="d" unicode="d" horiz-adv-x="1201" 
d="M517 -20q-205 0 -322 141t-117 401q0 162 47.5 281.5t140 185t229.5 65.5q64 0 116.5 -15.5t93.5 -40.5t69.5 -55t44.5 -60v603h244v-1486h-180l-27 212q-12 -37 -35.5 -77.5t-63 -75.5t-98.5 -57t-142 -22zM567 159q131 0 191.5 85.5t60.5 283.5q-1 113 -27.5 190
t-81 116t-140.5 39q-110 0 -181 -81t-71 -264q0 -182 65 -275.5t184 -93.5z" />
    <glyph glyph-name="eth" unicode="&#xf0;" horiz-adv-x="1170" 
d="M586 -20q-152 0 -266.5 69t-178 187t-63.5 266q0 128 38.5 226.5t105.5 166.5t155 103.5t187 35.5q87 0 154 -23t115.5 -64.5t80.5 -97.5q-40 143 -106 246t-143 173.5t-149 117t-123 76.5l288 19q117 -64 196.5 -155.5t127.5 -209.5t68 -262t19 -316q-2 -164 -64.5 -290
t-175 -197t-266.5 -71zM578 165q89 0 145.5 52t82.5 133.5t26 168.5q0 101 -25 181t-81 125.5t-148 45.5q-90 0 -147.5 -48.5t-85.5 -128.5t-28 -175q0 -87 28 -168.5t85.5 -133.5t147.5 -52zM364 1072v166l666 227v-165z" />
    <glyph glyph-name="dcaron" unicode="&#x10f;" horiz-adv-x="1231" 
d="M517 -20q-205 0 -322 141t-117 401q0 162 47.5 281.5t140 185t229.5 65.5q64 0 116.5 -15.5t93.5 -40.5t69.5 -55t44.5 -60v603h244v-1486h-180l-27 212q-12 -37 -35.5 -77.5t-63 -75.5t-98.5 -57t-142 -22zM567 159q131 0 191.5 85.5t60.5 283.5q-1 113 -27.5 190
t-81 116t-140.5 39q-110 0 -181 -81t-71 -264q0 -182 65 -275.5t184 -93.5zM1182 1039l79 193l-63 11v210h178v-220l-83 -194h-111z" />
    <glyph glyph-name="dcroat" unicode="&#x111;" horiz-adv-x="1258" 
d="M1198 1317v-143h-648v143h648zM517 -20q-205 0 -322 141t-117 401q0 162 47.5 281.5t140 185t229.5 65.5q64 0 116.5 -15.5t93.5 -40.5t69.5 -55t44.5 -60v603h244v-1486h-180l-27 212q-12 -37 -35.5 -77.5t-63 -75.5t-98.5 -57t-142 -22zM567 159q131 0 191.5 85.5
t60.5 283.5q-1 113 -27.5 190t-81 116t-140.5 39q-110 0 -181 -81t-71 -264q0 -182 65 -275.5t184 -93.5z" />
    <glyph glyph-name="uni1E0D" unicode="&#x1e0d;" horiz-adv-x="1201" 
d="M517 -20q-205 0 -322 141t-117 401q0 162 47.5 281.5t140 185t229.5 65.5q64 0 116.5 -15.5t93.5 -40.5t69.5 -55t44.5 -60v603h244v-1486h-180l-27 212q-12 -37 -35.5 -77.5t-63 -75.5t-98.5 -57t-142 -22zM567 159q131 0 191.5 85.5t60.5 283.5q-1 113 -27.5 190
t-81 116t-140.5 39q-110 0 -181 -81t-71 -264q0 -182 65 -275.5t184 -93.5zM421 -380v210h237v-210h-237z" />
    <glyph glyph-name="e" unicode="e" horiz-adv-x="1132" 
d="M329 461q-1 -88 28 -156t86 -106.5t141 -38.5q86 0 149.5 38.5t84.5 117.5h223q-18 -108 -86 -183t-164.5 -114t-200.5 -39q-150 0 -263.5 63.5t-177 181.5t-63.5 281q0 159 58 282.5t167.5 194.5t263.5 71q153 0 257.5 -65t158 -181.5t53.5 -272.5v-74h-715zM329 612
h485q0 75 -26 135.5t-79.5 96t-134.5 35.5q-80 0 -135 -39t-83 -100.5t-27 -127.5z" />
    <glyph glyph-name="eacute" unicode="&#xe9;" horiz-adv-x="1132" 
d="M329 461q-1 -88 28 -156t86 -106.5t141 -38.5q86 0 149.5 38.5t84.5 117.5h223q-18 -108 -86 -183t-164.5 -114t-200.5 -39q-150 0 -263.5 63.5t-177 181.5t-63.5 281q0 159 58 282.5t167.5 194.5t263.5 71q153 0 257.5 -65t158 -181.5t53.5 -272.5v-74h-715zM329 612
h485q0 75 -26 135.5t-79.5 96t-134.5 35.5q-80 0 -135 -39t-83 -100.5t-27 -127.5zM691 1446h260l-286 -291h-180z" />
    <glyph glyph-name="ebreve" unicode="&#x115;" horiz-adv-x="1132" 
d="M329 461q-1 -88 28 -156t86 -106.5t141 -38.5q86 0 149.5 38.5t84.5 117.5h223q-18 -108 -86 -183t-164.5 -114t-200.5 -39q-150 0 -263.5 63.5t-177 181.5t-63.5 281q0 159 58 282.5t167.5 194.5t263.5 71q153 0 257.5 -65t158 -181.5t53.5 -272.5v-74h-715zM329 612
h485q0 75 -26 135.5t-79.5 96t-134.5 35.5q-80 0 -135 -39t-83 -100.5t-27 -127.5zM905 1391q-16 -76 -63.5 -129t-116 -80.5t-150.5 -27.5q-79 0 -147.5 26.5t-116 79.5t-64.5 131h162q15 -49 58.5 -80t107.5 -31q63 0 108 31t62 80h160z" />
    <glyph glyph-name="ecaron" unicode="&#x11b;" horiz-adv-x="1132" 
d="M329 461q-1 -88 28 -156t86 -106.5t141 -38.5q86 0 149.5 38.5t84.5 117.5h223q-18 -108 -86 -183t-164.5 -114t-200.5 -39q-150 0 -263.5 63.5t-177 181.5t-63.5 281q0 159 58 282.5t167.5 194.5t263.5 71q153 0 257.5 -65t158 -181.5t53.5 -272.5v-74h-715zM329 612
h485q0 75 -26 135.5t-79.5 96t-134.5 35.5q-80 0 -135 -39t-83 -100.5t-27 -127.5zM489 1155l-258 245h193l149 -144l135 144h204l-252 -245h-171z" />
    <glyph glyph-name="ecircumflex" unicode="&#xea;" horiz-adv-x="1132" 
d="M329 461q-1 -88 28 -156t86 -106.5t141 -38.5q86 0 149.5 38.5t84.5 117.5h223q-18 -108 -86 -183t-164.5 -114t-200.5 -39q-150 0 -263.5 63.5t-177 181.5t-63.5 281q0 159 58 282.5t167.5 194.5t263.5 71q153 0 257.5 -65t158 -181.5t53.5 -272.5v-74h-715zM329 612
h485q0 75 -26 135.5t-79.5 96t-134.5 35.5q-80 0 -135 -39t-83 -100.5t-27 -127.5zM710 1155l-135 135l-149 -135h-192l258 244h170l252 -244h-204z" />
    <glyph glyph-name="uni1EBF" unicode="&#x1ebf;" horiz-adv-x="1132" 
d="M329 461q-1 -88 28 -156t86 -106.5t141 -38.5q86 0 149.5 38.5t84.5 117.5h223q-18 -108 -86 -183t-164.5 -114t-200.5 -39q-150 0 -263.5 63.5t-177 181.5t-63.5 281q0 159 58 282.5t167.5 194.5t263.5 71q153 0 257.5 -65t158 -181.5t53.5 -272.5v-74h-715zM329 612
h485q0 75 -26 135.5t-79.5 96t-134.5 35.5q-80 0 -135 -39t-83 -100.5t-27 -127.5zM710 1155l-135 135l-149 -135h-192l258 244h170l252 -244h-204zM932 1641h201l-213 -253h-137z" />
    <glyph glyph-name="uni1EC7" unicode="&#x1ec7;" horiz-adv-x="1132" 
d="M329 461q-1 -88 28 -156t86 -106.5t141 -38.5q86 0 149.5 38.5t84.5 117.5h223q-18 -108 -86 -183t-164.5 -114t-200.5 -39q-150 0 -263.5 63.5t-177 181.5t-63.5 281q0 159 58 282.5t167.5 194.5t263.5 71q153 0 257.5 -65t158 -181.5t53.5 -272.5v-74h-715zM329 612
h485q0 75 -26 135.5t-79.5 96t-134.5 35.5q-80 0 -135 -39t-83 -100.5t-27 -127.5zM461 -380v210h237v-210h-237zM710 1155l-135 135l-149 -135h-192l258 244h170l252 -244h-204z" />
    <glyph glyph-name="uni1EC1" unicode="&#x1ec1;" horiz-adv-x="1132" 
d="M329 461q-1 -88 28 -156t86 -106.5t141 -38.5q86 0 149.5 38.5t84.5 117.5h223q-18 -108 -86 -183t-164.5 -114t-200.5 -39q-150 0 -263.5 63.5t-177 181.5t-63.5 281q0 159 58 282.5t167.5 194.5t263.5 71q153 0 257.5 -65t158 -181.5t53.5 -272.5v-74h-715zM329 612
h485q0 75 -26 135.5t-79.5 96t-134.5 35.5q-80 0 -135 -39t-83 -100.5t-27 -127.5zM710 1155l-135 135l-149 -135h-192l258 244h170l252 -244h-204zM857 1641l158 -253h-140l-220 253h202z" />
    <glyph glyph-name="uni1EC3" unicode="&#x1ec3;" horiz-adv-x="1132" 
d="M329 461q-1 -88 28 -156t86 -106.5t141 -38.5q86 0 149.5 38.5t84.5 117.5h223q-18 -108 -86 -183t-164.5 -114t-200.5 -39q-150 0 -263.5 63.5t-177 181.5t-63.5 281q0 159 58 282.5t167.5 194.5t263.5 71q153 0 257.5 -65t158 -181.5t53.5 -272.5v-74h-715zM329 612
h485q0 75 -26 135.5t-79.5 96t-134.5 35.5q-80 0 -135 -39t-83 -100.5t-27 -127.5zM716 1155l-135 135l-149 -135h-192l258 244h170l252 -244h-204zM635 1673l62 -96q38 25 78.5 24.5t59.5 -32.5q21 -33 5.5 -68t-56.5 -61l62 -97q96 57 120 135t-29 159q-43 67 -128.5 80
t-173.5 -44z" />
    <glyph glyph-name="uni1EC5" unicode="&#x1ec5;" horiz-adv-x="1132" 
d="M329 461q-1 -88 28 -156t86 -106.5t141 -38.5q86 0 149.5 38.5t84.5 117.5h223q-18 -108 -86 -183t-164.5 -114t-200.5 -39q-150 0 -263.5 63.5t-177 181.5t-63.5 281q0 159 58 282.5t167.5 194.5t263.5 71q153 0 257.5 -65t158 -181.5t53.5 -272.5v-74h-715zM329 612
h485q0 75 -26 135.5t-79.5 96t-134.5 35.5q-80 0 -135 -39t-83 -100.5t-27 -127.5zM713 1155l-135 135l-149 -135h-192l258 244h170l252 -244h-204zM901 1569q-29 -22 -76 -43t-112 -21q-55 0 -98.5 13.5t-84.5 27t-89 13.5q-50 0 -82 -16.5t-68 -44.5l-40 133
q35 34 76.5 59t104.5 25q53 0 100 -14.5t91.5 -29.5t89.5 -15q49 0 86 20t68 43z" />
    <glyph glyph-name="uni0205" unicode="&#x205;" horiz-adv-x="1132" 
d="M329 461q-1 -88 28 -156t86 -106.5t141 -38.5q86 0 149.5 38.5t84.5 117.5h223q-18 -108 -86 -183t-164.5 -114t-200.5 -39q-150 0 -263.5 63.5t-177 181.5t-63.5 281q0 159 58 282.5t167.5 194.5t263.5 71q153 0 257.5 -65t158 -181.5t53.5 -272.5v-74h-715zM329 612
h485q0 75 -26 135.5t-79.5 96t-134.5 35.5q-80 0 -135 -39t-83 -100.5t-27 -127.5zM624 1446l199 -291h-179l-253 291h233zM262 1446l242 -291h-180l-302 291h240z" />
    <glyph glyph-name="edieresis" unicode="&#xeb;" horiz-adv-x="1132" 
d="M329 461q-1 -88 28 -156t86 -106.5t141 -38.5q86 0 149.5 38.5t84.5 117.5h223q-18 -108 -86 -183t-164.5 -114t-200.5 -39q-150 0 -263.5 63.5t-177 181.5t-63.5 281q0 159 58 282.5t167.5 194.5t263.5 71q153 0 257.5 -65t158 -181.5t53.5 -272.5v-74h-715zM329 612
h485q0 75 -26 135.5t-79.5 96t-134.5 35.5q-80 0 -135 -39t-83 -100.5t-27 -127.5zM675 1199l2 210h232l-3 -210h-231zM244 1199l2 210h232l-3 -210h-231z" />
    <glyph glyph-name="edotaccent" unicode="&#x117;" horiz-adv-x="1132" 
d="M329 461q-1 -88 28 -156t86 -106.5t141 -38.5q86 0 149.5 38.5t84.5 117.5h223q-18 -108 -86 -183t-164.5 -114t-200.5 -39q-150 0 -263.5 63.5t-177 181.5t-63.5 281q0 159 58 282.5t167.5 194.5t263.5 71q153 0 257.5 -65t158 -181.5t53.5 -272.5v-74h-715zM329 612
h485q0 75 -26 135.5t-79.5 96t-134.5 35.5q-80 0 -135 -39t-83 -100.5t-27 -127.5zM457 1199v210h237v-210h-237z" />
    <glyph glyph-name="uni1EB9" unicode="&#x1eb9;" horiz-adv-x="1132" 
d="M329 461q-1 -88 28 -156t86 -106.5t141 -38.5q86 0 149.5 38.5t84.5 117.5h223q-18 -108 -86 -183t-164.5 -114t-200.5 -39q-150 0 -263.5 63.5t-177 181.5t-63.5 281q0 159 58 282.5t167.5 194.5t263.5 71q153 0 257.5 -65t158 -181.5t53.5 -272.5v-74h-715zM329 612
h485q0 75 -26 135.5t-79.5 96t-134.5 35.5q-80 0 -135 -39t-83 -100.5t-27 -127.5zM461 -380v210h237v-210h-237z" />
    <glyph glyph-name="egrave" unicode="&#xe8;" horiz-adv-x="1132" 
d="M329 461q-1 -88 28 -156t86 -106.5t141 -38.5q86 0 149.5 38.5t84.5 117.5h223q-18 -108 -86 -183t-164.5 -114t-200.5 -39q-150 0 -263.5 63.5t-177 181.5t-63.5 281q0 159 58 282.5t167.5 194.5t263.5 71q153 0 257.5 -65t158 -181.5t53.5 -272.5v-74h-715zM329 612
h485q0 75 -26 135.5t-79.5 96t-134.5 35.5q-80 0 -135 -39t-83 -100.5t-27 -127.5zM456 1446h-260l286 -291h180z" />
    <glyph glyph-name="uni1EBB" unicode="&#x1ebb;" horiz-adv-x="1132" 
d="M329 461q-1 -88 28 -156t86 -106.5t141 -38.5q86 0 149.5 38.5t84.5 117.5h223q-18 -108 -86 -183t-164.5 -114t-200.5 -39q-150 0 -263.5 63.5t-177 181.5t-63.5 281q0 159 58 282.5t167.5 194.5t263.5 71q153 0 257.5 -65t158 -181.5t53.5 -272.5v-74h-715zM329 612
h485q0 75 -26 135.5t-79.5 96t-134.5 35.5q-80 0 -135 -39t-83 -100.5t-27 -127.5zM437 1483l62 -96q38 25 78.5 24.5t59.5 -32.5q21 -33 5.5 -68t-56.5 -61l62 -97q96 57 120 135t-29 159q-43 67 -128.5 80t-173.5 -44z" />
    <glyph glyph-name="uni0207" unicode="&#x207;" horiz-adv-x="1132" 
d="M329 461q-1 -88 28 -156t86 -106.5t141 -38.5q86 0 149.5 38.5t84.5 117.5h223q-18 -108 -86 -183t-164.5 -114t-200.5 -39q-150 0 -263.5 63.5t-177 181.5t-63.5 281q0 159 58 282.5t167.5 194.5t263.5 71q153 0 257.5 -65t158 -181.5t53.5 -272.5v-74h-715zM329 612
h485q0 75 -26 135.5t-79.5 96t-134.5 35.5q-80 0 -135 -39t-83 -100.5t-27 -127.5zM902 1193q-16 76 -63.5 129t-116 80.5t-150.5 27.5q-79 0 -147.5 -26.5t-116 -79.5t-64.5 -131h162q15 49 58.5 80t107.5 31q63 0 108 -31t62 -80h160z" />
    <glyph glyph-name="emacron" unicode="&#x113;" horiz-adv-x="1132" 
d="M329 461q-1 -88 28 -156t86 -106.5t141 -38.5q86 0 149.5 38.5t84.5 117.5h223q-18 -108 -86 -183t-164.5 -114t-200.5 -39q-150 0 -263.5 63.5t-177 181.5t-63.5 281q0 159 58 282.5t167.5 194.5t263.5 71q153 0 257.5 -65t158 -181.5t53.5 -272.5v-74h-715zM329 612
h485q0 75 -26 135.5t-79.5 96t-134.5 35.5q-80 0 -135 -39t-83 -100.5t-27 -127.5zM903 1380v-161h-654v161h654z" />
    <glyph glyph-name="eogonek" unicode="&#x119;" horiz-adv-x="1132" 
d="M329 461q-1 -88 28 -156t86 -106.5t141 -38.5q86 0 149.5 38.5t84.5 117.5h223q-18 -108 -86 -183t-164.5 -114t-200.5 -39q-150 0 -263.5 63.5t-177 181.5t-63.5 281q0 159 58 282.5t167.5 194.5t263.5 71q153 0 257.5 -65t158 -181.5t53.5 -272.5v-74h-715zM329 612
h485q0 75 -26 135.5t-79.5 96t-134.5 35.5q-80 0 -135 -39t-83 -100.5t-27 -127.5zM458 -151q0 57 39.5 104.5t158.5 85.5l172 -9q-103 -40 -145.5 -75t-42.5 -79q0 -34 19.5 -51t62.5 -17q46 0 82.5 13t61.5 27v-116q-26 -15 -81 -29.5t-118 -14.5q-100 0 -154.5 42
t-54.5 119z" />
    <glyph glyph-name="uni1EBD" unicode="&#x1ebd;" horiz-adv-x="1132" 
d="M329 461q-1 -88 28 -156t86 -106.5t141 -38.5q86 0 149.5 38.5t84.5 117.5h223q-18 -108 -86 -183t-164.5 -114t-200.5 -39q-150 0 -263.5 63.5t-177 181.5t-63.5 281q0 159 58 282.5t167.5 194.5t263.5 71q153 0 257.5 -65t158 -181.5t53.5 -272.5v-74h-715zM329 612
h485q0 75 -26 135.5t-79.5 96t-134.5 35.5q-80 0 -135 -39t-83 -100.5t-27 -127.5zM905 1275q-29 -22 -76 -43t-112 -21q-55 0 -98.5 13.5t-84.5 27t-89 13.5q-50 0 -82 -16.5t-68 -44.5l-40 133q35 34 76.5 59t104.5 25q53 0 100 -14.5t91.5 -29.5t89.5 -15q49 0 86 20
t68 43z" />
    <glyph glyph-name="uni0259" unicode="&#x259;" horiz-adv-x="1132" 
d="M803 573q1 88 -28 156t-86 106.5t-141 38.5q-86 0 -149.5 -38.5t-84.5 -117.5h-223q18 108 86 183t164.5 114t200.5 39q150 0 263.5 -63.5t177 -181.5t63.5 -281q0 -159 -58 -282.5t-167.5 -194.5t-263.5 -71q-153 0 -257.5 65t-158 181.5t-53.5 272.5v74h715zM803 422
h-485q0 -75 26 -135.5t79.5 -96t134.5 -35.5q80 0 135 39t83 100.5t27 127.5z" />
    <glyph glyph-name="f" unicode="f" horiz-adv-x="807" 
d="M747 1034v-172h-233v-862h-243v862h-204v172h204v154q0 124 68.5 191t198.5 67h218l1 -166h-144q-59 0 -81 -30.5t-22 -95.5v-120h237z" />
    <glyph glyph-name="g" unicode="g" horiz-adv-x="1249" 
d="M597 -342q-261 0 -401 70t-140 192q0 55 27 92t64 61t68 37t40 19q-17 10 -45 26t-50.5 44t-22.5 73q0 52 49.5 96t148.5 63q-97 47 -149 127t-52 166q0 102 59.5 175t166 112t246.5 39q104 0 172 -23t127 -62q20 8 56.5 22.5t79.5 32t82.5 34t67.5 27.5l-2 -201
l-179 -32q13 -29 20.5 -63t7.5 -60q0 -90 -50.5 -166.5t-151 -122.5t-250.5 -46q-15 0 -41 1t-42 2q-81 -3 -111 -19t-30 -35q0 -27 45 -36t144 -16q35 -2 92 -5t127 -8q177 -11 268 -88.5t91 -200.5q0 -143 -132 -235t-400 -92zM638 -199q131 0 194 36t63 106q0 54 -43 88
t-128 40l-261 16q-43 3 -81.5 -15.5t-62.5 -51t-24 -71.5q0 -73 84 -110.5t259 -37.5zM594 533q95 0 154 48.5t59 137.5q0 92 -59 143.5t-154 51.5q-97 0 -156.5 -52t-59.5 -143q0 -86 57 -136t159 -50z" />
    <glyph glyph-name="gbreve" unicode="&#x11f;" horiz-adv-x="1249" 
d="M597 -342q-261 0 -401 70t-140 192q0 55 27 92t64 61t68 37t40 19q-17 10 -45 26t-50.5 44t-22.5 73q0 52 49.5 96t148.5 63q-97 47 -149 127t-52 166q0 102 59.5 175t166 112t246.5 39q104 0 172 -23t127 -62q20 8 56.5 22.5t79.5 32t82.5 34t67.5 27.5l-2 -201
l-179 -32q13 -29 20.5 -63t7.5 -60q0 -90 -50.5 -166.5t-151 -122.5t-250.5 -46q-15 0 -41 1t-42 2q-81 -3 -111 -19t-30 -35q0 -27 45 -36t144 -16q35 -2 92 -5t127 -8q177 -11 268 -88.5t91 -200.5q0 -143 -132 -235t-400 -92zM638 -199q131 0 194 36t63 106q0 54 -43 88
t-128 40l-261 16q-43 3 -81.5 -15.5t-62.5 -51t-24 -71.5q0 -73 84 -110.5t259 -37.5zM594 533q95 0 154 48.5t59 137.5q0 92 -59 143.5t-154 51.5q-97 0 -156.5 -52t-59.5 -143q0 -86 57 -136t159 -50zM933 1391q-16 -76 -63.5 -129t-116 -80.5t-150.5 -27.5
q-79 0 -147.5 26.5t-116 79.5t-64.5 131h162q15 -49 58.5 -80t107.5 -31q63 0 108 31t62 80h160z" />
    <glyph glyph-name="gcircumflex" unicode="&#x11d;" horiz-adv-x="1249" 
d="M597 -342q-261 0 -401 70t-140 192q0 55 27 92t64 61t68 37t40 19q-17 10 -45 26t-50.5 44t-22.5 73q0 52 49.5 96t148.5 63q-97 47 -149 127t-52 166q0 102 59.5 175t166 112t246.5 39q104 0 172 -23t127 -62q20 8 56.5 22.5t79.5 32t82.5 34t67.5 27.5l-2 -201
l-179 -32q13 -29 20.5 -63t7.5 -60q0 -90 -50.5 -166.5t-151 -122.5t-250.5 -46q-15 0 -41 1t-42 2q-81 -3 -111 -19t-30 -35q0 -27 45 -36t144 -16q35 -2 92 -5t127 -8q177 -11 268 -88.5t91 -200.5q0 -143 -132 -235t-400 -92zM638 -199q131 0 194 36t63 106q0 54 -43 88
t-128 40l-261 16q-43 3 -81.5 -15.5t-62.5 -51t-24 -71.5q0 -73 84 -110.5t259 -37.5zM594 533q95 0 154 48.5t59 137.5q0 92 -59 143.5t-154 51.5q-97 0 -156.5 -52t-59.5 -143q0 -86 57 -136t159 -50zM738 1155l-135 135l-149 -135h-192l258 244h170l252 -244h-204z" />
    <glyph glyph-name="uni0123" unicode="&#x123;" horiz-adv-x="1249" 
d="M460 1198v194l103 151h99l-102 -163h86v-182h-186zM597 -342q-261 0 -401 70t-140 192q0 55 27 92t64 61t68 37t40 19q-17 10 -45 26t-50.5 44t-22.5 73q0 52 49.5 96t148.5 63q-97 47 -149 127t-52 166q0 102 59.5 175t166 112t246.5 39q104 0 172 -23t127 -62
q20 8 56.5 22.5t79.5 32t82.5 34t67.5 27.5l-2 -201l-179 -32q13 -29 20.5 -63t7.5 -60q0 -90 -50.5 -166.5t-151 -122.5t-250.5 -46q-15 0 -41 1t-42 2q-81 -3 -111 -19t-30 -35q0 -27 45 -36t144 -16q35 -2 92 -5t127 -8q177 -11 268 -88.5t91 -200.5q0 -143 -132 -235
t-400 -92zM638 -199q131 0 194 36t63 106q0 54 -43 88t-128 40l-261 16q-43 3 -81.5 -15.5t-62.5 -51t-24 -71.5q0 -73 84 -110.5t259 -37.5zM594 533q95 0 154 48.5t59 137.5q0 92 -59 143.5t-154 51.5q-97 0 -156.5 -52t-59.5 -143q0 -86 57 -136t159 -50z" />
    <glyph glyph-name="gdotaccent" unicode="&#x121;" horiz-adv-x="1249" 
d="M597 -342q-261 0 -401 70t-140 192q0 55 27 92t64 61t68 37t40 19q-17 10 -45 26t-50.5 44t-22.5 73q0 52 49.5 96t148.5 63q-97 47 -149 127t-52 166q0 102 59.5 175t166 112t246.5 39q104 0 172 -23t127 -62q20 8 56.5 22.5t79.5 32t82.5 34t67.5 27.5l-2 -201
l-179 -32q13 -29 20.5 -63t7.5 -60q0 -90 -50.5 -166.5t-151 -122.5t-250.5 -46q-15 0 -41 1t-42 2q-81 -3 -111 -19t-30 -35q0 -27 45 -36t144 -16q35 -2 92 -5t127 -8q177 -11 268 -88.5t91 -200.5q0 -143 -132 -235t-400 -92zM638 -199q131 0 194 36t63 106q0 54 -43 88
t-128 40l-261 16q-43 3 -81.5 -15.5t-62.5 -51t-24 -71.5q0 -73 84 -110.5t259 -37.5zM594 533q95 0 154 48.5t59 137.5q0 92 -59 143.5t-154 51.5q-97 0 -156.5 -52t-59.5 -143q0 -86 57 -136t159 -50zM485 1199v210h237v-210h-237z" />
    <glyph glyph-name="h" unicode="h" horiz-adv-x="1170" 
d="M138 0v1486h240v-602q25 39 66 75.5t100.5 60t142.5 23.5q99 0 181 -38t131 -109.5t49 -170.5v-725h-244v684q0 80 -56.5 124t-142.5 44q-57 0 -109 -20t-83.5 -59.5t-31.5 -98.5v-674h-243z" />
    <glyph glyph-name="hbar" unicode="&#x127;" horiz-adv-x="1210" 
d="M688 1317v-143h-648v143h648zM177 0v1486h240v-602q26 39 66.5 75.5t100.5 60t142 23.5q100 0 181.5 -38t130.5 -109.5t49 -170.5v-725h-244v684q0 80 -56.5 124t-141.5 44q-58 0 -109.5 -20t-83.5 -59.5t-32 -98.5v-674h-243z" />
    <glyph glyph-name="hcircumflex" unicode="&#x125;" horiz-adv-x="1170" 
d="M138 0v1486h240v-602q25 39 66 75.5t100.5 60t142.5 23.5q99 0 181 -38t131 -109.5t49 -170.5v-725h-244v684q0 80 -56.5 124t-142.5 44q-57 0 -109 -20t-83.5 -59.5t-31.5 -98.5v-674h-243zM390 1567l-135 135l-149 -135h-192l258 244h170l252 -244h-204z" />
    <glyph glyph-name="uni1E25" unicode="&#x1e25;" horiz-adv-x="1170" 
d="M138 0v1486h240v-602q25 39 66 75.5t100.5 60t142.5 23.5q99 0 181 -38t131 -109.5t49 -170.5v-725h-244v684q0 80 -56.5 124t-142.5 44q-57 0 -109 -20t-83.5 -59.5t-31.5 -98.5v-674h-243zM485 -380v210h237v-210h-237z" />
    <glyph glyph-name="i" unicode="i" horiz-adv-x="544" 
d="M389 1034v-1034h-234v1034h234zM392 1445v-230h-241v230h241z" />
    <glyph glyph-name="dotlessi" unicode="&#x131;" horiz-adv-x="536" 
d="M385 1034v-1034h-234v1034h234z" />
    <glyph glyph-name="iacute" unicode="&#xed;" horiz-adv-x="536" 
d="M385 1034v-1034h-234v1034h234zM317 1446h248l-212 -291l-179 2z" />
    <glyph glyph-name="ibreve" unicode="&#x12d;" horiz-adv-x="536" 
d="M385 1034v-1034h-234v1034h234zM600 1391q-16 -76 -63.5 -129t-116 -80.5t-150.5 -27.5q-79 0 -147.5 26.5t-116 79.5t-64.5 131h162q15 -49 58.5 -80t107.5 -31q63 0 108 31t62 80h160z" />
    <glyph glyph-name="icircumflex" unicode="&#xee;" horiz-adv-x="536" 
d="M385 1034v-1034h-234v1034h234zM405 1155l-135 135l-149 -135h-192l258 244h170l252 -244h-204z" />
    <glyph glyph-name="uni0209" unicode="&#x209;" horiz-adv-x="536" 
d="M385 1034v-1034h-234v1034h234zM319 1446l199 -291h-179l-253 291h233zM-43 1446l242 -291h-180l-302 291h240z" />
    <glyph glyph-name="idieresis" unicode="&#xef;" horiz-adv-x="710" 
d="M471 1034v-1034h-234v1034h234zM453 1196l2 210h232l-3 -210h-231zM22 1196l2 210h232l-3 -210h-231z" />
    <glyph glyph-name="i.loclTRK" horiz-adv-x="536" 
d="M385 1034v-1034h-234v1034h234zM152 1199v210h237v-210h-237z" />
    <glyph glyph-name="uni1ECB" unicode="&#x1ecb;" horiz-adv-x="544" 
d="M389 1034v-1034h-234v1034h234zM392 1445v-230h-241v230h241zM154 -380v210h237v-210h-237z" />
    <glyph glyph-name="igrave" unicode="&#xec;" horiz-adv-x="536" 
d="M385 1034v-1034h-234v1034h234zM151 1446h-260l286 -291h180z" />
    <glyph glyph-name="uni1EC9" unicode="&#x1ec9;" horiz-adv-x="536" 
d="M385 1034v-1034h-234v1034h234zM132 1483l62 -96q38 25 78.5 24.5t59.5 -32.5q21 -33 5.5 -68t-56.5 -61l62 -97q96 57 120 135t-29 159q-43 67 -128.5 80t-173.5 -44z" />
    <glyph glyph-name="uni020B" unicode="&#x20b;" horiz-adv-x="651" 
d="M445 1034v-1034h-234v1034h234zM651 1193q-16 76 -63.5 129t-116 80.5t-150.5 27.5q-79 0 -147.5 -26.5t-116 -79.5t-64.5 -131h162q15 49 58.5 80t107.5 31q63 0 108 -31t62 -80h160z" />
    <glyph glyph-name="imacron" unicode="&#x12b;" horiz-adv-x="658" 
d="M448 1034v-1034h-234v1034h234zM655 1380v-161h-654v161h654z" />
    <glyph glyph-name="iogonek" unicode="&#x12f;" horiz-adv-x="536" 
d="M385 1034v-1034h-234v1034h234zM152 1199v210h237v-210h-237zM16 -173q0 57 39.5 104.5t158.5 85.5l172 -9q-103 -40 -145.5 -75t-42.5 -79q0 -34 19.5 -51t62.5 -17q46 0 82.5 13t61.5 27v-116q-26 -15 -81 -29.5t-118 -14.5q-100 0 -154.5 42t-54.5 119z" />
    <glyph glyph-name="itilde" unicode="&#x129;" horiz-adv-x="642" 
d="M436 1034v-1034h-234v1034h234zM646 1275q-29 -22 -76 -43t-112 -21q-55 0 -98.5 13.5t-84.5 27t-89 13.5q-50 0 -82 -16.5t-68 -44.5l-40 133q35 34 76.5 59t104.5 25q53 0 100 -14.5t91.5 -29.5t89.5 -15q49 0 86 20t68 43z" />
    <glyph glyph-name="j" unicode="j" horiz-adv-x="553" 
d="M412 -17q0 -158 -73.5 -236.5t-245.5 -78.5q-83 0 -107 13.5l-24 13.5l-1 162l91 6q65 8 91 36.5t26 88.5v1046h243v-1051zM416 1445v-230h-252v230h252z" />
    <glyph glyph-name="uni0237" unicode="&#x237;" horiz-adv-x="550" 
d="M413 -17q0 -158 -74.5 -236.5t-246.5 -78.5q-82 0 -106 10.5t-24 16.5l-1 162l91 6q65 8 91.5 36.5t26.5 88.5v1046h243v-1051z" />
    <glyph glyph-name="jcircumflex" unicode="&#x135;" horiz-adv-x="550" 
d="M413 -17q0 -158 -74.5 -236.5t-246.5 -78.5q-82 0 -106 10.5t-24 16.5l-1 162l91 6q65 8 91.5 36.5t26.5 88.5v1046h243v-1051zM425 1155l-135 135l-149 -135h-192l258 244h170l252 -244h-204z" />
    <glyph glyph-name="k" unicode="k" horiz-adv-x="1147" 
d="M1095 0h-247l-300 479l-168 -176v-303h-242v1486h242v-921l429 469h267l-374 -404z" />
    <glyph glyph-name="uni0137" unicode="&#x137;" horiz-adv-x="1147" 
d="M1095 0h-247l-300 479l-168 -176v-303h-242v1486h242v-921l429 469h267l-374 -404zM448 -413l87 138l-72 7v173h220v-144l-144 -174h-91z" />
    <glyph glyph-name="kgreenlandic" unicode="&#x138;" horiz-adv-x="1180" 
d="M1128 0h-280l-266 502l-202 -199v-303h-242v1034h242v-491l461 491h255l-350 -354z" />
    <glyph glyph-name="l" unicode="l" horiz-adv-x="625" 
d="M436 -15q-100 0 -160 25t-90 67t-39 94.5t-9 107.5v1207h238v-1179q0 -67 27.5 -104t89.5 -43l52 -2v-153q-27 -8 -55 -14t-54 -6z" />
    <glyph glyph-name="lacute" unicode="&#x13a;" horiz-adv-x="625" 
d="M436 -15q-100 0 -160 25t-90 67t-39 94.5t-9 107.5v1207h238v-1179q0 -67 27.5 -104t89.5 -43l52 -2v-153q-27 -8 -55 -14t-54 -6zM369 1939h260l-286 -291h-180z" />
    <glyph glyph-name="lcaron" unicode="&#x13e;" horiz-adv-x="625" 
d="M436 -15q-100 0 -160 25t-90 67t-39 94.5t-9 107.5v1207h238v-1179q0 -67 27.5 -104t89.5 -43l52 -2v-153q-27 -8 -55 -14t-54 -6zM488 1038l79 193l-63 11v210h178v-220l-83 -194h-111z" />
    <glyph glyph-name="uni013C" unicode="&#x13c;" horiz-adv-x="625" 
d="M436 -15q-100 0 -160 25t-90 67t-39 94.5t-9 107.5v1207h238v-1179q0 -67 27.5 -104t89.5 -43l52 -2v-153q-27 -8 -55 -14t-54 -6zM139 -412l87 138l-72 7v173h220v-144l-144 -174h-91z" />
    <glyph glyph-name="ldot" unicode="&#x140;" horiz-adv-x="771" 
d="M436 -15q-100 0 -160 25t-90 67t-39 94.5t-9 107.5v1207h238v-1179q0 -67 27.5 -104t89.5 -43l52 -2v-153q-27 -8 -55 -14t-54 -6zM797 695v-257h-267v257h267z" />
    <glyph glyph-name="lslash" unicode="&#x142;" horiz-adv-x="716" 
d="M622 937v-202l-552 -425v215zM510 -15q-100 0 -160 25t-90 67t-39.5 94.5t-9.5 107.5v1207h239v-1179q0 -67 27.5 -104t89.5 -43l52 -2v-153q-27 -8 -55.5 -14t-53.5 -6z" />
    <glyph glyph-name="m" unicode="m" horiz-adv-x="1763" 
d="M138 0v1034h237v-148q45 68 122.5 118t197.5 50q55 0 111.5 -19t105 -56t77.5 -92q49 73 130.5 120t183.5 47q56 0 115.5 -18t109.5 -60t81 -114.5t31 -181.5v-680h-243v651q0 77 -27 121t-69.5 62.5t-90.5 18.5q-43 0 -89.5 -17t-79 -56t-32.5 -105v-675h-243v690
q0 54 -28 90t-70.5 54.5t-86.5 18.5q-45 0 -91.5 -19t-77.5 -58t-31 -101v-675h-243z" />
    <glyph glyph-name="n" unicode="n" horiz-adv-x="1171" 
d="M138 0v1034h238v-148q24 40 65.5 77t102.5 60t143 23q96 0 178.5 -38t133 -119t50.5 -209v-680h-244v651q0 102 -56 151.5t-141 49.5q-58 0 -110 -19.5t-84.5 -59t-32.5 -98.5v-675h-243z" />
    <glyph glyph-name="nacute" unicode="&#x144;" horiz-adv-x="1171" 
d="M138 0v1034h238v-148q24 40 65.5 77t102.5 60t143 23q96 0 178.5 -38t133 -119t50.5 -209v-680h-244v651q0 102 -56 151.5t-141 49.5q-58 0 -110 -19.5t-84.5 -59t-32.5 -98.5v-675h-243zM716 1446h260l-286 -291h-180z" />
    <glyph glyph-name="ncaron" unicode="&#x148;" horiz-adv-x="1171" 
d="M138 0v1034h238v-148q24 40 65.5 77t102.5 60t143 23q96 0 178.5 -38t133 -119t50.5 -209v-680h-244v651q0 102 -56 151.5t-141 49.5q-58 0 -110 -19.5t-84.5 -59t-32.5 -98.5v-675h-243zM517 1155l-258 245h193l149 -144l135 144h204l-252 -245h-171z" />
    <glyph glyph-name="uni0146" unicode="&#x146;" horiz-adv-x="1171" 
d="M138 0v1034h238v-148q24 40 65.5 77t102.5 60t143 23q96 0 178.5 -38t133 -119t50.5 -209v-680h-244v651q0 102 -56 151.5t-141 49.5q-58 0 -110 -19.5t-84.5 -59t-32.5 -98.5v-675h-243zM469 -413l87 138l-72 7v173h220v-144l-144 -174h-91z" />
    <glyph glyph-name="uni1E45" unicode="&#x1e45;" horiz-adv-x="1171" 
d="M138 0v1034h238v-148q24 40 65.5 77t102.5 60t143 23q96 0 178.5 -38t133 -119t50.5 -209v-680h-244v651q0 102 -56 151.5t-141 49.5q-58 0 -110 -19.5t-84.5 -59t-32.5 -98.5v-675h-243zM483 1199v210h237v-210h-237z" />
    <glyph glyph-name="eng" unicode="&#x14b;" horiz-adv-x="1187" 
d="M735 -332q-81 0 -100.5 8.5t-19.5 13.5v166l76 4q61 6 88 33.5t27 90.5v719q0 77 -40.5 123.5t-129.5 46.5q-69 0 -131.5 -36.5t-121.5 -102.5v-734h-245l3 1034h236v-159q64 60 122 99.5t116.5 59.5t123.5 20q143 0 227 -83t84 -220v-759q0 -101 -38 -173.5
t-108.5 -111.5t-168.5 -39z" />
    <glyph glyph-name="ntilde" unicode="&#xf1;" horiz-adv-x="1171" 
d="M138 0v1034h238v-148q24 40 65.5 77t102.5 60t143 23q96 0 178.5 -38t133 -119t50.5 -209v-680h-244v651q0 102 -56 151.5t-141 49.5q-58 0 -110 -19.5t-84.5 -59t-32.5 -98.5v-675h-243zM931 1275q-29 -22 -76 -43t-112 -21q-55 0 -98.5 13.5t-84.5 27t-89 13.5
q-50 0 -82 -16.5t-68 -44.5l-40 133q35 34 76.5 59t104.5 25q53 0 100 -14.5t91.5 -29.5t89.5 -15q49 0 86 20t68 43z" />
    <glyph glyph-name="o" unicode="o" horiz-adv-x="1131" 
d="M567 -20q-148 0 -258 63.5t-170.5 182.5t-60.5 286q0 162 58.5 284t168.5 190t263 68q148 0 257 -65t168.5 -186t59.5 -291q0 -157 -56.5 -276.5t-165 -187.5t-264.5 -68zM568 165q84 0 138.5 46t81 126t26.5 182q0 95 -23.5 175t-78 128.5t-144.5 48.5
q-85 0 -140.5 -44.5t-83 -124t-27.5 -183.5q0 -94 24.5 -174.5t79.5 -130t147 -49.5z" />
    <glyph glyph-name="oacute" unicode="&#xf3;" horiz-adv-x="1131" 
d="M567 -20q-148 0 -258 63.5t-170.5 182.5t-60.5 286q0 162 58.5 284t168.5 190t263 68q148 0 257 -65t168.5 -186t59.5 -291q0 -157 -56.5 -276.5t-165 -187.5t-264.5 -68zM568 165q84 0 138.5 46t81 126t26.5 182q0 95 -23.5 175t-78 128.5t-144.5 48.5
q-85 0 -140.5 -44.5t-83 -124t-27.5 -183.5q0 -94 24.5 -174.5t79.5 -130t147 -49.5zM681 1446h260l-286 -291h-180z" />
    <glyph glyph-name="obreve" unicode="&#x14f;" horiz-adv-x="1131" 
d="M567 -20q-148 0 -258 63.5t-170.5 182.5t-60.5 286q0 162 58.5 284t168.5 190t263 68q148 0 257 -65t168.5 -186t59.5 -291q0 -157 -56.5 -276.5t-165 -187.5t-264.5 -68zM568 165q84 0 138.5 46t81 126t26.5 182q0 95 -23.5 175t-78 128.5t-144.5 48.5
q-85 0 -140.5 -44.5t-83 -124t-27.5 -183.5q0 -94 24.5 -174.5t79.5 -130t147 -49.5zM895 1391q-16 -76 -63.5 -129t-116 -80.5t-150.5 -27.5q-79 0 -147.5 26.5t-116 79.5t-64.5 131h162q15 -49 58.5 -80t107.5 -31q63 0 108 31t62 80h160z" />
    <glyph glyph-name="ocircumflex" unicode="&#xf4;" horiz-adv-x="1131" 
d="M567 -20q-148 0 -258 63.5t-170.5 182.5t-60.5 286q0 162 58.5 284t168.5 190t263 68q148 0 257 -65t168.5 -186t59.5 -291q0 -157 -56.5 -276.5t-165 -187.5t-264.5 -68zM568 165q84 0 138.5 46t81 126t26.5 182q0 95 -23.5 175t-78 128.5t-144.5 48.5
q-85 0 -140.5 -44.5t-83 -124t-27.5 -183.5q0 -94 24.5 -174.5t79.5 -130t147 -49.5zM701 1155l-135 135l-149 -135h-192l258 244h170l252 -244h-204z" />
    <glyph glyph-name="uni1ED1" unicode="&#x1ed1;" horiz-adv-x="1131" 
d="M567 -20q-148 0 -258 63.5t-170.5 182.5t-60.5 286q0 162 58.5 284t168.5 190t263 68q148 0 257 -65t168.5 -186t59.5 -291q0 -157 -56.5 -276.5t-165 -187.5t-264.5 -68zM568 165q84 0 138.5 46t81 126t26.5 182q0 95 -23.5 175t-78 128.5t-144.5 48.5
q-85 0 -140.5 -44.5t-83 -124t-27.5 -183.5q0 -94 24.5 -174.5t79.5 -130t147 -49.5zM701 1155l-135 135l-149 -135h-192l258 244h170l252 -244h-204zM923 1641h201l-213 -253h-137z" />
    <glyph glyph-name="uni1ED9" unicode="&#x1ed9;" horiz-adv-x="1131" 
d="M567 -20q-148 0 -258 63.5t-170.5 182.5t-60.5 286q0 162 58.5 284t168.5 190t263 68q148 0 257 -65t168.5 -186t59.5 -291q0 -157 -56.5 -276.5t-165 -187.5t-264.5 -68zM568 165q84 0 138.5 46t81 126t26.5 182q0 95 -23.5 175t-78 128.5t-144.5 48.5
q-85 0 -140.5 -44.5t-83 -124t-27.5 -183.5q0 -94 24.5 -174.5t79.5 -130t147 -49.5zM447 -380v210h237v-210h-237zM701 1155l-135 135l-149 -135h-192l258 244h170l252 -244h-204z" />
    <glyph glyph-name="uni1ED3" unicode="&#x1ed3;" horiz-adv-x="1131" 
d="M567 -20q-148 0 -258 63.5t-170.5 182.5t-60.5 286q0 162 58.5 284t168.5 190t263 68q148 0 257 -65t168.5 -186t59.5 -291q0 -157 -56.5 -276.5t-165 -187.5t-264.5 -68zM568 165q84 0 138.5 46t81 126t26.5 182q0 95 -23.5 175t-78 128.5t-144.5 48.5
q-85 0 -140.5 -44.5t-83 -124t-27.5 -183.5q0 -94 24.5 -174.5t79.5 -130t147 -49.5zM701 1155l-135 135l-149 -135h-192l258 244h170l252 -244h-204zM848 1641l158 -253h-140l-220 253h202z" />
    <glyph glyph-name="uni1ED5" unicode="&#x1ed5;" horiz-adv-x="1131" 
d="M567 -20q-148 0 -258 63.5t-170.5 182.5t-60.5 286q0 162 58.5 284t168.5 190t263 68q148 0 257 -65t168.5 -186t59.5 -291q0 -157 -56.5 -276.5t-165 -187.5t-264.5 -68zM568 165q84 0 138.5 46t81 126t26.5 182q0 95 -23.5 175t-78 128.5t-144.5 48.5
q-85 0 -140.5 -44.5t-83 -124t-27.5 -183.5q0 -94 24.5 -174.5t79.5 -130t147 -49.5zM706 1155l-135 135l-149 -135h-192l258 244h170l252 -244h-204zM625 1673l62 -96q38 25 78.5 24.5t59.5 -32.5q21 -33 5.5 -68t-56.5 -61l62 -97q96 57 120 135t-29 159q-43 67 -128.5 80
t-173.5 -44z" />
    <glyph glyph-name="uni1ED7" unicode="&#x1ed7;" horiz-adv-x="1131" 
d="M567 -20q-148 0 -258 63.5t-170.5 182.5t-60.5 286q0 162 58.5 284t168.5 190t263 68q148 0 257 -65t168.5 -186t59.5 -291q0 -157 -56.5 -276.5t-165 -187.5t-264.5 -68zM568 165q84 0 138.5 46t81 126t26.5 182q0 95 -23.5 175t-78 128.5t-144.5 48.5
q-85 0 -140.5 -44.5t-83 -124t-27.5 -183.5q0 -94 24.5 -174.5t79.5 -130t147 -49.5zM703 1155l-135 135l-149 -135h-192l258 244h170l252 -244h-204zM891 1569q-29 -22 -76 -43t-112 -21q-55 0 -98.5 13.5t-84.5 27t-89 13.5q-50 0 -82 -16.5t-68 -44.5l-40 133
q35 34 76.5 59t104.5 25q53 0 100 -14.5t91.5 -29.5t89.5 -15q49 0 86 20t68 43z" />
    <glyph glyph-name="uni020D" unicode="&#x20d;" horiz-adv-x="1131" 
d="M567 -20q-148 0 -258 63.5t-170.5 182.5t-60.5 286q0 162 58.5 284t168.5 190t263 68q148 0 257 -65t168.5 -186t59.5 -291q0 -157 -56.5 -276.5t-165 -187.5t-264.5 -68zM568 165q84 0 138.5 46t81 126t26.5 182q0 95 -23.5 175t-78 128.5t-144.5 48.5
q-85 0 -140.5 -44.5t-83 -124t-27.5 -183.5q0 -94 24.5 -174.5t79.5 -130t147 -49.5zM614 1446l199 -291h-179l-253 291h233zM252 1446l242 -291h-180l-302 291h240z" />
    <glyph glyph-name="odieresis" unicode="&#xf6;" horiz-adv-x="1131" 
d="M567 -20q-148 0 -258 63.5t-170.5 182.5t-60.5 286q0 162 58.5 284t168.5 190t263 68q148 0 257 -65t168.5 -186t59.5 -291q0 -157 -56.5 -276.5t-165 -187.5t-264.5 -68zM568 165q84 0 138.5 46t81 126t26.5 182q0 95 -23.5 175t-78 128.5t-144.5 48.5
q-85 0 -140.5 -44.5t-83 -124t-27.5 -183.5q0 -94 24.5 -174.5t79.5 -130t147 -49.5zM665 1199l2 210h232l-3 -210h-231zM234 1199l2 210h232l-3 -210h-231z" />
    <glyph glyph-name="uni1ECD" unicode="&#x1ecd;" horiz-adv-x="1131" 
d="M567 -20q-148 0 -258 63.5t-170.5 182.5t-60.5 286q0 162 58.5 284t168.5 190t263 68q148 0 257 -65t168.5 -186t59.5 -291q0 -157 -56.5 -276.5t-165 -187.5t-264.5 -68zM568 165q84 0 138.5 46t81 126t26.5 182q0 95 -23.5 175t-78 128.5t-144.5 48.5
q-85 0 -140.5 -44.5t-83 -124t-27.5 -183.5q0 -94 24.5 -174.5t79.5 -130t147 -49.5zM447 -380v210h237v-210h-237z" />
    <glyph glyph-name="ograve" unicode="&#xf2;" horiz-adv-x="1131" 
d="M567 -20q-148 0 -258 63.5t-170.5 182.5t-60.5 286q0 162 58.5 284t168.5 190t263 68q148 0 257 -65t168.5 -186t59.5 -291q0 -157 -56.5 -276.5t-165 -187.5t-264.5 -68zM568 165q84 0 138.5 46t81 126t26.5 182q0 95 -23.5 175t-78 128.5t-144.5 48.5
q-85 0 -140.5 -44.5t-83 -124t-27.5 -183.5q0 -94 24.5 -174.5t79.5 -130t147 -49.5zM446 1446h-260l286 -291h180z" />
    <glyph glyph-name="uni1ECF" unicode="&#x1ecf;" horiz-adv-x="1131" 
d="M567 -20q-148 0 -258 63.5t-170.5 182.5t-60.5 286q0 162 58.5 284t168.5 190t263 68q148 0 257 -65t168.5 -186t59.5 -291q0 -157 -56.5 -276.5t-165 -187.5t-264.5 -68zM568 165q84 0 138.5 46t81 126t26.5 182q0 95 -23.5 175t-78 128.5t-144.5 48.5
q-85 0 -140.5 -44.5t-83 -124t-27.5 -183.5q0 -94 24.5 -174.5t79.5 -130t147 -49.5zM428 1483l62 -96q38 25 78.5 24.5t59.5 -32.5q21 -33 5.5 -68t-56.5 -61l62 -97q96 57 120 135t-29 159q-43 67 -128.5 80t-173.5 -44z" />
    <glyph glyph-name="ohorn" unicode="&#x1a1;" horiz-adv-x="1246" 
d="M567 -20q-148 0 -258 63.5t-170.5 182.5t-60.5 286q0 162 58.5 284t168.5 190t263 68q148 0 257 -65t168.5 -186t59.5 -291q0 -157 -56.5 -276.5t-165 -187.5t-264.5 -68zM568 165q84 0 138.5 46t81 126t26.5 182q0 95 -23.5 175t-78 128.5t-144.5 48.5
q-85 0 -140.5 -44.5t-83 -124t-27.5 -183.5q0 -94 24.5 -174.5t79.5 -130t147 -49.5zM1243 1113q-1 -131 -34.5 -209t-111.5 -108t-213 -15v126q48 -1 81.5 4.5t55 25t34 61.5t16.5 115h172z" />
    <glyph glyph-name="uni1EDB" unicode="&#x1edb;" horiz-adv-x="1246" 
d="M681 1446h260l-286 -291h-180zM567 -20q-148 0 -258 63.5t-170.5 182.5t-60.5 286q0 162 58.5 284t168.5 190t263 68q148 0 257 -65t168.5 -186t59.5 -291q0 -157 -56.5 -276.5t-165 -187.5t-264.5 -68zM568 165q84 0 138.5 46t81 126t26.5 182q0 95 -23.5 175t-78 128.5
t-144.5 48.5q-85 0 -140.5 -44.5t-83 -124t-27.5 -183.5q0 -94 24.5 -174.5t79.5 -130t147 -49.5zM1243 1113q-1 -131 -34.5 -209t-111.5 -108t-213 -15v126q48 -1 81.5 4.5t55 25t34 61.5t16.5 115h172z" />
    <glyph glyph-name="uni1EE3" unicode="&#x1ee3;" horiz-adv-x="1246" 
d="M430 -380v210h237v-210h-237zM567 -20q-148 0 -258 63.5t-170.5 182.5t-60.5 286q0 162 58.5 284t168.5 190t263 68q148 0 257 -65t168.5 -186t59.5 -291q0 -157 -56.5 -276.5t-165 -187.5t-264.5 -68zM568 165q84 0 138.5 46t81 126t26.5 182q0 95 -23.5 175t-78 128.5
t-144.5 48.5q-85 0 -140.5 -44.5t-83 -124t-27.5 -183.5q0 -94 24.5 -174.5t79.5 -130t147 -49.5zM1243 1113q-1 -131 -34.5 -209t-111.5 -108t-213 -15v126q48 -1 81.5 4.5t55 25t34 61.5t16.5 115h172z" />
    <glyph glyph-name="uni1EDD" unicode="&#x1edd;" horiz-adv-x="1246" 
d="M445 1446h-260l286 -291h180zM567 -20q-148 0 -258 63.5t-170.5 182.5t-60.5 286q0 162 58.5 284t168.5 190t263 68q148 0 257 -65t168.5 -186t59.5 -291q0 -157 -56.5 -276.5t-165 -187.5t-264.5 -68zM568 165q84 0 138.5 46t81 126t26.5 182q0 95 -23.5 175t-78 128.5
t-144.5 48.5q-85 0 -140.5 -44.5t-83 -124t-27.5 -183.5q0 -94 24.5 -174.5t79.5 -130t147 -49.5zM1243 1113q-1 -131 -34.5 -209t-111.5 -108t-213 -15v126q48 -1 81.5 4.5t55 25t34 61.5t16.5 115h172z" />
    <glyph glyph-name="uni1EDF" unicode="&#x1edf;" horiz-adv-x="1246" 
d="M424 1483l62 -96q38 25 78.5 24.5t59.5 -32.5q21 -33 5.5 -68t-56.5 -61l62 -97q96 57 120 135t-29 159q-43 67 -128.5 80t-173.5 -44zM567 -20q-148 0 -258 63.5t-170.5 182.5t-60.5 286q0 162 58.5 284t168.5 190t263 68q148 0 257 -65t168.5 -186t59.5 -291
q0 -157 -56.5 -276.5t-165 -187.5t-264.5 -68zM568 165q84 0 138.5 46t81 126t26.5 182q0 95 -23.5 175t-78 128.5t-144.5 48.5q-85 0 -140.5 -44.5t-83 -124t-27.5 -183.5q0 -94 24.5 -174.5t79.5 -130t147 -49.5zM1243 1113q-1 -131 -34.5 -209t-111.5 -108t-213 -15v126
q48 -1 81.5 4.5t55 25t34 61.5t16.5 115h172z" />
    <glyph glyph-name="uni1EE1" unicode="&#x1ee1;" horiz-adv-x="1246" 
d="M892 1275q-29 -22 -76 -43t-112 -21q-55 0 -98.5 13.5t-84.5 27t-89 13.5q-50 0 -82 -16.5t-68 -44.5l-40 133q35 34 76.5 59t104.5 25q53 0 100 -14.5t91.5 -29.5t89.5 -15q49 0 86 20t68 43zM567 -20q-148 0 -258 63.5t-170.5 182.5t-60.5 286q0 162 58.5 284
t168.5 190t263 68q148 0 257 -65t168.5 -186t59.5 -291q0 -157 -56.5 -276.5t-165 -187.5t-264.5 -68zM568 165q84 0 138.5 46t81 126t26.5 182q0 95 -23.5 175t-78 128.5t-144.5 48.5q-85 0 -140.5 -44.5t-83 -124t-27.5 -183.5q0 -94 24.5 -174.5t79.5 -130t147 -49.5z
M1243 1113q-1 -131 -34.5 -209t-111.5 -108t-213 -15v126q48 -1 81.5 4.5t55 25t34 61.5t16.5 115h172z" />
    <glyph glyph-name="ohungarumlaut" unicode="&#x151;" horiz-adv-x="1131" 
d="M567 -20q-148 0 -258 63.5t-170.5 182.5t-60.5 286q0 162 58.5 284t168.5 190t263 68q148 0 257 -65t168.5 -186t59.5 -291q0 -157 -56.5 -276.5t-165 -187.5t-264.5 -68zM568 165q84 0 138.5 46t81 126t26.5 182q0 95 -23.5 175t-78 128.5t-144.5 48.5
q-85 0 -140.5 -44.5t-83 -124t-27.5 -183.5q0 -94 24.5 -174.5t79.5 -130t147 -49.5zM519 1446l-199 -291h179l253 291h-233zM881 1446l-242 -291h180l302 291h-240z" />
    <glyph glyph-name="uni020F" unicode="&#x20f;" horiz-adv-x="1131" 
d="M567 -20q-148 0 -258 63.5t-170.5 182.5t-60.5 286q0 162 58.5 284t168.5 190t263 68q148 0 257 -65t168.5 -186t59.5 -291q0 -157 -56.5 -276.5t-165 -187.5t-264.5 -68zM568 165q84 0 138.5 46t81 126t26.5 182q0 95 -23.5 175t-78 128.5t-144.5 48.5
q-85 0 -140.5 -44.5t-83 -124t-27.5 -183.5q0 -94 24.5 -174.5t79.5 -130t147 -49.5zM893 1193q-16 76 -63.5 129t-116 80.5t-150.5 27.5q-79 0 -147.5 -26.5t-116 -79.5t-64.5 -131h162q15 49 58.5 80t107.5 31q63 0 108 -31t62 -80h160z" />
    <glyph glyph-name="omacron" unicode="&#x14d;" horiz-adv-x="1131" 
d="M567 -20q-148 0 -258 63.5t-170.5 182.5t-60.5 286q0 162 58.5 284t168.5 190t263 68q148 0 257 -65t168.5 -186t59.5 -291q0 -157 -56.5 -276.5t-165 -187.5t-264.5 -68zM568 165q84 0 138.5 46t81 126t26.5 182q0 95 -23.5 175t-78 128.5t-144.5 48.5
q-85 0 -140.5 -44.5t-83 -124t-27.5 -183.5q0 -94 24.5 -174.5t79.5 -130t147 -49.5zM893 1380v-161h-654v161h654z" />
    <glyph glyph-name="uni01EB" unicode="&#x1eb;" horiz-adv-x="1131" 
d="M567 -20q-148 0 -258 63.5t-170.5 182.5t-60.5 286q0 162 58.5 284t168.5 190t263 68q148 0 257 -65t168.5 -186t59.5 -291q0 -157 -56.5 -276.5t-165 -187.5t-264.5 -68zM568 165q84 0 138.5 46t81 126t26.5 182q0 95 -23.5 175t-78 128.5t-144.5 48.5
q-85 0 -140.5 -44.5t-83 -124t-27.5 -183.5q0 -94 24.5 -174.5t79.5 -130t147 -49.5zM364 -175q0 57 39.5 104.5t158.5 85.5l172 -9q-103 -40 -145.5 -75t-42.5 -79q0 -34 19.5 -51t62.5 -17q46 0 82.5 13t61.5 27v-116q-26 -15 -81 -29.5t-118 -14.5q-100 0 -154.5 42
t-54.5 119z" />
    <glyph glyph-name="oslash" unicode="&#xf8;" horiz-adv-x="1200" 
d="M1143 952l-1010 -965l-87 92l1011 965zM602 -20q-148 0 -257.5 63.5t-170 182.5t-60.5 286q0 162 58.5 284t168 190t262.5 68q149 0 257.5 -65t168.5 -186t60 -291q0 -157 -57 -276.5t-165 -187.5t-265 -68zM603 165q84 0 139 46t81.5 126t26.5 182q0 95 -24 175
t-78 128.5t-145 48.5q-85 0 -140.5 -44.5t-82.5 -124t-27 -183.5q0 -94 24.5 -174.5t79.5 -130t146 -49.5z" />
    <glyph glyph-name="oslashacute" unicode="&#x1ff;" horiz-adv-x="1200" 
d="M1143 952l-1010 -965l-87 92l1011 965zM602 -20q-148 0 -257.5 63.5t-170 182.5t-60.5 286q0 162 58.5 284t168 190t262.5 68q149 0 257.5 -65t168.5 -186t60 -291q0 -157 -57 -276.5t-165 -187.5t-265 -68zM603 165q84 0 139 46t81.5 126t26.5 182q0 95 -24 175
t-78 128.5t-145 48.5q-85 0 -140.5 -44.5t-82.5 -124t-27 -183.5q0 -94 24.5 -174.5t79.5 -130t146 -49.5zM710 1446h260l-286 -291h-180z" />
    <glyph glyph-name="otilde" unicode="&#xf5;" horiz-adv-x="1131" 
d="M567 -20q-148 0 -258 63.5t-170.5 182.5t-60.5 286q0 162 58.5 284t168.5 190t263 68q148 0 257 -65t168.5 -186t59.5 -291q0 -157 -56.5 -276.5t-165 -187.5t-264.5 -68zM568 165q84 0 138.5 46t81 126t26.5 182q0 95 -23.5 175t-78 128.5t-144.5 48.5
q-85 0 -140.5 -44.5t-83 -124t-27.5 -183.5q0 -94 24.5 -174.5t79.5 -130t147 -49.5zM896 1275q-29 -22 -76 -43t-112 -21q-55 0 -98.5 13.5t-84.5 27t-89 13.5q-50 0 -82 -16.5t-68 -44.5l-40 133q35 34 76.5 59t104.5 25q53 0 100 -14.5t91.5 -29.5t89.5 -15q49 0 86 20
t68 43z" />
    <glyph glyph-name="oe" unicode="&#x153;" horiz-adv-x="1869" 
d="M567 -20q-148 0 -258 63.5t-170.5 182.5t-60.5 286q0 162 58.5 284t168.5 190t263 68q148 0 257 -65t168.5 -186t59.5 -291q0 -157 -56.5 -276.5t-165 -187.5t-264.5 -68zM568 165q84 0 138.5 46t81 126t26.5 182q0 95 -23.5 175t-78 128.5t-144.5 48.5
q-85 0 -140.5 -44.5t-83 -124t-27.5 -183.5q0 -94 24.5 -174.5t79.5 -130t147 -49.5zM1066 461q-1 -88 28 -156t86 -106.5t141 -38.5q86 0 149.5 38.5t84.5 117.5h223q-18 -108 -86 -183t-164.5 -114t-200.5 -39q-150 0 -263.5 63.5t-177 181.5t-63.5 281q0 159 58 282.5
t167.5 194.5t263.5 71q153 0 257.5 -65t158 -181.5t53.5 -272.5v-74h-715zM1066 612h485q0 75 -26 135.5t-79.5 96t-134.5 35.5q-80 0 -135 -39t-83 -100.5t-27 -127.5z" />
    <glyph glyph-name="p" unicode="p" horiz-adv-x="1198" 
d="M138 -322v1356h243l2 -163q20 34 51.5 67t73 59t92.5 41.5t112 15.5q119 0 211 -56.5t144.5 -173.5t52.5 -296q0 -183 -54 -305t-151 -182.5t-225 -60.5q-59 0 -107.5 16t-86.5 44t-66.5 61t-47.5 69v-492h-244zM636 162q110 0 182 87.5t72 274.5q0 162 -67.5 255.5
t-186.5 93.5q-128 0 -192 -98.5t-64 -250.5q0 -98 28.5 -180.5t85 -132t142.5 -49.5z" />
    <glyph glyph-name="thorn" unicode="&#xfe;" horiz-adv-x="1190" 
d="M380 1446v-548q29 32 70.5 68.5t102 62t147.5 25.5q116 0 209 -57t148 -174t55 -295q0 -183 -55.5 -304.5t-153 -182.5t-221.5 -61q-82 0 -148 26t-120 73q-20 18 -26.5 16t-6.5 -28v-389h-243v1768h242zM381 251q46 -50 99 -80.5t119 -30.5q79 0 138.5 41t93 127
t33.5 222q0 133 -34 212.5t-92.5 115t-131.5 35.5q-66 0 -117 -28t-79.5 -70t-28.5 -86v-458z" />
    <glyph glyph-name="q" unicode="q" horiz-adv-x="1198" 
d="M1061 -322h-244v492q-19 -36 -47.5 -69t-67 -61t-87 -44t-106.5 -16q-121 0 -218.5 56.5t-155 177t-57.5 314.5q0 170 49 287.5t140.5 178t218.5 60.5q61 0 112.5 -15.5t93 -41.5t72.5 -59t52 -67l1 163h244v-1356zM563 162q85 0 142 49.5t85 132t28 180.5
q0 152 -63.5 250.5t-191.5 98.5q-109 0 -181.5 -87t-72.5 -262q0 -174 67.5 -268t186.5 -94z" />
    <glyph glyph-name="r" unicode="r" horiz-adv-x="796" 
d="M138 0v1034h233v-224q25 77 71.5 131.5t109.5 83.5t137 29q18 0 35 -2t25 -7v-233q-11 5 -28.5 7t-30.5 2q-75 6 -132.5 -6t-97 -40.5t-59.5 -72t-20 -101.5v-601h-243z" />
    <glyph glyph-name="racute" unicode="&#x155;" horiz-adv-x="796" 
d="M138 0v1034h233v-224q25 77 71.5 131.5t109.5 83.5t137 29q18 0 35 -2t25 -7v-233q-11 5 -28.5 7t-30.5 2q-75 6 -132.5 -6t-97 -40.5t-59.5 -72t-20 -101.5v-601h-243zM551 1446h260l-286 -291h-180z" />
    <glyph glyph-name="rcaron" unicode="&#x159;" horiz-adv-x="796" 
d="M138 0v1034h233v-224q25 77 71.5 131.5t109.5 83.5t137 29q18 0 35 -2t25 -7v-233q-11 5 -28.5 7t-30.5 2q-75 6 -132.5 -6t-97 -40.5t-59.5 -72t-20 -101.5v-601h-243zM352 1155l-258 245h193l149 -144l135 144h204l-252 -245h-171z" />
    <glyph glyph-name="uni0157" unicode="&#x157;" horiz-adv-x="796" 
d="M138 0v1034h233v-224q25 77 71.5 131.5t109.5 83.5t137 29q18 0 35 -2t25 -7v-233q-11 5 -28.5 7t-30.5 2q-75 6 -132.5 -6t-97 -40.5t-59.5 -72t-20 -101.5v-601h-243zM134 -413l87 138l-72 7v173h220v-144l-144 -174h-91z" />
    <glyph glyph-name="uni0211" unicode="&#x211;" horiz-adv-x="796" 
d="M138 0v1034h233v-224q25 77 71.5 131.5t109.5 83.5t137 29q18 0 35 -2t25 -7v-233q-11 5 -28.5 7t-30.5 2q-75 6 -132.5 -6t-97 -40.5t-59.5 -72t-20 -101.5v-601h-243zM484 1446l199 -291h-179l-253 291h233zM122 1446l242 -291h-180l-302 291h240z" />
    <glyph glyph-name="uni1E5B" unicode="&#x1e5b;" horiz-adv-x="796" 
d="M138 0v1034h233v-224q25 77 71.5 131.5t109.5 83.5t137 29q18 0 35 -2t25 -7v-233q-11 5 -28.5 7t-30.5 2q-75 6 -132.5 -6t-97 -40.5t-59.5 -72t-20 -101.5v-601h-243zM140 -380v210h237v-210h-237z" />
    <glyph glyph-name="uni0213" unicode="&#x213;" horiz-adv-x="796" 
d="M138 0v1034h233v-224q25 77 71.5 131.5t109.5 83.5t137 29q18 0 35 -2t25 -7v-233q-11 5 -28.5 7t-30.5 2q-75 6 -132.5 -6t-97 -40.5t-59.5 -72t-20 -101.5v-601h-243zM763 1172q-16 76 -63.5 129t-116 80.5t-150.5 27.5q-79 0 -147.5 -26.5t-116 -79.5t-64.5 -131h162
q15 49 58.5 80t107.5 31q63 0 108 -31t62 -80h160z" />
    <glyph glyph-name="s" unicode="s" horiz-adv-x="1037" 
d="M527 -20q-108 0 -204.5 34.5t-162 108.5t-82.5 191h214q14 -57 49.5 -93t84.5 -52.5t100 -16.5q93 0 150.5 32t57.5 99q0 49 -32 78t-102 44l-197 45q-131 29 -210.5 96t-80.5 189q-1 92 46 164t140 113.5t230 41.5q181 0 290 -80.5t112 -229.5h-207q-11 67 -63 104.5
t-135 37.5q-86 0 -141 -33t-55 -101q0 -47 42 -74t126 -46l186 -45q80 -20 131 -54t80 -74.5t40.5 -83t11.5 -78.5q0 -100 -51.5 -170.5t-145.5 -108.5t-222 -38z" />
    <glyph glyph-name="sacute" unicode="&#x15b;" horiz-adv-x="1037" 
d="M527 -20q-108 0 -204.5 34.5t-162 108.5t-82.5 191h214q14 -57 49.5 -93t84.5 -52.5t100 -16.5q93 0 150.5 32t57.5 99q0 49 -32 78t-102 44l-197 45q-131 29 -210.5 96t-80.5 189q-1 92 46 164t140 113.5t230 41.5q181 0 290 -80.5t112 -229.5h-207q-11 67 -63 104.5
t-135 37.5q-86 0 -141 -33t-55 -101q0 -47 42 -74t126 -46l186 -45q80 -20 131 -54t80 -74.5t40.5 -83t11.5 -78.5q0 -100 -51.5 -170.5t-145.5 -108.5t-222 -38zM644 1446h260l-286 -291h-180z" />
    <glyph glyph-name="scaron" unicode="&#x161;" horiz-adv-x="1037" 
d="M527 -20q-108 0 -204.5 34.5t-162 108.5t-82.5 191h214q14 -57 49.5 -93t84.5 -52.5t100 -16.5q93 0 150.5 32t57.5 99q0 49 -32 78t-102 44l-197 45q-131 29 -210.5 96t-80.5 189q-1 92 46 164t140 113.5t230 41.5q181 0 290 -80.5t112 -229.5h-207q-11 67 -63 104.5
t-135 37.5q-86 0 -141 -33t-55 -101q0 -47 42 -74t126 -46l186 -45q80 -20 131 -54t80 -74.5t40.5 -83t11.5 -78.5q0 -100 -51.5 -170.5t-145.5 -108.5t-222 -38zM444 1155l-258 245h193l149 -144l135 144h204l-252 -245h-171z" />
    <glyph glyph-name="scedilla" unicode="&#x15f;" horiz-adv-x="1037" 
d="M527 -20q-108 0 -204.5 34.5t-162 108.5t-82.5 191h214q14 -57 49.5 -93t84.5 -52.5t100 -16.5q93 0 150.5 32t57.5 99q0 49 -32 78t-102 44l-197 45q-131 29 -210.5 96t-80.5 189q-1 92 46 164t140 113.5t230 41.5q181 0 290 -80.5t112 -229.5h-207q-11 67 -63 104.5
t-135 37.5q-86 0 -141 -33t-55 -101q0 -47 42 -74t126 -46l186 -45q80 -20 131 -54t80 -74.5t40.5 -83t11.5 -78.5q0 -100 -51.5 -170.5t-145.5 -108.5t-222 -38zM726 -260q0 -51 -31.5 -86.5t-83.5 -54t-114 -18.5q-58 0 -111.5 12t-99.5 40l35 89q29 -19 66 -33.5
t81 -14.5q51 0 77 17.5t26 49.5q0 41 -37.5 62t-127.5 22q-11 0 -14.5 3.5t0.5 13.5l73 168h115l-46 -119q72 -2 114 -25.5t60 -57.5t18 -68z" />
    <glyph glyph-name="scircumflex" unicode="&#x15d;" horiz-adv-x="1037" 
d="M527 -20q-108 0 -204.5 34.5t-162 108.5t-82.5 191h214q14 -57 49.5 -93t84.5 -52.5t100 -16.5q93 0 150.5 32t57.5 99q0 49 -32 78t-102 44l-197 45q-131 29 -210.5 96t-80.5 189q-1 92 46 164t140 113.5t230 41.5q181 0 290 -80.5t112 -229.5h-207q-11 67 -63 104.5
t-135 37.5q-86 0 -141 -33t-55 -101q0 -47 42 -74t126 -46l186 -45q80 -20 131 -54t80 -74.5t40.5 -83t11.5 -78.5q0 -100 -51.5 -170.5t-145.5 -108.5t-222 -38zM663 1155l-135 135l-149 -135h-192l258 244h170l252 -244h-204z" />
    <glyph glyph-name="uni0219" unicode="&#x219;" horiz-adv-x="1037" 
d="M527 -20q-108 0 -204.5 34.5t-162 108.5t-82.5 191h214q14 -57 49.5 -93t84.5 -52.5t100 -16.5q93 0 150.5 32t57.5 99q0 49 -32 78t-102 44l-197 45q-131 29 -210.5 96t-80.5 189q-1 92 46 164t140 113.5t230 41.5q181 0 290 -80.5t112 -229.5h-207q-11 67 -63 104.5
t-135 37.5q-86 0 -141 -33t-55 -101q0 -47 42 -74t126 -46l186 -45q80 -20 131 -54t80 -74.5t40.5 -83t11.5 -78.5q0 -100 -51.5 -170.5t-145.5 -108.5t-222 -38zM392 -413l87 138l-72 7v173h220v-144l-144 -174h-91z" />
    <glyph glyph-name="uni1E63" unicode="&#x1e63;" horiz-adv-x="1037" 
d="M527 -20q-108 0 -204.5 34.5t-162 108.5t-82.5 191h214q14 -57 49.5 -93t84.5 -52.5t100 -16.5q93 0 150.5 32t57.5 99q0 49 -32 78t-102 44l-197 45q-131 29 -210.5 96t-80.5 189q-1 92 46 164t140 113.5t230 41.5q181 0 290 -80.5t112 -229.5h-207q-11 67 -63 104.5
t-135 37.5q-86 0 -141 -33t-55 -101q0 -47 42 -74t126 -46l186 -45q80 -20 131 -54t80 -74.5t40.5 -83t11.5 -78.5q0 -100 -51.5 -170.5t-145.5 -108.5t-222 -38zM398 -380v210h237v-210h-237z" />
    <glyph glyph-name="germandbls" unicode="&#xdf;" horiz-adv-x="1229" 
d="M618 1446q130 0 214.5 -37.5t126 -102.5t41.5 -148q0 -73 -30 -123t-86.5 -87t-134.5 -72q-43 -23 -61.5 -38t-18.5 -41q0 -25 17.5 -37t61.5 -27q65 -26 133.5 -57t126.5 -75t93.5 -109.5t35.5 -161.5q0 -114 -52.5 -192t-145 -118t-212.5 -40q-78 0 -149.5 18.5
t-120.5 49.5l77 154q37 -22 78.5 -41t103.5 -19q89 0 144.5 42t55.5 121q0 57 -28.5 92t-77.5 58t-111 45q-55 22 -104 52t-79.5 76t-30.5 116q0 76 39 126t108 95q35 26 68 51t55 56t22 76q0 60 -45 97.5t-129 37.5q-102 0 -163.5 -62.5t-61.5 -176.5v-1044h-238l-2 999
q1 92 30 173t87 142.5t148 96.5t215 35z" />
    <glyph glyph-name="t" unicode="t" horiz-adv-x="827" 
d="M726 862h-231l1 -593q0 -46 10.5 -67.5t34 -28t63.5 -6.5h127v-154q-20 -8 -60.5 -14.5t-108.5 -6.5q-123 0 -190.5 32.5t-93.5 92.5t-26 143v602h-168v172h175l61 307h175v-306h231v-173z" />
    <glyph glyph-name="tbar" unicode="&#x167;" horiz-adv-x="840" 
d="M689 638v-143h-595v143h595zM765 862h-232l1 -593q0 -46 10.5 -67.5t34 -28t63.5 -6.5h127v-154q-20 -8 -60.5 -14.5t-107.5 -6.5q-123 0 -190.5 32.5t-94 92.5t-26.5 143v602h-168v172h176l60 307h175v-306h232v-173z" />
    <glyph glyph-name="tcaron" unicode="&#x165;" horiz-adv-x="875" 
d="M726 862h-231l1 -593q0 -46 10.5 -67.5t34 -28t63.5 -6.5h127v-154q-20 -8 -60.5 -14.5t-108.5 -6.5q-123 0 -190.5 32.5t-93.5 92.5t-26 143v602h-168v172h175l61 307h175v-306h231v-173zM805 1032l79 193l-63 11v210h178v-220l-83 -194h-111z" />
    <glyph glyph-name="uni0163" unicode="&#x163;" horiz-adv-x="827" 
d="M726 862h-231l1 -593q0 -46 10.5 -67.5t34 -28t63.5 -6.5h127v-154q-20 -8 -60.5 -14.5t-108.5 -6.5q-123 0 -190.5 32.5t-93.5 92.5t-26 143v602h-168v172h175l61 307h175v-306h231v-173zM696 -250q0 -51 -31.5 -86.5t-83.5 -54t-114 -18.5q-58 0 -111.5 12t-99.5 40
l35 89q29 -19 66 -33.5t81 -14.5q51 0 77 17.5t26 49.5q0 41 -37.5 62t-127.5 22q-11 0 -14.5 3.5t0.5 13.5l73 168h115l-46 -119q72 -2 114 -25.5t60 -57.5t18 -68z" />
    <glyph glyph-name="uni021B" unicode="&#x21b;" horiz-adv-x="827" 
d="M726 862h-231l1 -593q0 -46 10.5 -67.5t34 -28t63.5 -6.5h127v-154q-20 -8 -60.5 -14.5t-108.5 -6.5q-123 0 -190.5 32.5t-93.5 92.5t-26 143v602h-168v172h175l61 307h175v-306h231v-173zM362 -403l87 138l-72 7v173h220v-144l-144 -174h-91z" />
    <glyph glyph-name="uni1E6D" unicode="&#x1e6d;" horiz-adv-x="827" 
d="M726 862h-231l1 -593q0 -46 10.5 -67.5t34 -28t63.5 -6.5h127v-154q-20 -8 -60.5 -14.5t-108.5 -6.5q-123 0 -190.5 32.5t-93.5 92.5t-26 143v602h-168v172h175l61 307h175v-306h231v-173zM368 -370v210h237v-210h-237z" />
    <glyph glyph-name="u" unicode="u" horiz-adv-x="1162" 
d="M518 -20q-76 0 -146.5 22.5t-126.5 66t-89 107.5t-33 149v709h244v-681q0 -84 53.5 -138t161.5 -54q98 0 157 51.5t59 148.5v673h242v-1034h-187l-27 202q-19 -85 -66.5 -133.5t-111 -68.5t-130.5 -20z" />
    <glyph glyph-name="uacute" unicode="&#xfa;" horiz-adv-x="1162" 
d="M518 -20q-76 0 -146.5 22.5t-126.5 66t-89 107.5t-33 149v709h244v-681q0 -84 53.5 -138t161.5 -54q98 0 157 51.5t59 148.5v673h242v-1034h-187l-27 202q-19 -85 -66.5 -133.5t-111 -68.5t-130.5 -20zM699 1446h260l-286 -291h-180z" />
    <glyph glyph-name="ubreve" unicode="&#x16d;" horiz-adv-x="1162" 
d="M518 -20q-76 0 -146.5 22.5t-126.5 66t-89 107.5t-33 149v709h244v-681q0 -84 53.5 -138t161.5 -54q98 0 157 51.5t59 148.5v673h242v-1034h-187l-27 202q-19 -85 -66.5 -133.5t-111 -68.5t-130.5 -20zM913 1391q-16 -76 -63.5 -129t-116 -80.5t-150.5 -27.5
q-79 0 -147.5 26.5t-116 79.5t-64.5 131h162q15 -49 58.5 -80t107.5 -31q63 0 108 31t62 80h160z" />
    <glyph glyph-name="uni01D4" unicode="&#x1d4;" horiz-adv-x="1162" 
d="M518 -20q-76 0 -146.5 22.5t-126.5 66t-89 107.5t-33 149v709h244v-681q0 -84 53.5 -138t161.5 -54q98 0 157 51.5t59 148.5v673h242v-1034h-187l-27 202q-19 -85 -66.5 -133.5t-111 -68.5t-130.5 -20zM499 1155l-258 245h193l149 -144l135 144h204l-252 -245h-171z" />
    <glyph glyph-name="ucircumflex" unicode="&#xfb;" horiz-adv-x="1162" 
d="M518 -20q-76 0 -146.5 22.5t-126.5 66t-89 107.5t-33 149v709h244v-681q0 -84 53.5 -138t161.5 -54q98 0 157 51.5t59 148.5v673h242v-1034h-187l-27 202q-19 -85 -66.5 -133.5t-111 -68.5t-130.5 -20zM718 1155l-135 135l-149 -135h-192l258 244h170l252 -244h-204z" />
    <glyph glyph-name="uni0215" unicode="&#x215;" horiz-adv-x="1162" 
d="M518 -20q-76 0 -146.5 22.5t-126.5 66t-89 107.5t-33 149v709h244v-681q0 -84 53.5 -138t161.5 -54q98 0 157 51.5t59 148.5v673h242v-1034h-187l-27 202q-19 -85 -66.5 -133.5t-111 -68.5t-130.5 -20zM632 1446l199 -291h-179l-253 291h233zM270 1446l242 -291h-180
l-302 291h240z" />
    <glyph glyph-name="udieresis" unicode="&#xfc;" horiz-adv-x="1162" 
d="M518 -20q-76 0 -146.5 22.5t-126.5 66t-89 107.5t-33 149v709h244v-681q0 -84 53.5 -138t161.5 -54q98 0 157 51.5t59 148.5v673h242v-1034h-187l-27 202q-19 -85 -66.5 -133.5t-111 -68.5t-130.5 -20zM683 1199l2 210h232l-3 -210h-231zM252 1199l2 210h232l-3 -210
h-231z" />
    <glyph glyph-name="uni1EE5" unicode="&#x1ee5;" horiz-adv-x="1162" 
d="M518 -20q-76 0 -146.5 22.5t-126.5 66t-89 107.5t-33 149v709h244v-681q0 -84 53.5 -138t161.5 -54q98 0 157 51.5t59 148.5v673h242v-1034h-187l-27 202q-19 -85 -66.5 -133.5t-111 -68.5t-130.5 -20zM469 -380v210h237v-210h-237z" />
    <glyph glyph-name="ugrave" unicode="&#xf9;" horiz-adv-x="1162" 
d="M518 -20q-76 0 -146.5 22.5t-126.5 66t-89 107.5t-33 149v709h244v-681q0 -84 53.5 -138t161.5 -54q98 0 157 51.5t59 148.5v673h242v-1034h-187l-27 202q-19 -85 -66.5 -133.5t-111 -68.5t-130.5 -20zM464 1446h-260l286 -291h180z" />
    <glyph glyph-name="uni1EE7" unicode="&#x1ee7;" horiz-adv-x="1162" 
d="M518 -20q-76 0 -146.5 22.5t-126.5 66t-89 107.5t-33 149v709h244v-681q0 -84 53.5 -138t161.5 -54q98 0 157 51.5t59 148.5v673h242v-1034h-187l-27 202q-19 -85 -66.5 -133.5t-111 -68.5t-130.5 -20zM445 1483l62 -96q38 25 78.5 24.5t59.5 -32.5q21 -33 5.5 -68
t-56.5 -61l62 -97q96 57 120 135t-29 159q-43 67 -128.5 80t-173.5 -44z" />
    <glyph glyph-name="uhorn" unicode="&#x1b0;" horiz-adv-x="1368" 
d="M518 -20q-76 0 -146.5 22.5t-126.5 66t-89 107.5t-33 149v709h244v-681q0 -84 53.5 -138t161.5 -54q98 0 157 51.5t59 148.5v673h242v-1034h-187l-27 202q-19 -85 -66.5 -133.5t-111 -68.5t-130.5 -20zM1360 1113q-1 -131 -34.5 -209t-111.5 -108t-213 -15v126
q48 -1 81.5 4.5t55 25t34 61.5t16.5 115h172z" />
    <glyph glyph-name="uni1EE9" unicode="&#x1ee9;" horiz-adv-x="1368" 
d="M710 1446h260l-286 -291h-180zM518 -20q-76 0 -146.5 22.5t-126.5 66t-89 107.5t-33 149v709h244v-681q0 -84 53.5 -138t161.5 -54q98 0 157 51.5t59 148.5v673h242v-1034h-187l-27 202q-19 -85 -66.5 -133.5t-111 -68.5t-130.5 -20zM1360 1113q-1 -131 -34.5 -209
t-111.5 -108t-213 -15v126q48 -1 81.5 4.5t55 25t34 61.5t16.5 115h172z" />
    <glyph glyph-name="uni1EF1" unicode="&#x1ef1;" horiz-adv-x="1368" 
d="M462 -380v210h237v-210h-237zM518 -20q-76 0 -146.5 22.5t-126.5 66t-89 107.5t-33 149v709h244v-681q0 -84 53.5 -138t161.5 -54q98 0 157 51.5t59 148.5v673h242v-1034h-187l-27 202q-19 -85 -66.5 -133.5t-111 -68.5t-130.5 -20zM1360 1113q-1 -131 -34.5 -209
t-111.5 -108t-213 -15v126q48 -1 81.5 4.5t55 25t34 61.5t16.5 115h172z" />
    <glyph glyph-name="uni1EEB" unicode="&#x1eeb;" horiz-adv-x="1368" 
d="M474 1446h-260l286 -291h180zM518 -20q-76 0 -146.5 22.5t-126.5 66t-89 107.5t-33 149v709h244v-681q0 -84 53.5 -138t161.5 -54q98 0 157 51.5t59 148.5v673h242v-1034h-187l-27 202q-19 -85 -66.5 -133.5t-111 -68.5t-130.5 -20zM1360 1113q-1 -131 -34.5 -209
t-111.5 -108t-213 -15v126q48 -1 81.5 4.5t55 25t34 61.5t16.5 115h172z" />
    <glyph glyph-name="uni1EED" unicode="&#x1eed;" horiz-adv-x="1368" 
d="M453 1483l62 -96q38 25 78.5 24.5t59.5 -32.5q21 -33 5.5 -68t-56.5 -61l62 -97q96 57 120 135t-29 159q-43 67 -128.5 80t-173.5 -44zM518 -20q-76 0 -146.5 22.5t-126.5 66t-89 107.5t-33 149v709h244v-681q0 -84 53.5 -138t161.5 -54q98 0 157 51.5t59 148.5v673h242
v-1034h-187l-27 202q-19 -85 -66.5 -133.5t-111 -68.5t-130.5 -20zM1360 1113q-1 -131 -34.5 -209t-111.5 -108t-213 -15v126q48 -1 81.5 4.5t55 25t34 61.5t16.5 115h172z" />
    <glyph glyph-name="uni1EEF" unicode="&#x1eef;" horiz-adv-x="1368" 
d="M921 1275q-29 -22 -76 -43t-112 -21q-55 0 -98.5 13.5t-84.5 27t-89 13.5q-50 0 -82 -16.5t-68 -44.5l-40 133q35 34 76.5 59t104.5 25q53 0 100 -14.5t91.5 -29.5t89.5 -15q49 0 86 20t68 43zM518 -20q-76 0 -146.5 22.5t-126.5 66t-89 107.5t-33 149v709h244v-681
q0 -84 53.5 -138t161.5 -54q98 0 157 51.5t59 148.5v673h242v-1034h-187l-27 202q-19 -85 -66.5 -133.5t-111 -68.5t-130.5 -20zM1360 1113q-1 -131 -34.5 -209t-111.5 -108t-213 -15v126q48 -1 81.5 4.5t55 25t34 61.5t16.5 115h172z" />
    <glyph glyph-name="uhungarumlaut" unicode="&#x171;" horiz-adv-x="1162" 
d="M518 -20q-76 0 -146.5 22.5t-126.5 66t-89 107.5t-33 149v709h244v-681q0 -84 53.5 -138t161.5 -54q98 0 157 51.5t59 148.5v673h242v-1034h-187l-27 202q-19 -85 -66.5 -133.5t-111 -68.5t-130.5 -20zM537 1446l-199 -291h179l253 291h-233zM899 1446l-242 -291h180
l302 291h-240z" />
    <glyph glyph-name="uni0217" unicode="&#x217;" horiz-adv-x="1162" 
d="M518 -20q-76 0 -146.5 22.5t-126.5 66t-89 107.5t-33 149v709h244v-681q0 -84 53.5 -138t161.5 -54q98 0 157 51.5t59 148.5v673h242v-1034h-187l-27 202q-19 -85 -66.5 -133.5t-111 -68.5t-130.5 -20zM910 1193q-16 76 -63.5 129t-116 80.5t-150.5 27.5
q-79 0 -147.5 -26.5t-116 -79.5t-64.5 -131h162q15 49 58.5 80t107.5 31q63 0 108 -31t62 -80h160z" />
    <glyph glyph-name="umacron" unicode="&#x16b;" horiz-adv-x="1162" 
d="M518 -20q-76 0 -146.5 22.5t-126.5 66t-89 107.5t-33 149v709h244v-681q0 -84 53.5 -138t161.5 -54q98 0 157 51.5t59 148.5v673h242v-1034h-187l-27 202q-19 -85 -66.5 -133.5t-111 -68.5t-130.5 -20zM911 1380v-161h-654v161h654z" />
    <glyph glyph-name="uogonek" unicode="&#x173;" horiz-adv-x="1162" 
d="M518 -20q-76 0 -146.5 22.5t-126.5 66t-89 107.5t-33 149v709h244v-681q0 -84 53.5 -138t161.5 -54q98 0 157 51.5t59 148.5v673h242v-1034h-187l-27 202q-19 -85 -66.5 -133.5t-111 -68.5t-130.5 -20zM661 -174q0 57 39.5 104.5t158.5 85.5l172 -9q-103 -40 -145.5 -75
t-42.5 -79q0 -34 19.5 -51t62.5 -17q46 0 82.5 13t61.5 27v-116q-26 -15 -81 -29.5t-118 -14.5q-100 0 -154.5 42t-54.5 119z" />
    <glyph glyph-name="uring" unicode="&#x16f;" horiz-adv-x="1162" 
d="M518 -20q-76 0 -146.5 22.5t-126.5 66t-89 107.5t-33 149v709h244v-681q0 -84 53.5 -138t161.5 -54q98 0 157 51.5t59 148.5v673h242v-1034h-187l-27 202q-19 -85 -66.5 -133.5t-111 -68.5t-130.5 -20zM798 1356q0 -90 -62 -151t-151 -61t-150.5 62.5t-61.5 153.5
q0 85 62.5 145t149.5 60q59 0 107.5 -28t77 -75.5t28.5 -105.5zM685 1355q0 44 -29.5 73t-72.5 29q-42 0 -73.5 -29t-31.5 -73q0 -42 31.5 -74t73.5 -32q43 0 72.5 32t29.5 74z" />
    <glyph glyph-name="utilde" unicode="&#x169;" horiz-adv-x="1162" 
d="M518 -20q-76 0 -146.5 22.5t-126.5 66t-89 107.5t-33 149v709h244v-681q0 -84 53.5 -138t161.5 -54q98 0 157 51.5t59 148.5v673h242v-1034h-187l-27 202q-19 -85 -66.5 -133.5t-111 -68.5t-130.5 -20zM913 1275q-29 -22 -76 -43t-112 -21q-55 0 -98.5 13.5t-84.5 27
t-89 13.5q-50 0 -82 -16.5t-68 -44.5l-40 133q35 34 76.5 59t104.5 25q53 0 100 -14.5t91.5 -29.5t89.5 -15q49 0 86 20t68 43z" />
    <glyph glyph-name="v" unicode="v" horiz-adv-x="1025" 
d="M990 1034l-381 -1034h-192l-382 1034h223l248 -724h13l247 724h224z" />
    <glyph glyph-name="w" unicode="w" horiz-adv-x="1578" 
d="M1534 1034l-328 -1034h-210l-212 689l-207 -689h-205l-328 1034h219l216 -711h11l209 711h178l215 -710h11l208 710h223z" />
    <glyph glyph-name="wacute" unicode="&#x1e83;" horiz-adv-x="1578" 
d="M1534 1034l-328 -1034h-210l-212 689l-207 -689h-205l-328 1034h219l216 -711h11l209 711h178l215 -710h11l208 710h223zM911 1446h260l-286 -291h-180z" />
    <glyph glyph-name="wcircumflex" unicode="&#x175;" horiz-adv-x="1578" 
d="M1534 1034l-328 -1034h-210l-212 689l-207 -689h-205l-328 1034h219l216 -711h11l209 711h178l215 -710h11l208 710h223zM931 1155l-135 135l-149 -135h-192l258 244h170l252 -244h-204z" />
    <glyph glyph-name="wdieresis" unicode="&#x1e85;" horiz-adv-x="1578" 
d="M1534 1034l-328 -1034h-210l-212 689l-207 -689h-205l-328 1034h219l216 -711h11l209 711h178l215 -710h11l208 710h223zM896 1199l2 210h232l-3 -210h-231zM465 1199l2 210h232l-3 -210h-231z" />
    <glyph glyph-name="wgrave" unicode="&#x1e81;" horiz-adv-x="1578" 
d="M1534 1034l-328 -1034h-210l-212 689l-207 -689h-205l-328 1034h219l216 -711h11l209 711h178l215 -710h11l208 710h223zM677 1446h-260l286 -291h180z" />
    <glyph glyph-name="x" unicode="x" horiz-adv-x="1152" 
d="M1106 0h-258l-272 368l-271 -368h-258l397 538l-364 496h258l239 -323l239 323h259l-367 -496z" />
    <glyph glyph-name="y" unicode="y" horiz-adv-x="1099" 
d="M272 -330q-99 0 -138.5 15.5l-39.5 15.5v156l104 -3q63 -3 102.5 7t61.5 27.5t32.5 37t16.5 33.5l27 76l-403 999h243l274 -731l274 731h238l-426 -1072q-48 -117 -103.5 -180.5t-121 -87.5t-141.5 -24z" />
    <glyph glyph-name="yacute" unicode="&#xfd;" horiz-adv-x="1099" 
d="M272 -330q-99 0 -138.5 15.5l-39.5 15.5v156l104 -3q63 -3 102.5 7t61.5 27.5t32.5 37t16.5 33.5l27 76l-403 999h243l274 -731l274 731h238l-426 -1072q-48 -117 -103.5 -180.5t-121 -87.5t-141.5 -24zM666 1446h260l-286 -291h-180z" />
    <glyph glyph-name="ycircumflex" unicode="&#x177;" horiz-adv-x="1099" 
d="M272 -330q-99 0 -138.5 15.5l-39.5 15.5v156l104 -3q63 -3 102.5 7t61.5 27.5t32.5 37t16.5 33.5l27 76l-403 999h243l274 -731l274 731h238l-426 -1072q-48 -117 -103.5 -180.5t-121 -87.5t-141.5 -24zM692 1155l-135 135l-149 -135h-192l258 244h170l252 -244h-204z
" />
    <glyph glyph-name="ydieresis" unicode="&#xff;" horiz-adv-x="1099" 
d="M272 -330q-99 0 -138.5 15.5l-39.5 15.5v156l104 -3q63 -3 102.5 7t61.5 27.5t32.5 37t16.5 33.5l27 76l-403 999h243l274 -731l274 731h238l-426 -1072q-48 -117 -103.5 -180.5t-121 -87.5t-141.5 -24zM651 1199l2 210h232l-3 -210h-231zM220 1199l2 210h232l-3 -210
h-231z" />
    <glyph glyph-name="uni1EF5" unicode="&#x1ef5;" horiz-adv-x="1099" 
d="M272 -330q-99 0 -138.5 15.5l-39.5 15.5v156l104 -3q63 -3 102.5 7t61.5 27.5t32.5 37t16.5 33.5l27 76l-403 999h243l274 -731l274 731h238l-426 -1072q-48 -117 -103.5 -180.5t-121 -87.5t-141.5 -24zM714 -353v210h237v-210h-237z" />
    <glyph glyph-name="ygrave" unicode="&#x1ef3;" horiz-adv-x="1099" 
d="M272 -330q-99 0 -138.5 15.5l-39.5 15.5v156l104 -3q63 -3 102.5 7t61.5 27.5t32.5 37t16.5 33.5l27 76l-403 999h243l274 -731l274 731h238l-426 -1072q-48 -117 -103.5 -180.5t-121 -87.5t-141.5 -24zM431 1446h-260l286 -291h180z" />
    <glyph glyph-name="uni1EF7" unicode="&#x1ef7;" horiz-adv-x="1099" 
d="M272 -330q-99 0 -138.5 15.5l-39.5 15.5v156l104 -3q63 -3 102.5 7t61.5 27.5t32.5 37t16.5 33.5l27 76l-403 999h243l274 -731l274 731h238l-426 -1072q-48 -117 -103.5 -180.5t-121 -87.5t-141.5 -24zM413 1483l62 -96q38 25 78.5 24.5t59.5 -32.5q21 -33 5.5 -68
t-56.5 -61l62 -97q96 57 120 135t-29 159q-43 67 -128.5 80t-173.5 -44z" />
    <glyph glyph-name="uni1EF9" unicode="&#x1ef9;" horiz-adv-x="1099" 
d="M272 -330q-99 0 -138.5 15.5l-39.5 15.5v156l104 -3q63 -3 102.5 7t61.5 27.5t32.5 37t16.5 33.5l27 76l-403 999h243l274 -731l274 731h238l-426 -1072q-48 -117 -103.5 -180.5t-121 -87.5t-141.5 -24zM881 1275q-29 -22 -76 -43t-112 -21q-55 0 -98.5 13.5t-84.5 27
t-89 13.5q-50 0 -82 -16.5t-68 -44.5l-40 133q35 34 76.5 59t104.5 25q53 0 100 -14.5t91.5 -29.5t89.5 -15q49 0 86 20t68 43z" />
    <glyph glyph-name="z" unicode="z" horiz-adv-x="971" 
d="M69 0v141l544 720h-519v173h811v-141l-543 -720h548v-173h-841z" />
    <glyph glyph-name="zacute" unicode="&#x17a;" horiz-adv-x="971" 
d="M69 0v141l544 720h-519v173h811v-141l-543 -720h548v-173h-841zM610 1446h260l-286 -291h-180z" />
    <glyph glyph-name="zcaron" unicode="&#x17e;" horiz-adv-x="971" 
d="M69 0v141l544 720h-519v173h811v-141l-543 -720h548v-173h-841zM410 1155l-258 245h193l149 -144l135 144h204l-252 -245h-171z" />
    <glyph glyph-name="zdotaccent" unicode="&#x17c;" horiz-adv-x="971" 
d="M69 0v141l544 720h-519v173h811v-141l-543 -720h548v-173h-841zM376 1199v210h237v-210h-237z" />
    <glyph glyph-name="uni1E93" unicode="&#x1e93;" horiz-adv-x="971" 
d="M69 0v141l544 720h-519v173h811v-141l-543 -720h548v-173h-841zM377 -380v210h237v-210h-237z" />
    <glyph glyph-name="g.ss01" horiz-adv-x="1167" 
d="M1007 28q1 -122 -53.5 -203.5t-151 -122t-221.5 -40.5q-70 0 -135.5 18t-119 53.5t-91 88t-52.5 120.5h84q32 -109 122 -158.5t192 -51.5q130 -2 208 41t113.5 110.5t36.5 140.5l2 168q-46 -94 -136.5 -137t-207.5 -43q-109 0 -196 37t-148 103t-94.5 155.5t-37.5 194.5
q-4 113 25.5 212t89.5 175.5t148 119.5t201 43q96 0 167 -34.5t115 -80t60 -77.5l3 172h67zM935 364l-5 344q-1 61 -48 123.5t-125 104.5t-172 42q-122 0 -207.5 -60.5t-130 -167.5t-44.5 -248q0 -123 49.5 -216.5t138.5 -146.5t208 -53q138 0 211 42t99.5 106t25.5 130z
" />
    <glyph glyph-name="l.ss01" horiz-adv-x="589" 
d="M173 0v1486h244v-1486h-244z" />
    <glyph glyph-name="ordfeminine" unicode="&#xaa;" horiz-adv-x="834" 
d="M301 793q-103 0 -159 50t-56 132q0 97 87.5 155.5t245.5 65.5l92 7v44q0 61 -36 84.5t-86 23.5q-46 0 -82.5 -18t-64.5 -71l-140 33q37 80 104.5 122t189.5 42q145 0 207.5 -56.5t62.5 -154.5v-137v-106q0 -14 1 -39t2.5 -52.5t4.5 -47.5l13 -65h-161l-16 77
q-53 -45 -100 -67t-109 -22zM360 899q66 0 113 42q17 16 27.5 31.5t10.5 36.5v101l-77 -5q-90 -5 -139 -36.5t-49 -83.5q0 -39 31 -62.5t83 -23.5z" />
    <glyph glyph-name="ordmasculine" unicode="&#xba;" horiz-adv-x="798" 
d="M398 1465q99 0 171 -43t111.5 -119.5t39.5 -175.5q0 -97 -39 -172t-111.5 -117.5t-171.5 -42.5q-98 0 -170 42.5t-111 117.5t-39 172q0 101 41 177t113 118.5t166 42.5zM398 1352q-76 0 -114 -57t-38 -163q0 -108 38 -166t114 -58q78 0 116.5 58t38.5 166
q0 106 -38.5 163t-116.5 57z" />
    <glyph glyph-name="pi" unicode="&#x3c0;" horiz-adv-x="1335" 
d="M1275 862h-206v-862h-234l-1 862h-365q0 -109 -9.5 -230t-25.5 -239t-37.5 -219.5t-45.5 -173.5h-225q22 84 41.5 186t35.5 214.5t25 225.5t9 216q0 20 -17 20h-171v172h1226v-172z" />
    <glyph glyph-name="zero" unicode="0" horiz-adv-x="1259" 
d="M631 1466q248 0 392.5 -190.5t144.5 -555.5q0 -363 -143.5 -552.5t-394.5 -189.5t-394.5 189t-143.5 551q0 244 66 410.5t187 252t286 85.5zM631 181q141 0 210 125t69 413q0 294 -70 422t-210 128t-211.5 -129t-71.5 -421q0 -287 71.5 -412.5t212.5 -125.5z" />
    <glyph glyph-name="one" unicode="1" horiz-adv-x="837" 
d="M357 0v1114h-268v145q127 0 201.5 21.5t109 63.5t39.5 102h166v-1446h-248z" />
    <glyph glyph-name="two" unicode="2" horiz-adv-x="1235" 
d="M118 0v130v67q0 111 41 191.5t109 140.5t149.5 106.5t162 88t148.5 86t109.5 99.5t41.5 131q0 97 -68.5 158.5t-185.5 61.5q-124 0 -204.5 -71t-95.5 -200h-236q2 132 63 240t181 172.5t299 64.5q155 0 267.5 -53.5t174 -149t61.5 -222.5q0 -111 -40.5 -190t-107 -136.5
t-146 -101.5t-159 -82.5t-146 -80t-107 -94.5t-40.5 -127v-21h749v-208h-1020z" />
    <glyph glyph-name="three" unicode="3" horiz-adv-x="1298" 
d="M105 1012q0 148 71 249.5t190.5 153t265.5 51.5q157 0 278.5 -42.5t191 -127.5t69.5 -211q0 -107 -65 -191t-205 -132q87 -24 156 -71.5t109.5 -118.5t40.5 -167q0 -103 -44.5 -183t-124 -134.5t-185.5 -82t-228 -27.5q-163 1 -281 56t-183.5 157t-68.5 242h237
q21 -129 102.5 -191.5t198.5 -62.5q97 0 168 29.5t109.5 81.5t38.5 121q0 73 -41.5 125t-113.5 80t-162 30l-134 4v198l124 5q86 3 151.5 33t102.5 79t37 110q0 56 -34.5 101t-97.5 70.5t-149 25.5q-73 0 -137 -26t-105.5 -83.5t-45.5 -150.5h-236z" />
    <glyph glyph-name="four" unicode="4" horiz-adv-x="1287" 
d="M755 1446h242v-896h231v-207h-231v-343h-236l1 343h-673v207zM317 550h443v594z" />
    <glyph glyph-name="five" unicode="5" horiz-adv-x="1318" 
d="M237 1446h899l-9 -203h-692l-33 -402q77 54 155 78t172 24q138 0 251 -54t180 -159t67 -257t-67.5 -263t-190 -171.5t-289.5 -60.5q-138 0 -256.5 45.5t-204 125.5t-127.5 183l197 104q37 -74 88.5 -133t121 -92.5t159.5 -33.5q141 0 226.5 78.5t85.5 209.5
q0 81 -39.5 144t-107 98.5t-153.5 35.5q-51 0 -95.5 -9t-89.5 -33.5t-97 -73.5q-10 -5 -14.5 -4.5t-15.5 5.5l-187 76z" />
    <glyph glyph-name="six" unicode="6" horiz-adv-x="1286" 
d="M680 1466q128 0 237 -47.5t179 -136.5t82 -215h-225q-28 97 -96 150t-172 53q-115 0 -192 -65t-110.5 -186.5t-21.5 -290.5q31 59 84 102.5t121 67.5t144 24q145 0 254 -55t170 -156t61 -239q0 -143 -66 -254.5t-185 -175.5t-278 -64q-177 0 -306 88t-198.5 249.5
t-69.5 382.5q0 235 69 407.5t200.5 266.5t318.5 94zM659 735q-69 0 -133.5 -32t-105 -83t-40.5 -109q-1 -103 34 -180t98.5 -119.5t147.5 -42.5q78 0 140.5 37t99 103t36.5 152q0 88 -34 149t-96.5 93t-146.5 32z" />
    <glyph glyph-name="seven" unicode="7" horiz-adv-x="1229" 
d="M89 1446h1051v-203q-73 -95 -145 -219.5t-138 -263t-118 -277t-85 -263.5t-40 -220h-263q12 93 48.5 232.5t100.5 308t159 348.5t222 354h-792v203z" />
    <glyph glyph-name="eight" unicode="8" horiz-adv-x="1321" 
d="M660 1466q144 0 258 -46.5t180.5 -136t66.5 -218.5q0 -115 -62 -193.5t-157 -120.5q69 -14 134 -66.5t107 -128.5t42 -159q0 -127 -70.5 -221t-199 -145.5t-299.5 -51.5t-298.5 51.5t-198.5 145.5t-71 221q0 83 41.5 159t106.5 128.5t134 66.5q-93 42 -156 120.5
t-63 193.5q0 129 66 218.5t180.5 136t258.5 46.5zM660 848q114 0 186.5 58.5t72.5 163.5q0 104 -73 165t-186 61t-186.5 -61t-73.5 -165q0 -105 73.5 -163.5t186.5 -58.5zM660 167q143 0 226 64t83 171q0 71 -38 125.5t-107 85.5t-164 31q-94 0 -163.5 -31t-107 -85.5
t-37.5 -125.5q0 -107 83.5 -171t224.5 -64z" />
    <glyph glyph-name="nine" unicode="9" horiz-adv-x="1286" 
d="M601 -22q-127 0 -238 49t-183 139t-84 212h233q21 -91 91 -147.5t172 -56.5q115 0 199.5 57t126.5 179t31 317q-27 -64 -78.5 -112t-122 -74.5t-156.5 -26.5q-145 0 -256.5 55.5t-174.5 159t-63 245.5q0 144 64.5 255t182 174t276.5 63q177 0 306 -87t198.5 -248
t69.5 -382q0 -252 -70.5 -423.5t-203 -259.5t-320.5 -88zM628 712q70 0 134 32t105 83t41 108q1 104 -34 180.5t-98.5 119t-148.5 42.5q-77 0 -137.5 -37t-94.5 -102.5t-34 -151.5q0 -128 71 -201t196 -73z" />
    <glyph glyph-name="zero.osf" horiz-adv-x="1259" 
d="M631 1466q248 0 392.5 -190.5t144.5 -555.5q0 -363 -143.5 -552.5t-394.5 -189.5t-394.5 189t-143.5 551q0 244 66 410.5t187 252t286 85.5zM631 181q141 0 210 125t69 413q0 294 -70 422t-210 128t-211.5 -129t-71.5 -421q0 -287 71.5 -412.5t212.5 -125.5z" />
    <glyph glyph-name="one.osf" horiz-adv-x="837" 
d="M357 0v1114h-268v145q127 0 201.5 21.5t109 63.5t39.5 102h166v-1446h-248z" />
    <glyph glyph-name="two.osf" horiz-adv-x="1235" 
d="M118 0v130v67q0 111 41 191.5t109 140.5t149.5 106.5t162 88t148.5 86t109.5 99.5t41.5 131q0 97 -68.5 158.5t-185.5 61.5q-124 0 -204.5 -71t-95.5 -200h-236q2 132 63 240t181 172.5t299 64.5q155 0 267.5 -53.5t174 -149t61.5 -222.5q0 -111 -40.5 -190t-107 -136.5
t-146 -101.5t-159 -82.5t-146 -80t-107 -94.5t-40.5 -127v-21h749v-208h-1020z" />
    <glyph glyph-name="three.osf" horiz-adv-x="1298" 
d="M105 1017q0 148 71 249.5t190.5 153t265.5 51.5q157 0 278.5 -42.5t191 -127.5t69.5 -211q0 -107 -65 -191t-205 -132q87 -24 156 -71.5t109.5 -118.5t40.5 -167q0 -103 -44.5 -183t-124 -134.5t-185.5 -82t-228 -27.5q-163 1 -281 56t-183.5 157t-68.5 242h237
q21 -129 102.5 -191.5t198.5 -62.5q97 0 168 29.5t109.5 81.5t38.5 121q0 73 -41.5 125t-113.5 80t-162 30l-134 4v198l124 5q86 3 151.5 33t102.5 79t37 110q0 56 -34.5 101t-97.5 70.5t-149 25.5q-73 0 -137 -26t-105.5 -83.5t-45.5 -150.5h-236z" />
    <glyph glyph-name="four.osf" horiz-adv-x="1287" 
d="M755 1446h242v-896h231v-207h-231v-343h-236l1 343h-673v207zM317 550h443v594z" />
    <glyph glyph-name="five.osf" horiz-adv-x="1318" 
d="M237 1446h899l-9 -203h-692l-33 -402q77 54 155 78t172 24q138 0 251 -54t180 -159t67 -257t-67.5 -263t-190 -171.5t-289.5 -60.5q-138 0 -256.5 45.5t-204 125.5t-127.5 183l197 104q37 -74 88.5 -133t121 -92.5t159.5 -33.5q141 0 226.5 78.5t85.5 209.5
q0 81 -39.5 144t-107 98.5t-153.5 35.5q-51 0 -95.5 -9t-89.5 -33.5t-97 -73.5q-10 -5 -14.5 -4.5t-15.5 5.5l-187 76z" />
    <glyph glyph-name="six.osf" horiz-adv-x="1286" 
d="M680 1466q128 0 237 -47.5t179 -136.5t82 -215h-225q-28 97 -96 150t-172 53q-115 0 -192 -65t-110.5 -186.5t-21.5 -290.5q31 59 84 102.5t121 67.5t144 24q145 0 254 -55t170 -156t61 -239q0 -143 -66 -254.5t-185 -175.5t-278 -64q-177 0 -306 88t-198.5 249.5
t-69.5 382.5q0 235 69 407.5t200.5 266.5t318.5 94zM659 735q-69 0 -133.5 -32t-105 -83t-40.5 -109q-1 -103 34 -180t98.5 -119.5t147.5 -42.5q78 0 140.5 37t99 103t36.5 152q0 88 -34 149t-96.5 93t-146.5 32z" />
    <glyph glyph-name="seven.osf" horiz-adv-x="1229" 
d="M89 1446h1051v-203q-73 -95 -145 -219.5t-138 -263t-118 -277t-85 -263.5t-40 -220h-263q12 93 48.5 232.5t100.5 308t159 348.5t222 354h-792v203z" />
    <glyph glyph-name="eight.osf" horiz-adv-x="1321" 
d="M660 1466q144 0 258 -46.5t180.5 -136t66.5 -218.5q0 -115 -62 -193.5t-157 -120.5q69 -14 134 -66.5t107 -128.5t42 -159q0 -127 -70.5 -221t-199 -145.5t-299.5 -51.5t-298.5 51.5t-198.5 145.5t-71 221q0 83 41.5 159t106.5 128.5t134 66.5q-93 42 -156 120.5
t-63 193.5q0 129 66 218.5t180.5 136t258.5 46.5zM660 848q114 0 186.5 58.5t72.5 163.5q0 104 -73 165t-186 61t-186.5 -61t-73.5 -165q0 -105 73.5 -163.5t186.5 -58.5zM660 167q143 0 226 64t83 171q0 71 -38 125.5t-107 85.5t-164 31q-94 0 -163.5 -31t-107 -85.5
t-37.5 -125.5q0 -107 83.5 -171t224.5 -64z" />
    <glyph glyph-name="nine.osf" horiz-adv-x="1286" 
d="M601 -22q-127 0 -238 49t-183 139t-84 212h233q21 -91 91 -147.5t172 -56.5q115 0 199.5 57t126.5 179t31 317q-27 -64 -78.5 -112t-122 -74.5t-156.5 -26.5q-145 0 -256.5 55.5t-174.5 159t-63 245.5q0 144 64.5 255t182 174t276.5 63q177 0 306 -87t198.5 -248
t69.5 -382q0 -252 -70.5 -423.5t-203 -259.5t-320.5 -88zM628 712q70 0 134 32t105 83t41 108q1 104 -34 180.5t-98.5 119t-148.5 42.5q-77 0 -137.5 -37t-94.5 -102.5t-34 -151.5q0 -128 71 -201t196 -73z" />
    <glyph glyph-name="zero.tf" horiz-adv-x="1400" 
d="M701 1466q248 0 392.5 -190.5t144.5 -555.5q0 -363 -143.5 -552.5t-394.5 -189.5t-394.5 189t-143.5 551q0 244 66 410.5t187 252t286 85.5zM701 181q141 0 210 125t69 413q0 294 -70 422t-210 128t-211.5 -129t-71.5 -421q0 -287 71.5 -412.5t212.5 -125.5z" />
    <glyph glyph-name="one.tf" horiz-adv-x="1400" 
d="M193 208h1050v-208h-1050v208zM613 1v1184l-398 -133v216l525 179h112v-1446h-239z" />
    <glyph glyph-name="two.tf" horiz-adv-x="1400" 
d="M216 0v130v67q0 111 41 191.5t109 140.5t149.5 106.5t162 88t148.5 86t109.5 99.5t41.5 131q0 97 -68.5 158.5t-185.5 61.5q-124 0 -204.5 -71t-95.5 -200h-236q2 132 63 240t181 172.5t299 64.5q155 0 267.5 -53.5t174 -149t61.5 -222.5q0 -111 -40.5 -190t-107 -136.5
t-146 -101.5t-159 -82.5t-146 -80t-107 -94.5t-40.5 -127v-21h749v-208h-1020z" />
    <glyph glyph-name="three.tf" horiz-adv-x="1400" 
d="M165 1012q0 148 71 249.5t190.5 153t265.5 51.5q157 0 278.5 -42.5t191 -127.5t69.5 -211q0 -107 -65 -191t-205 -132q87 -24 156 -71.5t109.5 -118.5t40.5 -167q0 -103 -44.5 -183t-124 -134.5t-185.5 -82t-228 -27.5q-163 1 -281 56t-183.5 157t-68.5 242h237
q21 -129 102.5 -191.5t198.5 -62.5q97 0 168 29.5t109.5 81.5t38.5 121q0 73 -41.5 125t-113.5 80t-162 30l-134 4v198l124 5q86 3 151.5 33t102.5 79t37 110q0 56 -34.5 101t-97.5 70.5t-149 25.5q-73 0 -137 -26t-105.5 -83.5t-45.5 -150.5h-236z" />
    <glyph glyph-name="four.tf" horiz-adv-x="1400" 
d="M795 1446h242v-896h231v-207h-231v-343h-236l1 343h-673v207zM357 550h443v594z" />
    <glyph glyph-name="five.tf" horiz-adv-x="1400" 
d="M309 1446h899l-9 -203h-692l-33 -402q77 54 155 78t172 24q138 0 251 -54t180 -159t67 -257t-67.5 -263t-190 -171.5t-289.5 -60.5q-138 0 -256.5 45.5t-204 125.5t-127.5 183l197 104q37 -74 88.5 -133t121 -92.5t159.5 -33.5q141 0 226.5 78.5t85.5 209.5
q0 81 -39.5 144t-107 98.5t-153.5 35.5q-51 0 -95.5 -9t-89.5 -33.5t-97 -73.5q-10 -5 -14.5 -4.5t-15.5 5.5l-187 76z" />
    <glyph glyph-name="six.tf" horiz-adv-x="1400" 
d="M738 1466q128 0 237 -47.5t179 -136.5t82 -215h-225q-28 97 -96 150t-172 53q-115 0 -192 -65t-110.5 -186.5t-21.5 -290.5q31 59 84 102.5t121 67.5t144 24q145 0 254 -55t170 -156t61 -239q0 -143 -66 -254.5t-185 -175.5t-278 -64q-177 0 -306 88t-198.5 249.5
t-69.5 382.5q0 235 69 407.5t200.5 266.5t318.5 94zM717 735q-69 0 -133.5 -32t-105 -83t-40.5 -109q-1 -103 34 -180t98.5 -119.5t147.5 -42.5q78 0 140.5 37t99 103t36.5 152q0 88 -34 149t-96.5 93t-146.5 32z" />
    <glyph glyph-name="seven.tf" horiz-adv-x="1400" 
d="M134 1446h1138v-203q-72 -95 -152.5 -219.5t-158 -263t-142 -277t-105.5 -263.5t-48 -220h-268q12 93 61 232.5t130 308t188 348.5t234 354h-877v203z" />
    <glyph glyph-name="eight.tf" horiz-adv-x="1400" 
d="M700 1466q144 0 258 -46.5t180.5 -136t66.5 -218.5q0 -115 -62 -193.5t-157 -120.5q69 -14 134 -66.5t107 -128.5t42 -159q0 -127 -70.5 -221t-199 -145.5t-299.5 -51.5t-298.5 51.5t-198.5 145.5t-71 221q0 83 41.5 159t106.5 128.5t134 66.5q-93 42 -156 120.5
t-63 193.5q0 129 66 218.5t180.5 136t258.5 46.5zM700 848q114 0 186.5 58.5t72.5 163.5q0 104 -73 165t-186 61t-186.5 -61t-73.5 -165q0 -105 73.5 -163.5t186.5 -58.5zM700 167q143 0 226 64t83 171q0 71 -38 125.5t-107 85.5t-164 31q-94 0 -163.5 -31t-107 -85.5
t-37.5 -125.5q0 -107 83.5 -171t224.5 -64z" />
    <glyph glyph-name="nine.tf" horiz-adv-x="1400" 
d="M664 -22q-127 0 -238 49t-183 139t-84 212h233q21 -91 91 -147.5t172 -56.5q115 0 199.5 57t126.5 179t31 317q-27 -64 -78.5 -112t-122 -74.5t-156.5 -26.5q-145 0 -256.5 55.5t-174.5 159t-63 245.5q0 144 64.5 255t182 174t276.5 63q177 0 306 -87t198.5 -248
t69.5 -382q0 -252 -70.5 -423.5t-203 -259.5t-320.5 -88zM691 712q70 0 134 32t105 83t41 108q1 104 -34 180.5t-98.5 119t-148.5 42.5q-77 0 -137.5 -37t-94.5 -102.5t-34 -151.5q0 -128 71 -201t196 -73z" />
    <glyph glyph-name="zero.subs" horiz-adv-x="784" 
d="M393 591q160 0 248.5 -124t88.5 -346t-87.5 -343t-250.5 -121q-162 0 -250.5 120.5t-88.5 341.5q0 224 89.5 348t250.5 124zM393 -213q90 0 131 79.5t41 252.5q0 178 -42 260.5t-131 82.5t-131.5 -83t-42.5 -260q0 -172 42 -252t133 -80z" />
    <glyph glyph-name="one.subs" horiz-adv-x="498" 
d="M212 -331v697h-168v96q117 -1 165.5 28.5t53.5 88.5h109v-910h-160z" />
    <glyph glyph-name="two.subs" horiz-adv-x="761" 
d="M61 -331v84v42q0 81 34.5 137t89 96t115.5 71.5t115 62t88.5 69t34.5 91.5q0 60 -42.5 97.5t-114.5 37.5q-73 0 -124.5 -42.5t-60.5 -126.5h-152q0 84 38.5 152.5t114.5 109.5t189 41q147 0 232 -74t85 -194q0 -81 -34 -136t-86.5 -93t-112.5 -67t-113 -57.5t-87 -65
t-34 -89.5v-10h469v-136h-644z" />
    <glyph glyph-name="three.subs" horiz-adv-x="829" 
d="M72 301q-1 93 42.5 157t119 98t170.5 34q99 0 175 -27t119.5 -80t43.5 -134q0 -67 -39.5 -119t-123.5 -82q78 -23 132.5 -78t54.5 -146q0 -87 -49 -147t-132 -90.5t-186 -30.5q-156 1 -245 79t-91 209h153q13 -81 63.5 -119t122.5 -38q91 0 143.5 39t52.5 102
q0 64 -53 103.5t-143 40.5l-86 3v129l79 3q52 1 93 19.5t64 48.5t23 68q0 52 -47 86t-126 34q-45 0 -85 -16t-65.5 -51.5t-27.5 -94.5h-152z" />
    <glyph glyph-name="four.subs" horiz-adv-x="804" 
d="M460 582h156v-562h145v-134h-145v-214h-153l1 214h-420v133zM193 20h270v363z" />
    <glyph glyph-name="five.subs" horiz-adv-x="822" 
d="M145 580h568l-6 -132h-434l-20 -242q47 29 94.5 44t107.5 15q87 0 158 -34.5t113.5 -100.5t42.5 -162q0 -143 -93.5 -226.5t-251.5 -83.5q-131 0 -231.5 62.5t-139.5 162.5l128 65q36 -72 91.5 -117t137.5 -45q89 0 141.5 49t52.5 128q0 76 -53 123.5t-133 47.5
q-49 0 -88.5 -13t-87.5 -61q-7 -1 -9.5 -1t-9.5 4l-120 47z" />
    <glyph glyph-name="six.subs" horiz-adv-x="801" 
d="M424 592q82 0 151 -30.5t113 -87t50 -136.5h-146q-17 62 -60 94t-105 32q-107 0 -158.5 -86.5t-42.5 -233.5q33 51 91 79.5t125 28.5q140 0 223 -77.5t83 -206.5q0 -91 -42 -160.5t-117 -108.5t-174 -39q-170 0 -266 122t-96 327q0 229 99 356t272 127zM410 129
q-44 0 -83 -20t-63.5 -51t-25.5 -65q0 -98 48.5 -154t124.5 -56q72 0 120.5 49.5t48.5 128.5q0 86 -48 127t-122 41z" />
    <glyph glyph-name="seven.subs" horiz-adv-x="730" 
d="M44 579h662v-131q-57 -74 -113 -176.5t-103 -213t-77.5 -213t-35.5 -176.5h-170q10 78 47 205t107 277t176 296h-493v132z" />
    <glyph glyph-name="eight.subs" horiz-adv-x="845" 
d="M422 594q141 0 230.5 -67t89.5 -186q0 -68 -36 -116.5t-96 -76.5q44 -11 83 -44.5t64 -80.5t25 -98q0 -121 -98.5 -192t-261.5 -71q-161 0 -260 71t-99 192q0 51 25.5 98t65 80.5t82.5 44.5q-60 28 -96.5 76.5t-36.5 116.5q0 119 90 186t229 67zM422 211q74 0 117.5 35.5
t43.5 97.5q0 64 -44.5 101.5t-116.5 37.5q-70 0 -115 -37.5t-45 -101.5q0 -62 44 -97.5t116 -35.5zM422 -217q89 0 140.5 39.5t51.5 105.5q0 67 -52 108.5t-140 41.5q-87 0 -138.5 -41.5t-51.5 -108.5q0 -66 51 -105.5t139 -39.5z" />
    <glyph glyph-name="nine.subs" horiz-adv-x="801" 
d="M375 -343q-83 0 -153 31.5t-114.5 88.5t-51.5 133h150q14 -57 57 -91t105 -34q108 0 168.5 78t53.5 247q-29 -55 -86.5 -87.5t-134.5 -32.5q-139 0 -225.5 79t-86.5 212q0 91 41.5 160.5t116 108.5t172.5 39q170 0 265.5 -122t95.5 -328q0 -242 -100 -362t-273 -120z
M391 119q45 0 84 20t63.5 52t25.5 65q1 98 -47.5 154t-125.5 56q-72 0 -118 -48.5t-46 -129.5q0 -83 45.5 -126t118.5 -43z" />
    <glyph glyph-name="zero.dnom" horiz-adv-x="784" 
d="M393 921q160 0 248.5 -124t88.5 -346t-87.5 -343t-250.5 -121q-162 0 -250.5 120.5t-88.5 341.5q0 224 89.5 348t250.5 124zM393 117q90 0 131 79.5t41 252.5q0 178 -42 260.5t-131 82.5t-131.5 -83t-42.5 -260q0 -172 42 -252t133 -80z" />
    <glyph glyph-name="one.dnom" horiz-adv-x="498" 
d="M212 -1v697h-168v96q117 -1 165.5 28.5t53.5 88.5h109v-910h-160z" />
    <glyph glyph-name="two.dnom" horiz-adv-x="761" 
d="M61 -1v84v42q0 81 34.5 137t89 96t115.5 71.5t115 62t88.5 69t34.5 91.5q0 60 -42.5 97.5t-114.5 37.5q-73 0 -124.5 -42.5t-60.5 -126.5h-152q0 84 38.5 152.5t114.5 109.5t189 41q147 0 232 -74t85 -194q0 -81 -34 -136t-86.5 -93t-112.5 -67t-113 -57.5t-87 -65
t-34 -89.5v-10h469v-136h-644z" />
    <glyph glyph-name="three.dnom" horiz-adv-x="829" 
d="M72 631q-1 93 42.5 157t119 98t170.5 34q99 0 175 -27t119.5 -80t43.5 -134q0 -67 -39.5 -119t-123.5 -82q78 -23 132.5 -78t54.5 -146q0 -87 -49 -147t-132 -90.5t-186 -30.5q-156 1 -245 79t-91 209h153q13 -81 63.5 -119t122.5 -38q91 0 143.5 39t52.5 102
q0 64 -53 103.5t-143 40.5l-86 3v129l79 3q52 1 93 19.5t64 48.5t23 68q0 52 -47 86t-126 34q-45 0 -85 -16t-65.5 -51.5t-27.5 -94.5h-152z" />
    <glyph glyph-name="four.dnom" horiz-adv-x="804" 
d="M460 912h156v-562h145v-134h-145v-214h-153l1 214h-420v133zM193 350h270v363z" />
    <glyph glyph-name="five.dnom" horiz-adv-x="822" 
d="M145 910h568l-6 -132h-434l-20 -242q47 29 94.5 44t107.5 15q87 0 158 -34.5t113.5 -100.5t42.5 -162q0 -143 -93.5 -226.5t-251.5 -83.5q-131 0 -231.5 62.5t-139.5 162.5l128 65q36 -72 91.5 -117t137.5 -45q89 0 141.5 49t52.5 128q0 76 -53 123.5t-133 47.5
q-49 0 -88.5 -13t-87.5 -61q-7 -1 -9.5 -1t-9.5 4l-120 47z" />
    <glyph glyph-name="six.dnom" horiz-adv-x="801" 
d="M424 922q82 0 151 -30.5t113 -87t50 -136.5h-146q-17 62 -60 94t-105 32q-107 0 -158.5 -86.5t-42.5 -233.5q33 51 91 79.5t125 28.5q140 0 223 -77.5t83 -206.5q0 -91 -42 -160.5t-117 -108.5t-174 -39q-170 0 -266 122t-96 327q0 229 99 356t272 127zM410 459
q-44 0 -83 -20t-63.5 -51t-25.5 -65q0 -98 48.5 -154t124.5 -56q72 0 120.5 49.5t48.5 128.5q0 86 -48 127t-122 41z" />
    <glyph glyph-name="seven.dnom" horiz-adv-x="730" 
d="M44 909h662v-131q-57 -74 -113 -176.5t-103 -213t-77.5 -213t-35.5 -176.5h-170q10 78 47 205t107 277t176 296h-493v132z" />
    <glyph glyph-name="eight.dnom" horiz-adv-x="845" 
d="M422 922q141 0 230.5 -67t89.5 -186q0 -68 -36 -116.5t-96 -76.5q44 -11 83 -44.5t64 -80.5t25 -98q0 -121 -98.5 -192t-261.5 -71q-161 0 -260 71t-99 192q0 51 25.5 98t65 80.5t82.5 44.5q-60 28 -96.5 76.5t-36.5 116.5q0 119 90 186t229 67zM422 539q74 0 117.5 35.5
t43.5 97.5q0 64 -44.5 101.5t-116.5 37.5q-70 0 -115 -37.5t-45 -101.5q0 -62 44 -97.5t116 -35.5zM422 111q89 0 140.5 39.5t51.5 105.5q0 67 -52 108.5t-140 41.5q-87 0 -138.5 -41.5t-51.5 -108.5q0 -66 51 -105.5t139 -39.5z" />
    <glyph glyph-name="nine.dnom" horiz-adv-x="801" 
d="M375 -13q-83 0 -153 31.5t-114.5 88.5t-51.5 133h150q14 -57 57 -91t105 -34q108 0 168.5 78t53.5 247q-29 -55 -86.5 -87.5t-134.5 -32.5q-139 0 -225.5 79t-86.5 212q0 91 41.5 160.5t116 108.5t172.5 39q170 0 265.5 -122t95.5 -328q0 -242 -100 -362t-273 -120z
M391 449q45 0 84 20t63.5 52t25.5 65q1 98 -47.5 154t-125.5 56q-72 0 -118 -48.5t-46 -129.5q0 -83 45.5 -126t118.5 -43z" />
    <glyph glyph-name="zero.numr" horiz-adv-x="784" 
d="M393 1459q160 0 248.5 -124t88.5 -346t-87.5 -343t-250.5 -121q-162 0 -250.5 120.5t-88.5 341.5q0 224 89.5 348t250.5 124zM393 655q90 0 131 79.5t41 252.5q0 178 -42 260.5t-131 82.5t-131.5 -83t-42.5 -260q0 -172 42 -252t133 -80z" />
    <glyph glyph-name="one.numr" horiz-adv-x="498" 
d="M212 536v697h-168v96q117 -1 165.5 28.5t53.5 88.5h109v-910h-160z" />
    <glyph glyph-name="two.numr" horiz-adv-x="761" 
d="M61 537v84v42q0 81 34.5 137t89 96t115.5 71.5t115 62t88.5 69t34.5 91.5q0 60 -42.5 97.5t-114.5 37.5q-73 0 -124.5 -42.5t-60.5 -126.5h-152q0 84 38.5 152.5t114.5 109.5t189 41q147 0 232 -74t85 -194q0 -81 -34 -136t-86.5 -93t-112.5 -67t-113 -57.5t-87 -65
t-34 -89.5v-10h469v-136h-644z" />
    <glyph glyph-name="three.numr" horiz-adv-x="829" 
d="M72 1171q-1 93 42.5 157t119 98t170.5 34q99 0 175 -27t119.5 -80t43.5 -134q0 -67 -39.5 -119t-123.5 -82q78 -23 132.5 -78t54.5 -146q0 -87 -49 -147t-132 -90.5t-186 -30.5q-156 1 -245 79t-91 209h153q13 -81 63.5 -119t122.5 -38q91 0 143.5 39t52.5 102
q0 64 -53 103.5t-143 40.5l-86 3v129l79 3q52 1 93 19.5t64 48.5t23 68q0 52 -47 86t-126 34q-45 0 -85 -16t-65.5 -51.5t-27.5 -94.5h-152z" />
    <glyph glyph-name="four.numr" horiz-adv-x="804" 
d="M460 1447h156v-562h145v-134h-145v-214h-153l1 214h-420v133zM193 885h270v363z" />
    <glyph glyph-name="five.numr" horiz-adv-x="822" 
d="M145 1446h568l-6 -132h-434l-20 -242q47 29 94.5 44t107.5 15q87 0 158 -34.5t113.5 -100.5t42.5 -162q0 -143 -93.5 -226.5t-251.5 -83.5q-131 0 -231.5 62.5t-139.5 162.5l128 65q36 -72 91.5 -117t137.5 -45q89 0 141.5 49t52.5 128q0 76 -53 123.5t-133 47.5
q-49 0 -88.5 -13t-87.5 -61q-7 -1 -9.5 -1t-9.5 4l-120 47z" />
    <glyph glyph-name="six.numr" horiz-adv-x="801" 
d="M424 1457q82 0 151 -30.5t113 -87t50 -136.5h-146q-17 62 -60 94t-105 32q-107 0 -158.5 -86.5t-42.5 -233.5q33 51 91 79.5t125 28.5q140 0 223 -77.5t83 -206.5q0 -91 -42 -160.5t-117 -108.5t-174 -39q-170 0 -266 122t-96 327q0 229 99 356t272 127zM410 994
q-44 0 -83 -20t-63.5 -51t-25.5 -65q0 -98 48.5 -154t124.5 -56q72 0 120.5 49.5t48.5 128.5q0 86 -48 127t-122 41z" />
    <glyph glyph-name="seven.numr" horiz-adv-x="730" 
d="M44 1447h662v-131q-57 -74 -113 -176.5t-103 -213t-77.5 -213t-35.5 -176.5h-170q10 78 47 205t107 277t176 296h-493v132z" />
    <glyph glyph-name="eight.numr" horiz-adv-x="845" 
d="M422 1457q141 0 230.5 -67t89.5 -186q0 -68 -36 -116.5t-96 -76.5q44 -11 83 -44.5t64 -80.5t25 -98q0 -121 -98.5 -192t-261.5 -71q-161 0 -260 71t-99 192q0 51 25.5 98t65 80.5t82.5 44.5q-60 28 -96.5 76.5t-36.5 116.5q0 119 90 186t229 67zM422 1074
q74 0 117.5 35.5t43.5 97.5q0 64 -44.5 101.5t-116.5 37.5q-70 0 -115 -37.5t-45 -101.5q0 -62 44 -97.5t116 -35.5zM422 646q89 0 140.5 39.5t51.5 105.5q0 67 -52 108.5t-140 41.5q-87 0 -138.5 -41.5t-51.5 -108.5q0 -66 51 -105.5t139 -39.5z" />
    <glyph glyph-name="nine.numr" horiz-adv-x="801" 
d="M375 525q-83 0 -153 31.5t-114.5 88.5t-51.5 133h150q14 -57 57 -91t105 -34q108 0 168.5 78t53.5 247q-29 -55 -86.5 -87.5t-134.5 -32.5q-139 0 -225.5 79t-86.5 212q0 91 41.5 160.5t116 108.5t172.5 39q170 0 265.5 -122t95.5 -328q0 -242 -100 -362t-273 -120z
M391 987q45 0 84 20t63.5 52t25.5 65q1 98 -47.5 154t-125.5 56q-72 0 -118 -48.5t-46 -129.5q0 -83 45.5 -126t118.5 -43z" />
    <glyph glyph-name="uni2070" unicode="&#x2070;" horiz-adv-x="784" 
d="M393 1667q160 0 248.5 -124t88.5 -346t-87.5 -343t-250.5 -121q-162 0 -250.5 120.5t-88.5 341.5q0 224 89.5 348t250.5 124zM393 863q90 0 131 79.5t41 252.5q0 178 -42 260.5t-131 82.5t-131.5 -83t-42.5 -260q0 -172 42 -252t133 -80z" />
    <glyph glyph-name="uni00B9" unicode="&#xb9;" horiz-adv-x="498" 
d="M212 744v697h-168v96q117 -1 165.5 28.5t53.5 88.5h109v-910h-160z" />
    <glyph glyph-name="uni00B2" unicode="&#xb2;" horiz-adv-x="761" 
d="M61 747v84v42q0 81 34.5 137t89 96t115.5 71.5t115 62t88.5 69t34.5 91.5q0 60 -42.5 97.5t-114.5 37.5q-73 0 -124.5 -42.5t-60.5 -126.5h-152q0 84 38.5 152.5t114.5 109.5t189 41q147 0 232 -74t85 -194q0 -81 -34 -136t-86.5 -93t-112.5 -67t-113 -57.5t-87 -65
t-34 -89.5v-10h469v-136h-644z" />
    <glyph glyph-name="uni00B3" unicode="&#xb3;" horiz-adv-x="829" 
d="M72 1381q-1 93 42.5 157t119 98t170.5 34q99 0 175 -27t119.5 -80t43.5 -134q0 -67 -39.5 -119t-123.5 -82q78 -23 132.5 -78t54.5 -146q0 -87 -49 -147t-132 -90.5t-186 -30.5q-156 1 -245 79t-91 209h153q13 -81 63.5 -119t122.5 -38q91 0 143.5 39t52.5 102
q0 64 -53 103.5t-143 40.5l-86 3v129l79 3q52 1 93 19.5t64 48.5t23 68q0 52 -47 86t-126 34q-45 0 -85 -16t-65.5 -51.5t-27.5 -94.5h-152z" />
    <glyph glyph-name="uni2074" unicode="&#x2074;" horiz-adv-x="804" 
d="M460 1655h156v-562h145v-134h-145v-214h-153l1 214h-420v133zM193 1093h270v363z" />
    <glyph glyph-name="uni2075" unicode="&#x2075;" horiz-adv-x="822" 
d="M145 1654h568l-6 -132h-434l-20 -242q47 29 94.5 44t107.5 15q87 0 158 -34.5t113.5 -100.5t42.5 -162q0 -143 -93.5 -226.5t-251.5 -83.5q-131 0 -231.5 62.5t-139.5 162.5l128 65q36 -72 91.5 -117t137.5 -45q89 0 141.5 49t52.5 128q0 76 -53 123.5t-133 47.5
q-49 0 -88.5 -13t-87.5 -61q-7 -1 -9.5 -1t-9.5 4l-120 47z" />
    <glyph glyph-name="uni2076" unicode="&#x2076;" horiz-adv-x="801" 
d="M424 1667q82 0 151 -30.5t113 -87t50 -136.5h-146q-17 62 -60 94t-105 32q-107 0 -158.5 -86.5t-42.5 -233.5q33 51 91 79.5t125 28.5q140 0 223 -77.5t83 -206.5q0 -91 -42 -160.5t-117 -108.5t-174 -39q-170 0 -266 122t-96 327q0 229 99 356t272 127zM410 1204
q-44 0 -83 -20t-63.5 -51t-25.5 -65q0 -98 48.5 -154t124.5 -56q72 0 120.5 49.5t48.5 128.5q0 86 -48 127t-122 41z" />
    <glyph glyph-name="uni2077" unicode="&#x2077;" horiz-adv-x="730" 
d="M44 1657h662v-131q-57 -74 -113 -176.5t-103 -213t-77.5 -213t-35.5 -176.5h-170q10 78 47 205t107 277t176 296h-493v132z" />
    <glyph glyph-name="uni2078" unicode="&#x2078;" horiz-adv-x="845" 
d="M422 1667q141 0 230.5 -67t89.5 -186q0 -68 -36 -116.5t-96 -76.5q44 -11 83 -44.5t64 -80.5t25 -98q0 -121 -98.5 -192t-261.5 -71q-161 0 -260 71t-99 192q0 51 25.5 98t65 80.5t82.5 44.5q-60 28 -96.5 76.5t-36.5 116.5q0 119 90 186t229 67zM422 1284
q74 0 117.5 35.5t43.5 97.5q0 64 -44.5 101.5t-116.5 37.5q-70 0 -115 -37.5t-45 -101.5q0 -62 44 -97.5t116 -35.5zM422 856q89 0 140.5 39.5t51.5 105.5q0 67 -52 108.5t-140 41.5q-87 0 -138.5 -41.5t-51.5 -108.5q0 -66 51 -105.5t139 -39.5z" />
    <glyph glyph-name="uni2079" unicode="&#x2079;" horiz-adv-x="801" 
d="M375 735q-83 0 -153 31.5t-114.5 88.5t-51.5 133h150q14 -57 57 -91t105 -34q108 0 168.5 78t53.5 247q-29 -55 -86.5 -87.5t-134.5 -32.5q-139 0 -225.5 79t-86.5 212q0 91 41.5 160.5t116 108.5t172.5 39q170 0 265.5 -122t95.5 -328q0 -242 -100 -362t-273 -120z
M391 1197q45 0 84 20t63.5 52t25.5 65q1 98 -47.5 154t-125.5 56q-72 0 -118 -48.5t-46 -129.5q0 -83 45.5 -126t118.5 -43z" />
    <glyph glyph-name="fraction.alt" unicode="&#x2215;" horiz-adv-x="1362" 
d="M1242 1462l-972 -1470l-150 2l975 1468h147z" />
    <glyph glyph-name="fraction" unicode="&#x2044;" horiz-adv-x="469" 
d="M798 1462l-972 -1470l-150 2l975 1468h147z" />
    <glyph glyph-name="onehalf" unicode="&#xbd;" horiz-adv-x="1771" 
d="M212 536v697h-168v96q117 -1 165.5 28.5t53.5 88.5h109v-910h-160zM1341 1462l-972 -1470l-150 2l975 1468h147zM1071 -1v84v42q0 81 34.5 137t89 96t115.5 71.5t115 62t88.5 69t34.5 91.5q0 60 -42.5 97.5t-114.5 37.5q-73 0 -124.5 -42.5t-60.5 -126.5h-152
q0 84 38.5 152.5t114.5 109.5t189 41q147 0 232 -74t85 -194q0 -81 -34 -136t-86.5 -93t-112.5 -67t-113 -57.5t-87 -65t-34 -89.5v-10h469v-136h-644z" />
    <glyph glyph-name="uni2153" unicode="&#x2153;" horiz-adv-x="1806" 
d="M212 536v697h-168v96q117 -1 165.5 28.5t53.5 88.5h109v-910h-160zM1341 1462l-972 -1470l-150 2l975 1468h147zM1049 631q-1 93 42.5 157t119 98t170.5 34q99 0 175 -27t119.5 -80t43.5 -134q0 -67 -39.5 -119t-123.5 -82q78 -23 132.5 -78t54.5 -146q0 -87 -49 -147
t-132 -90.5t-186 -30.5q-156 1 -245 79t-91 209h153q13 -81 63.5 -119t122.5 -38q91 0 143.5 39t52.5 102q0 64 -53 103.5t-143 40.5l-86 3v129l79 3q52 1 93 19.5t64 48.5t23 68q0 52 -47 86t-126 34q-45 0 -85 -16t-65.5 -51.5t-27.5 -94.5h-152z" />
    <glyph glyph-name="uni2154" unicode="&#x2154;" horiz-adv-x="2119" 
d="M61 537v84v42q0 81 34.5 137t89 96t115.5 71.5t115 62t88.5 69t34.5 91.5q0 60 -42.5 97.5t-114.5 37.5q-73 0 -124.5 -42.5t-60.5 -126.5h-152q0 84 38.5 152.5t114.5 109.5t189 41q147 0 232 -74t85 -194q0 -81 -34 -136t-86.5 -93t-112.5 -67t-113 -57.5t-87 -65
t-34 -89.5v-10h469v-136h-644zM1654 1462l-972 -1470l-150 2l975 1468h147zM1363 631q-1 93 42.5 157t119 98t170.5 34q99 0 175 -27t119.5 -80t43.5 -134q0 -67 -39.5 -119t-123.5 -82q78 -23 132.5 -78t54.5 -146q0 -87 -49 -147t-132 -90.5t-186 -30.5q-156 1 -245 79
t-91 209h153q13 -81 63.5 -119t122.5 -38q91 0 143.5 39t52.5 102q0 64 -53 103.5t-143 40.5l-86 3v129l79 3q52 1 93 19.5t64 48.5t23 68q0 52 -47 86t-126 34q-45 0 -85 -16t-65.5 -51.5t-27.5 -94.5h-152z" />
    <glyph glyph-name="onequarter" unicode="&#xbc;" horiz-adv-x="1626" 
d="M212 536v697h-168v96q117 -1 165.5 28.5t53.5 88.5h109v-910h-160zM1341 1462l-972 -1470l-150 2l975 1468h147zM1282 912h156v-562h145v-134h-145v-214h-153l1 214h-420v133zM1015 350h270v363z" />
    <glyph glyph-name="threequarters" unicode="&#xbe;" horiz-adv-x="1881" 
d="M72 1171q-1 93 42.5 157t119 98t170.5 34q99 0 175 -27t119.5 -80t43.5 -134q0 -67 -39.5 -119t-123.5 -82q78 -23 132.5 -78t54.5 -146q0 -87 -49 -147t-132 -90.5t-186 -30.5q-156 1 -245 79t-91 209h153q13 -81 63.5 -119t122.5 -38q91 0 143.5 39t52.5 102
q0 64 -53 103.5t-143 40.5l-86 3v129l79 3q52 1 93 19.5t64 48.5t23 68q0 52 -47 86t-126 34q-45 0 -85 -16t-65.5 -51.5t-27.5 -94.5h-152zM1596 1462l-972 -1470l-150 2l975 1468h147zM1537 912h156v-562h145v-134h-145v-214h-153l1 214h-420v133zM1270 350h270v363z" />
    <glyph glyph-name="oneeighth" unicode="&#x215b;" horiz-adv-x="1822" 
d="M212 536v697h-168v96q117 -1 165.5 28.5t53.5 88.5h109v-910h-160zM1341 1462l-972 -1470l-150 2l975 1468h147zM1399 922q141 0 230.5 -67t89.5 -186q0 -68 -36 -116.5t-96 -76.5q44 -11 83 -44.5t64 -80.5t25 -98q0 -121 -98.5 -192t-261.5 -71q-161 0 -260 71t-99 192
q0 51 25.5 98t65 80.5t82.5 44.5q-60 28 -96.5 76.5t-36.5 116.5q0 119 90 186t229 67zM1399 539q74 0 117.5 35.5t43.5 97.5q0 64 -44.5 101.5t-116.5 37.5q-70 0 -115 -37.5t-45 -101.5q0 -62 44 -97.5t116 -35.5zM1399 111q89 0 140.5 39.5t51.5 105.5q0 67 -52 108.5
t-140 41.5q-87 0 -138.5 -41.5t-51.5 -108.5q0 -66 51 -105.5t139 -39.5z" />
    <glyph glyph-name="threeeighths" unicode="&#x215c;" horiz-adv-x="2078" 
d="M72 1171q-1 93 42.5 157t119 98t170.5 34q99 0 175 -27t119.5 -80t43.5 -134q0 -67 -39.5 -119t-123.5 -82q78 -23 132.5 -78t54.5 -146q0 -87 -49 -147t-132 -90.5t-186 -30.5q-156 1 -245 79t-91 209h153q13 -81 63.5 -119t122.5 -38q91 0 143.5 39t52.5 102
q0 64 -53 103.5t-143 40.5l-86 3v129l79 3q52 1 93 19.5t64 48.5t23 68q0 52 -47 86t-126 34q-45 0 -85 -16t-65.5 -51.5t-27.5 -94.5h-152zM1596 1462l-972 -1470l-150 2l975 1468h147zM1654 922q141 0 230.5 -67t89.5 -186q0 -68 -36 -116.5t-96 -76.5q44 -11 83 -44.5
t64 -80.5t25 -98q0 -121 -98.5 -192t-261.5 -71q-161 0 -260 71t-99 192q0 51 25.5 98t65 80.5t82.5 44.5q-60 28 -96.5 76.5t-36.5 116.5q0 119 90 186t229 67zM1654 539q74 0 117.5 35.5t43.5 97.5q0 64 -44.5 101.5t-116.5 37.5q-70 0 -115 -37.5t-45 -101.5
q0 -62 44 -97.5t116 -35.5zM1654 111q89 0 140.5 39.5t51.5 105.5q0 67 -52 108.5t-140 41.5q-87 0 -138.5 -41.5t-51.5 -108.5q0 -66 51 -105.5t139 -39.5z" />
    <glyph glyph-name="fiveeighths" unicode="&#x215d;" horiz-adv-x="2071" 
d="M145 1446h568l-6 -132h-434l-20 -242q47 29 94.5 44t107.5 15q87 0 158 -34.5t113.5 -100.5t42.5 -162q0 -143 -93.5 -226.5t-251.5 -83.5q-131 0 -231.5 62.5t-139.5 162.5l128 65q36 -72 91.5 -117t137.5 -45q89 0 141.5 49t52.5 128q0 76 -53 123.5t-133 47.5
q-49 0 -88.5 -13t-87.5 -61q-7 -1 -9.5 -1t-9.5 4l-120 47zM1589 1462l-972 -1470l-150 2l975 1468h147zM1647 922q141 0 230.5 -67t89.5 -186q0 -68 -36 -116.5t-96 -76.5q44 -11 83 -44.5t64 -80.5t25 -98q0 -121 -98.5 -192t-261.5 -71q-161 0 -260 71t-99 192
q0 51 25.5 98t65 80.5t82.5 44.5q-60 28 -96.5 76.5t-36.5 116.5q0 119 90 186t229 67zM1647 539q74 0 117.5 35.5t43.5 97.5q0 64 -44.5 101.5t-116.5 37.5q-70 0 -115 -37.5t-45 -101.5q0 -62 44 -97.5t116 -35.5zM1647 111q89 0 140.5 39.5t51.5 105.5q0 67 -52 108.5
t-140 41.5q-87 0 -138.5 -41.5t-51.5 -108.5q0 -66 51 -105.5t139 -39.5z" />
    <glyph glyph-name="seveneighths" unicode="&#x215e;" horiz-adv-x="1898" 
d="M44 1447h662v-131q-57 -74 -113 -176.5t-103 -213t-77.5 -213t-35.5 -176.5h-170q10 78 47 205t107 277t176 296h-493v132zM1417 1462l-972 -1470l-150 2l975 1468h147zM1475 922q141 0 230.5 -67t89.5 -186q0 -68 -36 -116.5t-96 -76.5q44 -11 83 -44.5t64 -80.5t25 -98
q0 -121 -98.5 -192t-261.5 -71q-161 0 -260 71t-99 192q0 51 25.5 98t65 80.5t82.5 44.5q-60 28 -96.5 76.5t-36.5 116.5q0 119 90 186t229 67zM1475 539q74 0 117.5 35.5t43.5 97.5q0 64 -44.5 101.5t-116.5 37.5q-70 0 -115 -37.5t-45 -101.5q0 -62 44 -97.5t116 -35.5z
M1475 111q89 0 140.5 39.5t51.5 105.5q0 67 -52 108.5t-140 41.5q-87 0 -138.5 -41.5t-51.5 -108.5q0 -66 51 -105.5t139 -39.5z" />
    <glyph glyph-name="period" unicode="." horiz-adv-x="499" 
d="M104 0v280h275v-280h-275z" />
    <glyph glyph-name="comma" unicode="," horiz-adv-x="521" 
d="M91 -267l114 261l-95 7v255h266v-223l-187 -300h-98z" />
    <glyph glyph-name="colon" unicode=":" horiz-adv-x="499" 
d="M379 1002v-278h-275v278h275zM379 282v-276h-275v276h275z" />
    <glyph glyph-name="semicolon" unicode=";" horiz-adv-x="522" 
d="M104 -298l124 298h-101v277h275v-245l-196 -330h-102zM122 717v281h275v-281h-275z" />
    <glyph glyph-name="ellipsis" unicode="&#x2026;" horiz-adv-x="1663" 
d="M1311 0v280h275v-280h-275zM136 0v280h275v-280h-275zM723 0v280h275v-280h-275z" />
    <glyph glyph-name="exclam" unicode="!" horiz-adv-x="536" 
d="M397 276v-276h-274v276h274zM404 1446l-64 -1036h-156l-67 1036h287z" />
    <glyph glyph-name="exclamdown" unicode="&#xa1;" horiz-adv-x="531" 
d="M397 758h-274v276h274v-276zM405 -322h-288l67 944h155z" />
    <glyph glyph-name="question" unicode="?" horiz-adv-x="1049" 
d="M633 276v-276h-274v276h274zM33 1155q64 149 192.5 230t301.5 81q139 0 242.5 -45.5t161 -123t57.5 -174.5q0 -100 -40 -171.5t-98 -129.5t-116.5 -115t-98 -126.5t-39.5 -165.5h-200q0 112 35 194t87 145.5t103.5 118t87 111.5t35.5 127q0 84 -61.5 133t-157.5 49
q-59 0 -115.5 -24.5t-100.5 -68t-66 -100.5z" />
    <glyph glyph-name="questiondown" unicode="&#xbf;" horiz-adv-x="1064" 
d="M420 758v276h275v-276h-275zM1020 -30q-63 -148 -191.5 -230t-302.5 -82q-150 0 -252.5 45.5t-155.5 123.5t-53 176q0 82 28.5 139.5t72.5 102t94.5 82.5t94.5 79.5t72.5 95t28.5 126.5h201q0 -87 -25 -151.5t-64.5 -113.5t-84 -88.5t-84.5 -78t-65 -82t-25 -99.5
q0 -80 61.5 -129t157.5 -49q59 0 115.5 24t100.5 66.5t66 97.5z" />
    <glyph glyph-name="periodcentered" unicode="&#xb7;" horiz-adv-x="492" 
d="M371 857v-257h-267v257h267z" />
    <glyph glyph-name="bullet" unicode="&#x2022;" horiz-adv-x="673" 
d="M328 509q-63 0 -113.5 30.5t-81 82.5t-30.5 114t30.5 113t81 81.5t113.5 30.5q62 0 113.5 -30.5t82 -81.5t30.5 -113t-30.5 -114t-82 -82.5t-113.5 -30.5z" />
    <glyph glyph-name="asterisk" unicode="*" horiz-adv-x="874" 
d="M597 707l-161 264l-164 -269l-135 94l198 241l-280 78l53 146l266 -112l-21 297h166l-23 -298l270 118l47 -146l-273 -82l194 -235z" />
    <glyph glyph-name="numbersign" unicode="#" horiz-adv-x="1220" 
d="M576 1435l-214 -1439l-135 18l216 1435zM995 1435l-215 -1439l-135 18l215 1435zM1082 593v-135h-1019v135h1019zM1146 1003v-135h-1019v135h1019z" />
    <glyph glyph-name="slash" unicode="/" horiz-adv-x="735" 
d="M25 -55l503 1501h177l-504 -1501h-176z" />
    <glyph glyph-name="backslash" unicode="\" horiz-adv-x="735" 
d="M522 -55l-503 1501h177l503 -1501h-177z" />
    <glyph glyph-name="period.tf" horiz-adv-x="600" 
d="M162 0v280h275v-280h-275z" />
    <glyph glyph-name="comma.tf" horiz-adv-x="600" 
d="M158 -267l114 261l-95 7v255h266v-223l-187 -300h-98z" />
    <glyph glyph-name="parenleft" unicode="(" horiz-adv-x="639" 
d="M583 1499q-102 -194 -166.5 -423.5t-64.5 -468.5q0 -226 56.5 -438t163.5 -438h-169q-83 141 -145 277.5t-96 283.5t-34 317q0 249 79 477t206 413h170z" />
    <glyph glyph-name="parenright" unicode=")" horiz-adv-x="648" 
d="M31 1499q102 -194 166.5 -423.5t64.5 -468.5q0 -226 -56.5 -438t-163.5 -438h169q83 141 145 277.5t96 283.5t34 317q0 249 -79 477t-206 413h-170z" />
    <glyph glyph-name="braceleft" unicode="{" horiz-adv-x="717" 
d="M247 1224q0 72 40 121.5t104.5 75t139.5 25.5h125v-144h-80q-54 0 -80.5 -13t-35 -36.5t-8.5 -53.5v-410q-2 -72 -32.5 -117.5t-77 -68.5t-95.5 -28q-12 -1 -12.5 -6t12.5 -7q48 -4 94.5 -25t77.5 -67.5t33 -127.5v-414q0 -55 26 -80.5t99 -25.5h79v-144h-121
q-78 0 -144 26t-105 76.5t-39 123.5v418q0 47 -24 88.5t-74 67t-128 25.5v131q118 1 172 51.5t54 137.5v401z" />
    <glyph glyph-name="braceright" unicode="}" horiz-adv-x="720" 
d="M442 1224q0 72 -40 121.5t-104.5 75t-139.5 25.5h-125v-144h80q54 0 80.5 -13t35 -36.5t8.5 -53.5v-410q2 -72 32.5 -117.5t77 -68.5t95.5 -28q12 -1 12.5 -6t-12.5 -7q-48 -4 -94.5 -25t-77.5 -67.5t-33 -127.5v-414q0 -55 -26 -80.5t-99 -25.5h-79v-144h121
q78 0 144 26t105 76.5t39 123.5v418q0 47 24 88.5t74 67t128 25.5v131q-118 1 -172 51.5t-54 137.5v401z" />
    <glyph glyph-name="bracketleft" unicode="[" horiz-adv-x="643" 
d="M162 1446h420v-144h-215l-1 -1480h215v-144h-418z" />
    <glyph glyph-name="bracketright" unicode="]" horiz-adv-x="663" 
d="M455 1446h-420v-144h215l1 -1480h-215v-144h418z" />
    <glyph glyph-name="hyphen" unicode="-" horiz-adv-x="772" 
d="M650 607v-182l-528 -1v182z" />
    <glyph glyph-name="uni00AD" unicode="&#xad;" horiz-adv-x="772" 
d="M650 607v-182l-528 -1v182z" />
    <glyph glyph-name="endash" unicode="&#x2013;" horiz-adv-x="1151" 
d="M1029 591v-182l-907 -1v182z" />
    <glyph glyph-name="emdash" unicode="&#x2014;" horiz-adv-x="2269" 
d="M1904 591v-182l-1538 -1v182z" />
    <glyph glyph-name="underscore" unicode="_" horiz-adv-x="1073" 
d="M949 -77v-181l-830 -1v182h830z" />
    <glyph glyph-name="emdash.alt" horiz-adv-x="1538" 
d="M1538 591v-182l-1538 -1v182z" />
    <glyph glyph-name="quotesinglbase" unicode="&#x201a;" horiz-adv-x="521" 
d="M91 -264l113 260l-94 7v255h266v-223l-187 -299h-98z" />
    <glyph glyph-name="quotedblbase" unicode="&#x201e;" horiz-adv-x="930" 
d="M500 -264l113 260l-94 7v255h266v-223l-187 -299h-98zM91 -264l113 260l-94 7v255h266v-223l-187 -299h-98z" />
    <glyph glyph-name="quotedblleft" unicode="&#x201c;" horiz-adv-x="904" 
d="M490 925v223l187 298h98l-114 -260l95 -8v-253h-266zM90 925v223l188 298h98l-114 -260l94 -8v-253h-266z" />
    <glyph glyph-name="quotedblright" unicode="&#x201d;" horiz-adv-x="894" 
d="M498 925l115 261l-95 7v253h266v-222l-187 -299h-99zM100 925l113 261l-94 7v253h266v-222l-187 -299h-98z" />
    <glyph glyph-name="quoteleft" unicode="&#x2018;" horiz-adv-x="504" 
d="M375 1508l-113 -261l94 -7v-253h-266v222l187 299h98z" />
    <glyph glyph-name="quoteright" unicode="&#x2019;" horiz-adv-x="496" 
d="M100 925l113 261l-94 7v253h266v-222l-187 -299h-98z" />
    <glyph glyph-name="guillemotleft" unicode="&#xab;" horiz-adv-x="958" 
d="M661 502l179 -368h-132l-249 368l249 384h134zM293 502l178 -368h-131l-248 368l248 384h133z" />
    <glyph glyph-name="guillemotright" unicode="&#xbb;" horiz-adv-x="992" 
d="M304 502l-181 384h133l248 -384l-248 -368h-131zM672 502l-181 384h133l248 -384l-248 -368h-131z" />
    <glyph glyph-name="guilsinglleft" unicode="&#x2039;" horiz-adv-x="590" 
d="M293 502l178 -368h-131l-248 368l248 384h133z" />
    <glyph glyph-name="guilsinglright" unicode="&#x203a;" horiz-adv-x="589" 
d="M286 502l-180 384h133l247 -384l-248 -368h-130z" />
    <glyph glyph-name="quotedbl" unicode="&#x22;" horiz-adv-x="910" 
d="M788 1446l-70 -517h-128l-67 517h265zM388 1446l-70 -517h-128l-67 517h265z" />
    <glyph glyph-name="quotesingle" unicode="'" horiz-adv-x="510" 
d="M388 1446l-70 -517h-128l-67 517h265z" />
    <glyph glyph-name="space" unicode=" " horiz-adv-x="441" 
 />
    <glyph glyph-name="uni00A0" unicode="&#xa0;" horiz-adv-x="441" 
 />
    <glyph glyph-name="CR" unicode="&#xd;" horiz-adv-x="472" 
 />
    <glyph glyph-name="cent" unicode="&#xa2;" horiz-adv-x="1106" 
d="M674 0h-167v314h167v-314zM674 1132h-167v314h167v-314zM588 1276q121 0 213 -48t147.5 -133t66.5 -193h-207q-8 47 -35 89.5t-72.5 69t-110.5 26.5q-117 0 -189.5 -86t-72.5 -264q0 -164 69 -261t197 -97q64 0 109.5 28.5t72.5 71t34 85.5h202q-9 -105 -65 -187
t-148 -128.5t-211 -46.5q-142 0 -252.5 62.5t-173.5 182t-63 288.5q0 161 59.5 282.5t169 190t260.5 68.5z" />
    <glyph glyph-name="colonmonetary" unicode="&#x20a1;" horiz-adv-x="1409" 
d="M735 1560h116l-320 -1682h-116zM960 1560h116l-320 -1682h-116zM738 1466q159 0 282 -64.5t198.5 -174.5t89.5 -245h-257q-15 80 -55.5 143t-106.5 100t-158 37q-115 0 -195.5 -54.5t-123 -172.5t-42.5 -306q0 -285 94 -415t267 -130q92 0 158 40.5t106.5 108t55.5 147.5
h257q-12 -98 -49.5 -188t-105.5 -160.5t-170.5 -111t-244.5 -40.5q-199 0 -341.5 91.5t-219 260t-76.5 400.5q0 231 76 395t218.5 251.5t342.5 87.5z" />
    <glyph glyph-name="currency" unicode="&#xa4;" horiz-adv-x="1121" 
d="M556 317q-120 0 -218 62q-17 11 -29 -3l-114 -115l-107 112l126 125q-35 53 -52 107.5t-17 121.5q0 120 60 213q9 18 -4 30l-113 114l108 110l128 -129q49 34 108 53t119 19q121 0 220 -64q14 -8 24 2l109 110l107 -110l-120 -119q34 -51 52.5 -108t18.5 -120
q0 -58 -16 -115t-48 -103q-7 -11 1 -18l113 -110l-107 -110l-119 119q-51 -34 -109 -54t-121 -20zM555 486q69 0 124 34t86 89t31 119q0 63 -31 118t-86 89.5t-124 34.5t-123.5 -34.5t-86.5 -89.5t-32 -118q0 -64 32 -119t86.5 -89t123.5 -34z" />
    <glyph glyph-name="dollar" unicode="$" horiz-adv-x="1341" 
d="M694 -20q-246 0 -403 102t-183 308l254 9q27 -110 114.5 -165.5t216.5 -55.5q77 0 141 26t102 72t38 106q0 87 -53.5 134.5t-167.5 74.5l-243 58q-162 37 -259 130.5t-99 251.5q-1 131 69.5 228.5t194.5 151t281 53.5t271 -57.5t176 -153.5t63 -211l-247 -8
q-17 111 -77 171.5t-184 60.5q-60 0 -112 -14t-91 -41t-61 -65.5t-22 -87.5q0 -70 48.5 -110.5t177.5 -77.5l236 -62q191 -49 274.5 -160t83.5 -264q0 -121 -67 -211.5t-188.5 -141.5t-283.5 -51zM590 1657h216v-259h-216v259zM582 60h215v-259h-215v259z" />
    <glyph glyph-name="dong" unicode="&#x20ab;" horiz-adv-x="1047" 
d="M688 264v111q-25 -27 -59 -56.5t-84 -50t-121 -20.5q-98 0 -176 48t-123.5 144t-45.5 239q0 136 48 237t130 157t184 56q73 0 123 -23.5t93 -63.5q14 -11 20.5 -8.5t6.5 19.5v392h206v-1181h-202zM680 901q-38 41 -79.5 63.5t-95.5 22.5q-92 0 -151 -73.5t-59 -230.5
q0 -106 27 -171.5t74 -95.5t106 -30q52 0 92.5 23t63 58.5t22.5 74.5v359zM1012 1328v-114h-571v114h571zM895 124v-124h-765v124h765z" />
    <glyph glyph-name="Euro" unicode="&#x20ac;" horiz-adv-x="1256" 
d="M766 -20q-140 0 -253 53t-194 152t-124.5 237.5t-43.5 308.5q0 227 76.5 392t213.5 254t321 89q125 0 232 -47.5t182 -129.5l-168 -135q-46 46 -99 79.5t-126 33.5q-110 0 -188 -57t-119.5 -176.5t-41.5 -305.5q0 -184 44 -303.5t125.5 -177.5t193.5 -58q73 0 139.5 35.5
t108.5 80.5l132 -146q-73 -77 -180 -128t-231 -51zM815 956v-139l-823 -1v139zM815 634v-139l-823 -1v140h823z" />
    <glyph glyph-name="florin" unicode="&#x192;" horiz-adv-x="980" 
d="M852 1034l-31 -172h-233l-163 -931q-22 -124 -103 -194.5t-212 -70.5h-202l24 166l118 1q63 1 94 32t45 114l155 883h-167l30 172h167l27 154q22 124 104.5 191t208.5 67h218l-27 -166h-139q-48 0 -85 -36.5t-48 -93.5l-21 -116h240z" />
    <glyph glyph-name="franc" unicode="&#x20a3;" horiz-adv-x="1234" 
d="M740 391v-140l-767 -1v140zM153 1446h993l-1 -205h-715v-431h562v-201h-562v-609h-277v1446z" />
    <glyph glyph-name="lira" unicode="&#x20a4;" horiz-adv-x="1264" 
d="M1176 319q-45 -156 -157.5 -237.5t-272.5 -81.5h-710v205h71q68 -1 115.5 49t55.5 158q3 14 3.5 31t-0.5 38q-1 13 -17 13h-211v139h208l-24 154h-184v140h163l-7 70q-22 168 34.5 271t162.5 150.5t234 47.5q90 0 178.5 -31t158.5 -90t105 -143l-215 -69q-26 58 -70 96
t-122 38q-56 0 -100.5 -22.5t-70 -65.5t-25.5 -105q0 -20 4.5 -53.5t10.5 -73.5q3 -20 22 -20l290 1v-140l-287 -1l22 -154l265 1v-139h-266q-3 -50 -17 -103t-39.5 -101t-64.5 -84h310q94 0 152 36t88 124z" />
    <glyph glyph-name="uni20BA" unicode="&#x20ba;" horiz-adv-x="1231" 
d="M522 0h-268v1446h278v-1239h82q121 2 214 82.5t154 244.5l218 -47q-36 -105 -93 -193.5t-139 -154.5t-192.5 -102.5t-253.5 -36.5zM787 1114l51 -137l-759 -276l-49 138zM807 796l50 -138l-756 -275l-50 138z" />
    <glyph glyph-name="uni20A6" unicode="&#x20a6;" horiz-adv-x="1517" 
d="M1491 1007v-128l-1476 -1v128zM1491 612v-128l-1476 -1v128zM1170 1446h243v-1446h-219l-727 1061v-1061h-243v1446h238l708 -1033v1033z" />
    <glyph glyph-name="uni20B9" unicode="&#x20b9;" horiz-adv-x="1233" 
d="M32 833h405q154 0 226.5 58t72.5 187q0 118 -69 174.5t-203 56.5h-432v137h469q248 0 386 -97t138 -278q0 -103 -39.5 -177t-102 -122.5t-133.5 -73.5q-15 -5 -7 -26l267 -672h-301l-233 651h-444v182zM1187 1447v-128l-1153 -1v128zM1187 1145v-129l-1153 -1v129z" />
    <glyph glyph-name="sterling" unicode="&#xa3;" horiz-adv-x="1264" 
d="M36 0v205h71q76 0 125.5 55.5t49.5 180.5q0 50 -4.5 103.5t-16.5 137.5h-203v142h175l-24 173q-19 113 9.5 199.5t91 147t148.5 91.5t182 31q103 0 190 -33t152 -92t99 -139l-214 -69q-32 69 -75.5 101.5t-116.5 32.5q-56 0 -100.5 -22.5t-70 -65.5t-25.5 -105
q0 -48 10.5 -112t28.5 -137h306v-142h-287q8 -69 9.5 -118.5t-6.5 -100.5q-6 -71 -23.5 -119t-42 -81t-50.5 -57h305q99 0 153 36t87 124l207 -48q-47 -159 -154.5 -239t-275.5 -80h-710z" />
    <glyph glyph-name="uni20A9" unicode="&#x20a9;" horiz-adv-x="2155" 
d="M2120 1142v-139l-2095 -1v139zM2120 830v-139l-2095 -1v139zM1984 1446l-425 -1446h-205l-292 1025l-296 -1025h-200l-422 1446h241l293 -1044l294 1044h181l296 -1044l295 1044h240z" />
    <glyph glyph-name="yen" unicode="&#xa5;" horiz-adv-x="1275" 
d="M1277 1446l-495 -808v-638h-277v604l-507 842h316l353 -616l352 616h258zM1083 688v-140l-879 -1v140zM1083 383v-139l-879 -1v139z" />
    <glyph glyph-name="cent.tf" horiz-adv-x="1400" 
d="M817 0h-167v314h167v-314zM817 1132h-167v314h167v-314zM731 1276q121 0 213 -48t147.5 -133t66.5 -193h-207q-8 47 -35 89.5t-72.5 69t-110.5 26.5q-117 0 -189.5 -86t-72.5 -264q0 -164 69 -261t197 -97q64 0 109.5 28.5t72.5 71t34 85.5h202q-9 -105 -65 -187
t-148 -128.5t-211 -46.5q-142 0 -252.5 62.5t-173.5 182t-63 288.5q0 161 59.5 282.5t169 190t260.5 68.5z" />
    <glyph glyph-name="colonmonetary.tf" horiz-adv-x="1400" 
d="M720 1560h116l-320 -1682h-116zM945 1560h116l-320 -1682h-116zM723 1466q159 0 282 -64.5t198.5 -174.5t89.5 -245h-257q-15 80 -55.5 143t-106.5 100t-158 37q-115 0 -195.5 -54.5t-123 -172.5t-42.5 -306q0 -285 94 -415t267 -130q92 0 158 40.5t106.5 108t55.5 147.5
h257q-12 -98 -49.5 -188t-105.5 -160.5t-170.5 -111t-244.5 -40.5q-199 0 -341.5 91.5t-219 260t-76.5 400.5q0 231 76 395t218.5 251.5t342.5 87.5z" />
    <glyph glyph-name="dollar.tf" horiz-adv-x="1400" 
d="M723 -20q-246 0 -403 102t-183 308l254 9q27 -110 114.5 -165.5t216.5 -55.5q77 0 141 26t102 72t38 106q0 87 -53.5 134.5t-167.5 74.5l-243 58q-162 37 -259 130.5t-99 251.5q-1 131 69.5 228.5t194.5 151t281 53.5t271 -57.5t176 -153.5t63 -211l-247 -8
q-17 111 -77 171.5t-184 60.5q-60 0 -112 -14t-91 -41t-61 -65.5t-22 -87.5q0 -70 48.5 -110.5t177.5 -77.5l236 -62q191 -49 274.5 -160t83.5 -264q0 -121 -67 -211.5t-188.5 -141.5t-283.5 -51zM619 1657h216v-259h-216v259zM611 60h215v-259h-215v259z" />
    <glyph glyph-name="dong.tf" horiz-adv-x="1400" 
d="M842 264v111q-25 -27 -59 -56.5t-84 -50t-121 -20.5q-98 0 -176 48t-123.5 144t-45.5 239q0 136 48 237t130 157t184 56q73 0 123 -23.5t93 -63.5q14 -11 20.5 -8.5t6.5 19.5v392h206v-1181h-202zM834 901q-38 41 -79.5 63.5t-95.5 22.5q-92 0 -151 -73.5t-59 -230.5
q0 -106 27 -171.5t74 -95.5t106 -30q52 0 92.5 23t63 58.5t22.5 74.5v359zM1166 1328v-114h-571v114h571zM1049 124v-124h-765v124h765z" />
    <glyph glyph-name="Euro.tf" horiz-adv-x="1400" 
d="M873 -20q-140 0 -253 53t-194 152t-124.5 237.5t-43.5 308.5q0 227 76.5 392t213.5 254t321 89q125 0 232 -47.5t182 -129.5l-168 -135q-46 46 -99 79.5t-126 33.5q-110 0 -188 -57t-119.5 -176.5t-41.5 -305.5q0 -184 44 -303.5t125.5 -177.5t193.5 -58q73 0 139.5 35.5
t108.5 80.5l132 -146q-73 -77 -180 -128t-231 -51zM922 956v-139l-823 -1v139zM922 634v-139l-823 -1v140h823z" />
    <glyph glyph-name="florin.tf" horiz-adv-x="1400" 
d="M1103 1034l-31 -172h-233l-163 -931q-22 -124 -103 -194.5t-212 -70.5h-202l24 166l118 1q63 1 94 32t45 114l155 883h-167l30 172h167l27 154q22 124 104.5 191t208.5 67h218l-27 -166h-139q-48 0 -85 -36.5t-48 -93.5l-21 -116h240z" />
    <glyph glyph-name="franc.tf" horiz-adv-x="1400" 
d="M883 391v-140l-767 -1v140zM296 1446h993l-1 -205h-715v-431h562v-201h-562v-609h-277v1446z" />
    <glyph glyph-name="lira.tf" horiz-adv-x="1400" 
d="M1270 319q-45 -156 -157.5 -237.5t-272.5 -81.5h-710v205h71q68 -1 115.5 49t55.5 158q3 14 3.5 31t-0.5 38q-1 13 -17 13h-211v139h208l-24 154h-184v140h163l-7 70q-22 168 34.5 271t162.5 150.5t234 47.5q90 0 178.5 -31t158.5 -90t105 -143l-215 -69q-26 58 -70 96
t-122 38q-56 0 -100.5 -22.5t-70 -65.5t-25.5 -105q0 -20 4.5 -53.5t10.5 -73.5q3 -20 22 -20l290 1v-140l-287 -1l22 -154l265 1v-139h-266q-3 -50 -17 -103t-39.5 -101t-64.5 -84h310q94 0 152 36t88 124z" />
    <glyph glyph-name="uni20BA.tf" horiz-adv-x="1400" 
d="M616 0h-268v1446h278v-1239h82q121 2 214 82.5t154 244.5l218 -47q-36 -105 -93 -193.5t-139 -154.5t-192.5 -102.5t-253.5 -36.5zM881 1114l51 -137l-759 -276l-49 138zM901 796l50 -138l-756 -275l-50 138z" />
    <glyph glyph-name="uni20B9.tf" horiz-adv-x="1400" 
d="M123 833h405q154 0 226.5 58t72.5 187q0 118 -69 174.5t-203 56.5h-432v137h469q248 0 386 -97t138 -278q0 -103 -39.5 -177t-102 -122.5t-133.5 -73.5q-15 -5 -7 -26l267 -672h-301l-233 651h-444v182zM1278 1447v-128l-1153 -1v128zM1278 1145v-129l-1153 -1v129z" />
    <glyph glyph-name="sterling.tf" horiz-adv-x="1400" 
d="M130 0v205h71q76 0 125.5 55.5t49.5 180.5q0 50 -4.5 103.5t-16.5 137.5h-203v142h175l-24 173q-19 113 9.5 199.5t91 147t148.5 91.5t182 31q103 0 190 -33t152 -92t99 -139l-214 -69q-32 69 -75.5 101.5t-116.5 32.5q-56 0 -100.5 -22.5t-70 -65.5t-25.5 -105
q0 -48 10.5 -112t28.5 -137h306v-142h-287q8 -69 9.5 -118.5t-6.5 -100.5q-6 -71 -23.5 -119t-42 -81t-50.5 -57h305q99 0 153 36t87 124l207 -48q-47 -159 -154.5 -239t-275.5 -80h-710z" />
    <glyph glyph-name="yen.tf" horiz-adv-x="1400" 
d="M1340 1446l-495 -808v-638h-277v604l-507 842h316l353 -616l352 616h258zM1146 688v-140l-879 -1v140zM1146 383v-139l-879 -1v139z" />
    <glyph glyph-name="uni2219" unicode="&#x2219;" horiz-adv-x="676" 
d="M330 593q-58 0 -99 41.5t-41 99.5t41 99t99 41t99 -41t41 -99t-41 -99.5t-99 -41.5z" />
    <glyph glyph-name="plus" unicode="+" horiz-adv-x="1146" 
d="M1027 818v-181l-908 -1v181zM665 274h-181l-1 908h181z" />
    <glyph glyph-name="minus" unicode="&#x2212;" horiz-adv-x="1146" 
d="M1027 818v-181l-908 -1v181z" />
    <glyph glyph-name="multiply" unicode="&#xd7;" horiz-adv-x="1120" 
d="M998 418l-129 -130l-750 750l128 128zM249 288l-128 130l749 750l129 -128z" />
    <glyph glyph-name="divide" unicode="&#xf7;" horiz-adv-x="1146" 
d="M710 483v-261h-271v261h271zM1027 818v-181l-908 -1v181zM710 1233v-261h-271v261h271z" />
    <glyph glyph-name="equal" unicode="=" horiz-adv-x="1146" 
d="M1027 1010v-181l-908 -1v181zM1027 559v-182l-908 -1v182z" />
    <glyph glyph-name="notequal" unicode="&#x2260;" horiz-adv-x="1146" 
d="M869 1281l-522 -1191h-131l528 1191h125zM1027 1010v-181l-908 -1v181zM1027 559v-182l-908 -1v182z" />
    <glyph glyph-name="greater" unicode="&#x3e;" horiz-adv-x="1126" 
d="M120 454l612 233l-613 238v216l888 -348v-209l-887 -344v214z" />
    <glyph glyph-name="less" unicode="&#x3c;" horiz-adv-x="1126" 
d="M1005 454v-214l-886 344v209l887 348v-216l-611 -238z" />
    <glyph glyph-name="greaterequal" unicode="&#x2265;" horiz-adv-x="1146" 
d="M132 641l612 235l-613 237v216l887 -348v-208l-886 -347v215zM119 265l908 1v-181l-908 -1v181z" />
    <glyph glyph-name="lessequal" unicode="&#x2264;" horiz-adv-x="1146" 
d="M1013 641v-215l-885 347v208l886 348v-216l-611 -237zM1027 265v-181l-908 1v181z" />
    <glyph glyph-name="plusminus" unicode="&#xb1;" horiz-adv-x="1146" 
d="M1027 273v-180l-908 -1v180zM1027 981v-182h-908v181zM664 437h-180l-1 907h181v-907z" />
    <glyph glyph-name="approxequal" unicode="&#x2248;" horiz-adv-x="1183" 
d="M1063 911q-43 -73 -115 -115.5t-160 -42.5q-58 0 -105 17t-89 40t-85 40t-95 17q-76 0 -128.5 -40t-96.5 -89l-70 128q66 67 133.5 113.5t162.5 46.5q59 0 106 -17.5t89 -40t84 -39.5t91 -17q73 0 123 38.5t84 88.5zM1063 502q-43 -73 -115 -116t-160 -43
q-60 0 -107 17.5t-89 40t-84.5 40t-93.5 17.5q-76 0 -129 -40.5t-95 -89.5l-71 129q66 67 133.5 113t162.5 46q59 0 106 -17.5t89 -40t84 -40t91 -17.5q73 0 123 39t84 89z" />
    <glyph glyph-name="asciitilde" unicode="~" horiz-adv-x="1184" 
d="M1059 751q-44 -74 -116 -116.5t-160 -42.5q-59 0 -106.5 17.5t-89.5 40.5t-84.5 40t-92.5 17q-76 0 -129 -40.5t-97 -88.5l-69 127q65 67 133 113.5t162 46.5q59 0 106.5 -17.5t89 -39.5t83.5 -39.5t91 -17.5q73 0 123.5 38.5t83.5 88.5z" />
    <glyph glyph-name="logicalnot" unicode="&#xac;" horiz-adv-x="1146" 
d="M1027 818v-181l-908 -1v181zM1027 759v-417h-200l-1 417h201z" />
    <glyph glyph-name="asciicircum" unicode="^" horiz-adv-x="958" 
d="M689 250l-218 544l-220 -542h-173l305 730q19 45 53 61.5t68.5 2t54.5 -62.5l305 -733h-175z" />
    </font>
</defs>
</svg>
