<?xml version="1.0" standalone="no"?>
<!DOCTYPE svg PUBLIC "-//W3C//DTD SVG 1.1//EN" "http://www.w3.org/Graphics/SVG/1.1/DTD/svg11.dtd" >
<svg xmlns="http://www.w3.org/2000/svg" xmlns:xlink="http://www.w3.org/1999/xlink" version="1.1">
<metadata>
Created by FontForge 20190801 at Wed Oct 23 08:29:17 2019
 By Jimmy Wärting
Copyright (c) 2015, Impallari Type (www.impallari.com)
</metadata>
<defs>
<font id="PublicSans-Medium" horiz-adv-x="0" >
  <font-face 
    font-family="Public Sans Medium"
    font-weight="500"
    font-stretch="normal"
    units-per-em="2000"
    panose-1="0 0 0 0 0 0 0 0 0 0"
    ascent="1600"
    descent="-400"
    x-height="1034"
    cap-height="1446"
    bbox="-319 -480 2523 2213.46"
    underline-thickness="140"
    underline-position="-440"
    unicode-range="U+000D-FB02"
  />
<missing-glyph horiz-adv-x="1357" 
d="M1174 -266q0 -56 -65 -56h-873q-31 0 -42 12t-11 36v1880q0 46 38 46h918q35 0 35 -42v-1876zM1072 -178v1698q0 34 -29 34h-727q-31 0 -31 -36v-1702q0 -19 9.5 -29.5t34.5 -10.5h689q54 0 54 46zM1018 -268l-793 1840l101 52l809 -1882z" />
    <glyph glyph-name="fi" unicode="fi" horiz-adv-x="1344" 
d="M742 1034v-154h-242v-880h-215v880h-211v154h211v157q0 124 66 189.5t194 65.5h206l1 -148h-149q-62 0 -84.5 -32.5t-22.5 -99.5v-132h246zM1180 1034v-1034h-206v1034h206zM1184 1445v-211h-215v211h215z" />
    <glyph glyph-name="fl" unicode="fl" horiz-adv-x="1419" 
d="M742 1034v-154h-242v-880h-215v880h-211v154h211v157q0 124 66 189.5t194 65.5h206l1 -148h-149q-62 0 -84.5 -32.5t-22.5 -99.5v-132h246zM1234 -14q-92 0 -147.5 24t-84.5 64.5t-38.5 92t-9.5 106.5v1213h211v-1191q0 -72 28.5 -110t87.5 -43l54 -2v-136
q-25 -8 -51.5 -13t-49.5 -5z" />
    <glyph glyph-name="colon_one_eight_F_colon.liga" unicode="&#x3a;&#x31;&#x38;F&#x3a;" horiz-adv-x="1546" 
d="M748 742q43 0 72 -29t29 -73q0 -42 -29 -72t-72 -30q-42 0 -72.5 30t-30.5 72q0 44 30.5 73t72.5 29zM36 1522h1475q22 0 22 -24v-1472q0 -26 -22 -26h-1475q-23 0 -23 26v1472q0 24 23 24zM491 486v544q0 10 -8 10h-135q-7 0 -7 -10v-52q0 -8 7 -8h73v-484q0 -8 7 -8h55
q8 0 8 8zM748 468q70 0 120.5 51t50.5 121q0 90 -74 140q53 50 53 116q0 62 -44.5 106t-105.5 44q-66 0 -109.5 -44t-43.5 -106t54 -116q-74 -49 -74 -140q0 -70 50.5 -121t122.5 -51zM1229 978v52q0 10 -8 10h-210q-8 0 -8 -10v-544q0 -8 8 -8h52q12 0 12 8v248h122
q7 0 7 8v50q0 10 -7 10h-122v168h146q8 0 8 8zM748 816q-35 0 -59.5 22t-24.5 58q0 35 24.5 58.5t59.5 23.5q34 0 57.5 -23.5t23.5 -58.5q0 -36 -23.5 -58t-57.5 -22z" />
    <glyph glyph-name="colon_f_l_a_g_two_colon.liga" unicode="&#x3a;flag&#x32;&#x3a;" horiz-adv-x="2319" 
d="M209 1396l8 -1270h1884v1270h-1892zM93 1522h2133v-1520h-2133v1520zM113 354h2084v-124h-2084v124zM113 588h2084v-124h-2084v124zM1029 822h1168v-124h-1168v124zM1029 1056h1168v-124h-1168v124zM1029 1290h1168v-124h-1168v124zM282 1288v-118h125v118h-125z
M753 1288v-118h122v118h-122zM519 1170v-116h122v116h-122zM285 1054v-118h122v118h-122zM753 1054v-118h122v118h-122zM519 936v-116h122v116h-122zM285 820v-118h122v118h-122zM753 820v-118h122v118h-122zM194 1446h837v-860h-844z" />
    <glyph glyph-name="colon_f_l_a_g_colon.liga" unicode="&#x3a;flag&#x3a;" horiz-adv-x="2319" 
d="M209 1404v-1286h1900v1286h-1900zM93 1522h2133v-1520h-2133v1520zM113 352h2084v-118h-2084v118zM113 586h2084v-118h-2084v118zM1029 820h1168v-118h-1168v118zM1029 1054h1168v-118h-1168v118zM1029 1288h1168v-118h-1168v118zM327 1288h116v-118h-116v118zM561 1170
h116v-116h-116v116zM795 1288h116v-118h-116v118zM561 1170h116v-116h-116v116zM327 1054h116v-118h-116v118zM561 936h116v-116h-116v116zM795 1054h116v-118h-116v118zM561 936h116v-116h-116v116zM327 820h116v-118h-116v118zM795 820h116v-118h-116v118z" />
    <glyph glyph-name=".notdef" horiz-adv-x="1357" 
d="M1174 -266q0 -56 -65 -56h-873q-31 0 -42 12t-11 36v1880q0 46 38 46h918q35 0 35 -42v-1876zM1072 -178v1698q0 34 -29 34h-727q-31 0 -31 -36v-1702q0 -19 9.5 -29.5t34.5 -10.5h689q54 0 54 46zM1018 -268l-793 1840l101 52l809 -1882z" />
    <glyph glyph-name="A" unicode="A" horiz-adv-x="1429" 
d="M75 0l522 1446h236l521 -1446h-216l-136 379h-571l-139 -379h-217zM482 573h465l-231 663z" />
    <glyph glyph-name="Aacute" unicode="&#xc1;" horiz-adv-x="1429" 
d="M75 0l522 1446h236l521 -1446h-216l-136 379h-571l-139 -379h-217zM482 573h465l-231 663zM838 1858h235l-280 -291h-161z" />
    <glyph glyph-name="Abreve" unicode="&#x102;" horiz-adv-x="1429" 
d="M75 0l522 1446h236l521 -1446h-216l-136 379h-571l-139 -379h-217zM482 573h465l-231 663zM1031 1792q-15 -72 -60 -122.5t-111.5 -77.5t-145.5 -27q-76 0 -142 26t-111.5 77t-61.5 124h148q16 -48 59.5 -78.5t107.5 -30.5q63 0 108 30.5t62 78.5h147z" />
    <glyph glyph-name="uni1EAE" unicode="&#x1eae;" horiz-adv-x="1429" 
d="M75 0l522 1446h236l521 -1446h-216l-136 379h-571l-139 -379h-217zM482 573h465l-231 663zM1034 1792q-15 -72 -60 -122.5t-111.5 -77.5t-145.5 -27q-76 0 -142 26t-111.5 77t-61.5 124h148q16 -48 59.5 -78.5t107.5 -30.5q63 0 108 30.5t62 78.5h147zM798 2078h188
l-208 -248h-127z" />
    <glyph glyph-name="uni1EB6" unicode="&#x1eb6;" horiz-adv-x="1429" 
d="M75 0l522 1446h236l521 -1446h-216l-136 379h-571l-139 -379h-217zM482 573h465l-231 663zM609 -370v195h212v-195h-212zM1031 1792q-15 -72 -60 -122.5t-111.5 -77.5t-145.5 -27q-76 0 -142 26t-111.5 77t-61.5 124h148q16 -48 59.5 -78.5t107.5 -30.5q63 0 108 30.5
t62 78.5h147z" />
    <glyph glyph-name="uni1EB0" unicode="&#x1eb0;" horiz-adv-x="1429" 
d="M75 0l522 1446h236l521 -1446h-216l-136 379h-571l-139 -379h-217zM482 573h465l-231 663zM1034 1792q-15 -72 -60 -122.5t-111.5 -77.5t-145.5 -27q-76 0 -142 26t-111.5 77t-61.5 124h148q16 -48 59.5 -78.5t107.5 -30.5q63 0 108 30.5t62 78.5h147zM638 2077l158 -248
h-131l-215 248h188z" />
    <glyph glyph-name="uni1EB2" unicode="&#x1eb2;" horiz-adv-x="1429" 
d="M75 0l522 1446h236l521 -1446h-216l-136 379h-571l-139 -379h-217zM482 573h465l-231 663zM1034 1792q-15 -72 -60 -122.5t-111.5 -77.5t-145.5 -27q-76 0 -142 26t-111.5 77t-61.5 124h148q16 -48 59.5 -78.5t107.5 -30.5q63 0 108 30.5t62 78.5h147zM601 2167l58 -90
q39 26 80.5 26t60.5 -32q21 -33 4.5 -69t-58.5 -63l59 -90q92 56 116.5 131.5t-26.5 153.5q-42 66 -125 77.5t-169 -44.5z" />
    <glyph glyph-name="uni1EB4" unicode="&#x1eb4;" horiz-adv-x="1429" 
d="M75 0l522 1446h236l521 -1446h-216l-136 379h-571l-139 -379h-217zM482 573h465l-231 663zM1034 1792q-15 -72 -60 -122.5t-111.5 -77.5t-145.5 -27q-76 0 -142 26t-111.5 77t-61.5 124h148q16 -48 59.5 -78.5t107.5 -30.5q63 0 108 30.5t62 78.5h147zM1031 1971
q-27 -21 -71.5 -41.5t-108.5 -20.5q-54 0 -96 13.5t-81 26.5t-86 13q-50 0 -81 -16t-64 -42l-38 121q34 33 74 56t100 23q51 0 96 -14t88.5 -28.5t87.5 -14.5q47 0 82 18.5t65 40.5z" />
    <glyph glyph-name="Acircumflex" unicode="&#xc2;" horiz-adv-x="1429" 
d="M75 0l522 1446h236l521 -1446h-216l-136 379h-571l-139 -379h-217zM482 573h465l-231 663zM851 1567l-138 133l-150 -133h-178l254 234h152l249 -234h-189z" />
    <glyph glyph-name="uni1EA4" unicode="&#x1ea4;" horiz-adv-x="1429" 
d="M75 0l522 1446h236l521 -1446h-216l-136 379h-571l-139 -379h-217zM482 573h465l-231 663zM852 1567l-138 133l-150 -133h-178l254 234h152l249 -234h-189zM1057 2042h188l-208 -248h-127z" />
    <glyph glyph-name="uni1EAC" unicode="&#x1eac;" horiz-adv-x="1429" 
d="M75 0l522 1446h236l521 -1446h-216l-136 379h-571l-139 -379h-217zM482 573h465l-231 663zM609 -370v195h212v-195h-212zM852 1567l-138 133l-150 -133h-178l254 234h152l249 -234h-189z" />
    <glyph glyph-name="uni1EA6" unicode="&#x1ea6;" horiz-adv-x="1429" 
d="M75 0l522 1446h236l521 -1446h-216l-136 379h-571l-139 -379h-217zM482 573h465l-231 663zM852 1567l-138 133l-150 -133h-178l254 234h152l249 -234h-189zM978 2042l158 -248h-131l-215 248h188z" />
    <glyph glyph-name="uni1EA8" unicode="&#x1ea8;" horiz-adv-x="1429" 
d="M75 0l522 1446h236l521 -1446h-216l-136 379h-571l-139 -379h-217zM482 573h465l-231 663zM857 1567l-138 133l-150 -133h-178l254 234h152l249 -234h-189zM764 2066l58 -90q39 26 80.5 26t60.5 -32q21 -33 4.5 -69t-58.5 -63l59 -90q92 56 116.5 131.5t-26.5 153.5
q-42 66 -125 77.5t-169 -44.5z" />
    <glyph glyph-name="uni1EAA" unicode="&#x1eaa;" horiz-adv-x="1429" 
d="M75 0l522 1446h236l521 -1446h-216l-136 379h-571l-139 -379h-217zM482 573h465l-231 663zM854 1567l-138 133l-150 -133h-178l254 234h152l249 -234h-189zM1028 1973q-27 -21 -71.5 -41.5t-108.5 -20.5q-54 0 -96 13.5t-81 26.5t-86 13q-50 0 -81 -16t-64 -42l-38 121
q34 33 74 56t100 23q51 0 96 -14t88.5 -28.5t87.5 -14.5q47 0 82 18.5t65 40.5z" />
    <glyph glyph-name="uni0200" unicode="&#x200;" horiz-adv-x="1429" 
d="M75 0l522 1446h236l521 -1446h-216l-136 379h-571l-139 -379h-217zM482 573h465l-231 663zM746 1858l197 -291h-161l-250 291h214zM405 1858l239 -291h-161l-297 291h219z" />
    <glyph glyph-name="Adieresis" unicode="&#xc4;" horiz-adv-x="1429" 
d="M75 0l522 1446h236l521 -1446h-216l-136 379h-571l-139 -379h-217zM482 573h465l-231 663zM816 1619l2 195h206l-2 -195h-206zM406 1619l2 195h206l-2 -195h-206z" />
    <glyph glyph-name="uni1EA0" unicode="&#x1ea0;" horiz-adv-x="1429" 
d="M75 0l522 1446h236l521 -1446h-216l-136 379h-571l-139 -379h-217zM482 573h465l-231 663zM609 -370v195h212v-195h-212z" />
    <glyph glyph-name="Agrave" unicode="&#xc0;" horiz-adv-x="1429" 
d="M75 0l522 1446h236l521 -1446h-216l-136 379h-571l-139 -379h-217zM482 573h465l-231 663zM587 1858h-235l280 -291h161z" />
    <glyph glyph-name="uni1EA2" unicode="&#x1ea2;" horiz-adv-x="1429" 
d="M75 0l522 1446h236l521 -1446h-216l-136 379h-571l-139 -379h-217zM482 573h465l-231 663zM577 1882l58 -90q39 26 80.5 26t60.5 -32q21 -33 4.5 -69t-58.5 -63l59 -90q92 56 116.5 131.5t-26.5 153.5q-42 66 -125 77.5t-169 -44.5z" />
    <glyph glyph-name="uni0202" unicode="&#x202;" horiz-adv-x="1429" 
d="M75 0l522 1446h236l521 -1446h-216l-136 379h-571l-139 -379h-217zM482 573h465l-231 663zM1027 1612q-15 72 -60 122.5t-111.5 77.5t-145.5 27q-76 0 -142 -26t-111.5 -77t-61.5 -124h148q16 48 59.5 78.5t107.5 30.5q63 0 108 -30.5t62 -78.5h147z" />
    <glyph glyph-name="Amacron" unicode="&#x100;" horiz-adv-x="1429" 
d="M75 0l522 1446h236l521 -1446h-216l-136 379h-571l-139 -379h-217zM482 573h465l-231 663zM1027 1785v-146h-625v146h625z" />
    <glyph glyph-name="Aogonek" unicode="&#x104;" horiz-adv-x="1429" 
d="M75 0l522 1446h236l521 -1446h-216l-136 379h-571l-139 -379h-217zM482 573h465l-231 663zM1003 -177q0 58 41 105.5t160 85.5l153 -10q-102 -42 -145.5 -77.5t-43.5 -82.5q0 -35 20.5 -53t66.5 -18q47 0 83.5 13t60.5 26v-106q-26 -16 -79 -29.5t-114 -13.5
q-99 0 -151 42t-52 118z" />
    <glyph glyph-name="Aring" unicode="&#xc5;" horiz-adv-x="1429" 
d="M75 0l522 1446h236l521 -1446h-216l-136 379h-571l-139 -379h-217zM482 573h465l-231 663zM925 1770q0 -88 -60.5 -148.5t-149.5 -60.5q-87 0 -147.5 61.5t-60.5 151.5q0 84 61.5 143t146.5 59q59 0 106.5 -27.5t75.5 -74.5t28 -104zM818 1769q0 46 -30.5 75t-74.5 29
q-42 0 -74 -29t-32 -75q0 -42 32 -74.5t74 -32.5q44 0 74.5 32.5t30.5 74.5z" />
    <glyph glyph-name="Aringacute" unicode="&#x1fa;" horiz-adv-x="1429" 
d="M75 0l522 1446h236l521 -1446h-216l-136 379h-571l-139 -379h-217zM482 573h465l-231 663zM714 1361q-86 0 -144.5 57t-58.5 145q0 82 59 137t144 55t144 -56t59 -140q0 -87 -59 -142.5t-144 -55.5zM712 1450q44 0 74.5 32.5t30.5 74.5q0 46 -30.5 75.5t-74.5 29.5
q-42 0 -74.5 -29.5t-32.5 -75.5q0 -42 32.5 -74.5t74.5 -32.5zM660 1706l41 174h147l-73 -174h-115z" />
    <glyph glyph-name="Atilde" unicode="&#xc3;" horiz-adv-x="1429" 
d="M75 0l522 1446h236l521 -1446h-216l-136 379h-571l-139 -379h-217zM482 573h465l-231 663zM1031 1691q-27 -21 -71.5 -41.5t-108.5 -20.5q-54 0 -96 13.5t-81 26.5t-86 13q-50 0 -81 -16t-64 -42l-38 121q34 33 74 56t100 23q51 0 96 -14t88.5 -28.5t87.5 -14.5
q47 0 82 18.5t65 40.5z" />
    <glyph glyph-name="AE" unicode="&#xc6;" horiz-adv-x="1985" 
d="M1869 184v-184h-956v384h-486l-210 -384h-217l793 1446h1053l-1 -183h-688v-443h610v-181h-610v-455h712zM913 573v724l-402 -724h402z" />
    <glyph glyph-name="AEacute" unicode="&#x1fc;" horiz-adv-x="1985" 
d="M1869 184v-184h-956v384h-486l-210 -384h-217l793 1446h1053l-1 -183h-688v-443h610v-181h-610v-455h712zM913 573v724l-402 -724h402zM1422 1858h235l-280 -291h-161z" />
    <glyph glyph-name="B" unicode="B" horiz-adv-x="1348" 
d="M183 0v1446h481q269 0 405.5 -97t136.5 -280q0 -113 -58.5 -194.5t-204.5 -136.5q86 -19 144 -54.5t91.5 -81.5t48 -100t14.5 -112q0 -197 -138.5 -293.5t-421.5 -96.5h-498zM397 174h285q168 0 255 57.5t87 172.5q0 83 -43 136t-116 78t-163 25h-305v-469zM397 820h305
q54 0 106 11t95 36.5t69 68.5t26 105q0 118 -89 175t-231 57h-281v-453z" />
    <glyph glyph-name="C" unicode="C" horiz-adv-x="1393" 
d="M730 1466q156 0 277 -64t194.5 -172t87.5 -239h-228q-15 82 -57.5 148.5t-112.5 105t-166 38.5q-123 0 -209 -58t-130.5 -181t-44.5 -317q0 -293 99 -428.5t285 -135.5q96 0 166 41.5t112.5 111t57.5 151.5h228q-12 -95 -50 -182.5t-105.5 -156.5t-167.5 -108.5
t-236 -39.5q-196 0 -336 90.5t-214.5 258t-74.5 401.5q0 233 74 397.5t214 251.5t337 87z" />
    <glyph glyph-name="Cacute" unicode="&#x106;" horiz-adv-x="1393" 
d="M730 1466q156 0 277 -64t194.5 -172t87.5 -239h-228q-15 82 -57.5 148.5t-112.5 105t-166 38.5q-123 0 -209 -58t-130.5 -181t-44.5 -317q0 -293 99 -428.5t285 -135.5q96 0 166 41.5t112.5 111t57.5 151.5h228q-12 -95 -50 -182.5t-105.5 -156.5t-167.5 -108.5
t-236 -39.5q-196 0 -336 90.5t-214.5 258t-74.5 401.5q0 233 74 397.5t214 251.5t337 87zM849 1858h235l-280 -291h-161z" />
    <glyph glyph-name="Ccaron" unicode="&#x10c;" horiz-adv-x="1393" 
d="M730 1466q156 0 277 -64t194.5 -172t87.5 -239h-228q-15 82 -57.5 148.5t-112.5 105t-166 38.5q-123 0 -209 -58t-130.5 -181t-44.5 -317q0 -293 99 -428.5t285 -135.5q96 0 166 41.5t112.5 111t57.5 151.5h228q-12 -95 -50 -182.5t-105.5 -156.5t-167.5 -108.5
t-236 -39.5q-196 0 -336 90.5t-214.5 258t-74.5 401.5q0 233 74 397.5t214 251.5t337 87zM650 1567l-254 235h179l150 -139l138 139h189l-249 -235h-153z" />
    <glyph glyph-name="Ccedilla" unicode="&#xc7;" horiz-adv-x="1393" 
d="M730 1466q156 0 277 -64t194.5 -172t87.5 -239h-228q-15 82 -57.5 148.5t-112.5 105t-166 38.5q-123 0 -209 -58t-130.5 -181t-44.5 -317q0 -293 99 -428.5t285 -135.5q96 0 166 41.5t112.5 111t57.5 151.5h228q-12 -95 -50 -182.5t-105.5 -156.5t-167.5 -108.5
t-236 -39.5q-196 0 -336 90.5t-214.5 258t-74.5 401.5q0 233 74 397.5t214 251.5t337 87zM931 -259q0 -50 -30.5 -85t-81 -53t-110.5 -18q-56 0 -106.5 12t-94.5 39l33 83q28 -19 63 -33.5t79 -14.5q53 0 79.5 18.5t26.5 51.5q0 43 -37.5 64t-125.5 23q-10 0 -13.5 3t0.5 12
l73 167h106l-46 -120q70 -2 110.5 -25t57.5 -56.5t17 -67.5z" />
    <glyph glyph-name="Ccircumflex" unicode="&#x108;" horiz-adv-x="1393" 
d="M730 1466q156 0 277 -64t194.5 -172t87.5 -239h-228q-15 82 -57.5 148.5t-112.5 105t-166 38.5q-123 0 -209 -58t-130.5 -181t-44.5 -317q0 -293 99 -428.5t285 -135.5q96 0 166 41.5t112.5 111t57.5 151.5h228q-12 -95 -50 -182.5t-105.5 -156.5t-167.5 -108.5
t-236 -39.5q-196 0 -336 90.5t-214.5 258t-74.5 401.5q0 233 74 397.5t214 251.5t337 87zM863 1567l-138 133l-150 -133h-178l254 234h152l249 -234h-189z" />
    <glyph glyph-name="Cdotaccent" unicode="&#x10a;" horiz-adv-x="1393" 
d="M730 1466q156 0 277 -64t194.5 -172t87.5 -239h-228q-15 82 -57.5 148.5t-112.5 105t-166 38.5q-123 0 -209 -58t-130.5 -181t-44.5 -317q0 -293 99 -428.5t285 -135.5q96 0 166 41.5t112.5 111t57.5 151.5h228q-12 -95 -50 -182.5t-105.5 -156.5t-167.5 -108.5
t-236 -39.5q-196 0 -336 90.5t-214.5 258t-74.5 401.5q0 233 74 397.5t214 251.5t337 87zM619 1619v195h212v-195h-212z" />
    <glyph glyph-name="D" unicode="D" horiz-adv-x="1401" 
d="M183 1446q8 0 47.5 -0.5t95.5 0t114.5 0t104.5 -1.5q265 -4 431 -88t243.5 -241.5t77.5 -383.5q0 -235 -83 -398.5t-253.5 -248t-431.5 -84.5h-346v1446zM401 1266v-1086h130q164 0 285.5 53.5t188.5 174t67 322.5q0 198 -64 315.5t-183.5 169t-287.5 51.5h-136z" />
    <glyph glyph-name="Eth" unicode="&#xd0;" horiz-adv-x="1437" 
d="M755 805v-166h-685v166h685zM218 1446q8 0 47.5 -0.5t95.5 0t115 0t105 -1.5q265 -4 430.5 -88t243 -241.5t77.5 -383.5q0 -235 -83 -398.5t-253 -248t-432 -84.5h-346v1446zM437 1266v-1086h129q164 0 285.5 53.5t188.5 174t67 322.5q0 198 -63.5 315.5t-183.5 169
t-287 51.5h-136z" />
    <glyph glyph-name="Dcaron" unicode="&#x10e;" horiz-adv-x="1401" 
d="M183 1446q8 0 47.5 -0.5t95.5 0t114.5 0t104.5 -1.5q265 -4 431 -88t243.5 -241.5t77.5 -383.5q0 -235 -83 -398.5t-253.5 -248t-431.5 -84.5h-346v1446zM401 1266v-1086h130q164 0 285.5 53.5t188.5 174t67 322.5q0 198 -64 315.5t-183.5 169t-287.5 51.5h-136z
M615 1567l-254 235h179l150 -139l138 139h189l-249 -235h-153z" />
    <glyph glyph-name="Dcroat" unicode="&#x110;" horiz-adv-x="1437" 
d="M755 805v-166h-685v166h685zM218 1446q8 0 47.5 -0.5t95.5 0t115 0t105 -1.5q265 -4 430.5 -88t243 -241.5t77.5 -383.5q0 -235 -83 -398.5t-253 -248t-432 -84.5h-346v1446zM437 1266v-1086h129q164 0 285.5 53.5t188.5 174t67 322.5q0 198 -63.5 315.5t-183.5 169
t-287 51.5h-136z" />
    <glyph glyph-name="uni1E0C" unicode="&#x1e0c;" horiz-adv-x="1401" 
d="M183 1446q8 0 47.5 -0.5t95.5 0t114.5 0t104.5 -1.5q265 -4 431 -88t243.5 -241.5t77.5 -383.5q0 -235 -83 -398.5t-253.5 -248t-431.5 -84.5h-346v1446zM401 1266v-1086h130q164 0 285.5 53.5t188.5 174t67 322.5q0 198 -64 315.5t-183.5 169t-287.5 51.5h-136z
M604 -370v195h212v-195h-212z" />
    <glyph glyph-name="E" unicode="E" horiz-adv-x="1249" 
d="M183 0v1446h934l-1 -186h-718v-439h641v-183h-642v-449l737 -1v-188h-951z" />
    <glyph glyph-name="Eacute" unicode="&#xc9;" horiz-adv-x="1249" 
d="M183 0v1446h934l-1 -186h-718v-439h641v-183h-642v-449l737 -1v-188h-951zM775 1858h235l-280 -291h-161z" />
    <glyph glyph-name="Ebreve" unicode="&#x114;" horiz-adv-x="1249" 
d="M183 0v1446h934l-1 -186h-718v-439h641v-183h-642v-449l737 -1v-188h-951zM968 1792q-15 -72 -60 -122.5t-111.5 -77.5t-145.5 -27q-76 0 -142 26t-111.5 77t-61.5 124h148q16 -48 59.5 -78.5t107.5 -30.5q63 0 108 30.5t62 78.5h147z" />
    <glyph glyph-name="Ecaron" unicode="&#x11a;" horiz-adv-x="1249" 
d="M183 0v1446h934l-1 -186h-718v-439h641v-183h-642v-449l737 -1v-188h-951zM577 1567l-254 235h179l150 -139l138 139h189l-249 -235h-153z" />
    <glyph glyph-name="Ecircumflex" unicode="&#xca;" horiz-adv-x="1249" 
d="M183 0v1446h934l-1 -186h-718v-439h641v-183h-642v-449l737 -1v-188h-951zM790 1567l-138 133l-150 -133h-178l254 234h152l249 -234h-189z" />
    <glyph glyph-name="uni1EBE" unicode="&#x1ebe;" horiz-adv-x="1249" 
d="M183 0v1446h934l-1 -186h-718v-439h641v-183h-642v-449l737 -1v-188h-951zM790 1567l-138 133l-150 -133h-178l254 234h152l249 -234h-189zM995 2042h188l-208 -248h-127z" />
    <glyph glyph-name="uni1EC6" unicode="&#x1ec6;" horiz-adv-x="1249" 
d="M183 0v1446h934l-1 -186h-718v-439h641v-183h-642v-449l737 -1v-188h-951zM577 -370v195h212v-195h-212zM790 1567l-138 133l-150 -133h-178l254 234h152l249 -234h-189z" />
    <glyph glyph-name="uni1EC0" unicode="&#x1ec0;" horiz-adv-x="1249" 
d="M183 0v1446h934l-1 -186h-718v-439h641v-183h-642v-449l737 -1v-188h-951zM790 1567l-138 133l-150 -133h-178l254 234h152l249 -234h-189zM916 2042l158 -248h-131l-215 248h188z" />
    <glyph glyph-name="uni1EC2" unicode="&#x1ec2;" horiz-adv-x="1249" 
d="M183 0v1446h934l-1 -186h-718v-439h641v-183h-642v-449l737 -1v-188h-951zM795 1567l-138 133l-150 -133h-178l254 234h152l249 -234h-189zM702 2066l58 -90q39 26 80.5 26t60.5 -32q21 -33 4.5 -69t-58.5 -63l59 -90q92 56 116.5 131.5t-26.5 153.5q-42 66 -125 77.5
t-169 -44.5z" />
    <glyph glyph-name="uni1EC4" unicode="&#x1ec4;" horiz-adv-x="1249" 
d="M183 0v1446h934l-1 -186h-718v-439h641v-183h-642v-449l737 -1v-188h-951zM792 1567l-138 133l-150 -133h-178l254 234h152l249 -234h-189zM966 1973q-27 -21 -71.5 -41.5t-108.5 -20.5q-54 0 -96 13.5t-81 26.5t-86 13q-50 0 -81 -16t-64 -42l-38 121q34 33 74 56
t100 23q51 0 96 -14t88.5 -28.5t87.5 -14.5q47 0 82 18.5t65 40.5z" />
    <glyph glyph-name="uni0204" unicode="&#x204;" horiz-adv-x="1249" 
d="M183 0v1446h934l-1 -186h-718v-439h641v-183h-642v-449l737 -1v-188h-951zM684 1858l197 -291h-161l-250 291h214zM343 1858l239 -291h-161l-297 291h219z" />
    <glyph glyph-name="Edieresis" unicode="&#xcb;" horiz-adv-x="1249" 
d="M183 0v1446h934l-1 -186h-718v-439h641v-183h-642v-449l737 -1v-188h-951zM754 1619l2 195h206l-2 -195h-206zM344 1619l2 195h206l-2 -195h-206z" />
    <glyph glyph-name="Edotaccent" unicode="&#x116;" horiz-adv-x="1249" 
d="M183 0v1446h934l-1 -186h-718v-439h641v-183h-642v-449l737 -1v-188h-951zM546 1619v195h212v-195h-212z" />
    <glyph glyph-name="uni1EB8" unicode="&#x1eb8;" horiz-adv-x="1249" 
d="M183 0v1446h934l-1 -186h-718v-439h641v-183h-642v-449l737 -1v-188h-951zM577 -370v195h212v-195h-212z" />
    <glyph glyph-name="Egrave" unicode="&#xc8;" horiz-adv-x="1249" 
d="M183 0v1446h934l-1 -186h-718v-439h641v-183h-642v-449l737 -1v-188h-951zM525 1858h-235l280 -291h161z" />
    <glyph glyph-name="uni1EBA" unicode="&#x1eba;" horiz-adv-x="1249" 
d="M183 0v1446h934l-1 -186h-718v-439h641v-183h-642v-449l737 -1v-188h-951zM515 1882l58 -90q39 26 80.5 26t60.5 -32q21 -33 4.5 -69t-58.5 -63l59 -90q92 56 116.5 131.5t-26.5 153.5q-42 66 -125 77.5t-169 -44.5z" />
    <glyph glyph-name="uni0206" unicode="&#x206;" horiz-adv-x="1249" 
d="M183 0v1446h934l-1 -186h-718v-439h641v-183h-642v-449l737 -1v-188h-951zM965 1612q-15 72 -60 122.5t-111.5 77.5t-145.5 27q-76 0 -142 -26t-111.5 -77t-61.5 -124h148q16 48 59.5 78.5t107.5 30.5q63 0 108 -30.5t62 -78.5h147z" />
    <glyph glyph-name="Emacron" unicode="&#x112;" horiz-adv-x="1249" 
d="M183 0v1446h934l-1 -186h-718v-439h641v-183h-642v-449l737 -1v-188h-951zM965 1785v-146h-625v146h625z" />
    <glyph glyph-name="Eogonek" unicode="&#x118;" horiz-adv-x="1249" 
d="M183 0v1446h934l-1 -186h-718v-439h641v-183h-642v-449l737 -1v-188h-951zM798 -175q0 58 41 105.5t160 85.5l153 -10q-102 -42 -145.5 -77.5t-43.5 -82.5q0 -35 20.5 -53t66.5 -18q47 0 83.5 13t60.5 26v-106q-26 -16 -79 -29.5t-114 -13.5q-99 0 -151 42t-52 118z" />
    <glyph glyph-name="uni1EBC" unicode="&#x1ebc;" horiz-adv-x="1249" 
d="M183 0v1446h934l-1 -186h-718v-439h641v-183h-642v-449l737 -1v-188h-951zM969 1691q-27 -21 -71.5 -41.5t-108.5 -20.5q-54 0 -96 13.5t-81 26.5t-86 13q-50 0 -81 -16t-64 -42l-38 121q34 33 74 56t100 23q51 0 96 -14t88.5 -28.5t87.5 -14.5q47 0 82 18.5t65 40.5z
" />
    <glyph glyph-name="F" unicode="F" horiz-adv-x="1198" 
d="M183 1446h924l-1 -184h-705v-447h627v-182h-627v-633h-218v1446z" />
    <glyph glyph-name="G" unicode="G" horiz-adv-x="1480" 
d="M729 -20q-193 0 -333 88t-215.5 253.5t-75.5 397.5q0 234 77.5 401.5t220.5 256.5t336 89q115 0 213.5 -39t174 -106t119.5 -152t50 -178h-228q-14 77 -59.5 142.5t-115.5 105.5t-158 40q-117 0 -207 -58t-140.5 -180.5t-50.5 -316.5q0 -151 31.5 -257t86.5 -171
t129 -94.5t158 -29.5q83 0 146 29t105.5 75t66 99.5t27.5 103.5l7 117h-338v154l561 -2v-748h-155v212q-38 -59 -95 -112t-140 -86.5t-198 -33.5z" />
    <glyph glyph-name="Gbreve" unicode="&#x11e;" horiz-adv-x="1480" 
d="M729 -20q-193 0 -333 88t-215.5 253.5t-75.5 397.5q0 234 77.5 401.5t220.5 256.5t336 89q115 0 213.5 -39t174 -106t119.5 -152t50 -178h-228q-14 77 -59.5 142.5t-115.5 105.5t-158 40q-117 0 -207 -58t-140.5 -180.5t-50.5 -316.5q0 -151 31.5 -257t86.5 -171
t129 -94.5t158 -29.5q83 0 146 29t105.5 75t66 99.5t27.5 103.5l7 117h-338v154l561 -2v-748h-155v212q-38 -59 -95 -112t-140 -86.5t-198 -33.5zM1050 1792q-15 -72 -60 -122.5t-111.5 -77.5t-145.5 -27q-76 0 -142 26t-111.5 77t-61.5 124h148q16 -48 59.5 -78.5
t107.5 -30.5q63 0 108 30.5t62 78.5h147z" />
    <glyph glyph-name="Gcircumflex" unicode="&#x11c;" horiz-adv-x="1480" 
d="M729 -20q-193 0 -333 88t-215.5 253.5t-75.5 397.5q0 234 77.5 401.5t220.5 256.5t336 89q115 0 213.5 -39t174 -106t119.5 -152t50 -178h-228q-14 77 -59.5 142.5t-115.5 105.5t-158 40q-117 0 -207 -58t-140.5 -180.5t-50.5 -316.5q0 -151 31.5 -257t86.5 -171
t129 -94.5t158 -29.5q83 0 146 29t105.5 75t66 99.5t27.5 103.5l7 117h-338v154l561 -2v-748h-155v212q-38 -59 -95 -112t-140 -86.5t-198 -33.5zM871 1567l-138 133l-150 -133h-178l254 234h152l249 -234h-189z" />
    <glyph glyph-name="uni0122" unicode="&#x122;" horiz-adv-x="1480" 
d="M729 -20q-193 0 -333 88t-215.5 253.5t-75.5 397.5q0 234 77.5 401.5t220.5 256.5t336 89q115 0 213.5 -39t174 -106t119.5 -152t50 -178h-228q-14 77 -59.5 142.5t-115.5 105.5t-158 40q-117 0 -207 -58t-140.5 -180.5t-50.5 -316.5q0 -151 31.5 -257t86.5 -171
t129 -94.5t158 -29.5q83 0 146 29t105.5 75t66 99.5t27.5 103.5l7 117h-338v154l561 -2v-748h-155v212q-38 -59 -95 -112t-140 -86.5t-198 -33.5zM613 -397l84 131l-67 7v163h203v-137l-137 -164h-83z" />
    <glyph glyph-name="Gdotaccent" unicode="&#x120;" horiz-adv-x="1480" 
d="M729 -20q-193 0 -333 88t-215.5 253.5t-75.5 397.5q0 234 77.5 401.5t220.5 256.5t336 89q115 0 213.5 -39t174 -106t119.5 -152t50 -178h-228q-14 77 -59.5 142.5t-115.5 105.5t-158 40q-117 0 -207 -58t-140.5 -180.5t-50.5 -316.5q0 -151 31.5 -257t86.5 -171
t129 -94.5t158 -29.5q83 0 146 29t105.5 75t66 99.5t27.5 103.5l7 117h-338v154l561 -2v-748h-155v212q-38 -59 -95 -112t-140 -86.5t-198 -33.5zM628 1619v195h212v-195h-212z" />
    <glyph glyph-name="H" unicode="H" horiz-adv-x="1534" 
d="M1137 654h-740v-654h-214v1446h214v-606h740v606h214v-1446h-214v654z" />
    <glyph glyph-name="Hbar" unicode="&#x126;" horiz-adv-x="1601" 
d="M1572 1240v-132h-1543v132h1543zM1178 654h-741v-654h-214v1446h214v-606h741v606h214v-1446h-214v654z" />
    <glyph glyph-name="Hcircumflex" unicode="&#x124;" horiz-adv-x="1534" 
d="M1137 654h-740v-654h-214v1446h214v-606h740v606h214v-1446h-214v654zM903 1574l-138 133l-150 -133h-178l254 234h152l249 -234h-189z" />
    <glyph glyph-name="uni1E24" unicode="&#x1e24;" horiz-adv-x="1534" 
d="M1137 654h-740v-654h-214v1446h214v-606h740v606h214v-1446h-214v654zM674 -370v195h212v-195h-212z" />
    <glyph glyph-name="I" unicode="I" horiz-adv-x="580" 
d="M183 1446h214v-1446h-214v1446z" />
    <glyph glyph-name="Iacute" unicode="&#xcd;" horiz-adv-x="580" 
d="M183 1446h214v-1446h-214v1446zM414 1858h235l-280 -291h-161z" />
    <glyph glyph-name="Ibreve" unicode="&#x12c;" horiz-adv-x="580" 
d="M183 1446h214v-1446h-214v1446zM607 1792q-15 -72 -60 -122.5t-111.5 -77.5t-145.5 -27q-76 0 -142 26t-111.5 77t-61.5 124h148q16 -48 59.5 -78.5t107.5 -30.5q63 0 108 30.5t62 78.5h147z" />
    <glyph glyph-name="Icircumflex" unicode="&#xce;" horiz-adv-x="580" 
d="M183 1446h214v-1446h-214v1446zM428 1567l-138 133l-150 -133h-178l254 234h152l249 -234h-189z" />
    <glyph glyph-name="uni0208" unicode="&#x208;" horiz-adv-x="580" 
d="M183 1446h214v-1446h-214v1446zM322 1858l197 -291h-161l-250 291h214zM-19 1858l239 -291h-161l-297 291h219z" />
    <glyph glyph-name="Idieresis" unicode="&#xcf;" horiz-adv-x="580" 
d="M183 1446h214v-1446h-214v1446zM392 1619l2 195h206l-2 -195h-206zM-18 1619l2 195h206l-2 -195h-206z" />
    <glyph glyph-name="Idotaccent" unicode="&#x130;" horiz-adv-x="580" 
d="M183 1446h214v-1446h-214v1446zM184 1619v195h212v-195h-212z" />
    <glyph glyph-name="uni1ECA" unicode="&#x1eca;" horiz-adv-x="580" 
d="M183 1446h214v-1446h-214v1446zM195 -370v195h212v-195h-212z" />
    <glyph glyph-name="Igrave" unicode="&#xcc;" horiz-adv-x="580" 
d="M183 1446h214v-1446h-214v1446zM163 1858h-235l280 -291h161z" />
    <glyph glyph-name="uni1EC8" unicode="&#x1ec8;" horiz-adv-x="580" 
d="M183 1446h214v-1446h-214v1446zM153 1882l58 -90q39 26 80.5 26t60.5 -32q21 -33 4.5 -69t-58.5 -63l59 -90q92 56 116.5 131.5t-26.5 153.5q-42 66 -125 77.5t-169 -44.5z" />
    <glyph glyph-name="uni020A" unicode="&#x20a;" horiz-adv-x="580" 
d="M183 1446h214v-1446h-214v1446zM603 1612q-15 72 -60 122.5t-111.5 77.5t-145.5 27q-76 0 -142 -26t-111.5 -77t-61.5 -124h148q16 48 59.5 78.5t107.5 30.5q63 0 108 -30.5t62 -78.5h147z" />
    <glyph glyph-name="Imacron" unicode="&#x12a;" horiz-adv-x="580" 
d="M183 1446h214v-1446h-214v1446zM603 1785v-146h-625v146h625z" />
    <glyph glyph-name="Iogonek" unicode="&#x12e;" horiz-adv-x="580" 
d="M183 1446h214v-1446h-214v1446zM41 -181q0 58 41 105.5t160 85.5l153 -10q-102 -42 -145.5 -77.5t-43.5 -82.5q0 -35 20.5 -53t66.5 -18q47 0 83.5 13t60.5 26v-106q-26 -16 -79 -29.5t-114 -13.5q-99 0 -151 42t-52 118z" />
    <glyph glyph-name="Itilde" unicode="&#x128;" horiz-adv-x="580" 
d="M183 1446h214v-1446h-214v1446zM607 1691q-27 -21 -71.5 -41.5t-108.5 -20.5q-54 0 -96 13.5t-81 26.5t-86 13q-50 0 -81 -16t-64 -42l-38 121q34 33 74 56t100 23q51 0 96 -14t88.5 -28.5t87.5 -14.5q47 0 82 18.5t65 40.5z" />
    <glyph glyph-name="J" unicode="J" horiz-adv-x="784" 
d="M638 358q0 -122 -27.5 -206.5t-97.5 -128t-200 -43.5q-74 0 -143 16t-95 25l11 202q31 -10 70.5 -24.5t96.5 -14.5q98 0 134 54t36 179v1029h215v-1088z" />
    <glyph glyph-name="Jcircumflex" unicode="&#x134;" horiz-adv-x="784" 
d="M638 358q0 -122 -27.5 -206.5t-97.5 -128t-200 -43.5q-74 0 -143 16t-95 25l11 202q31 -10 70.5 -24.5t96.5 -14.5q98 0 134 54t36 179v1029h215v-1088zM663 1567l-138 133l-150 -133h-178l254 234h152l249 -234h-189z" />
    <glyph glyph-name="K" unicode="K" horiz-adv-x="1383" 
d="M1317 0h-238l-433 724l-240 -279v-445h-223v1446h223v-725l615 725h252l-472 -566z" />
    <glyph glyph-name="uni0136" unicode="&#x136;" horiz-adv-x="1383" 
d="M1317 0h-238l-433 724l-240 -279v-445h-223v1446h223v-725l615 725h252l-472 -566zM571 -397l84 131l-67 7v163h203v-137l-137 -164h-83z" />
    <glyph glyph-name="L" unicode="L" horiz-adv-x="1155" 
d="M184 1446h217v-1258h668v-188h-886z" />
    <glyph glyph-name="Lacute" unicode="&#x139;" horiz-adv-x="1155" 
d="M184 1446h217v-1258h668v-188h-886zM413 1858h235l-280 -291h-161z" />
    <glyph glyph-name="Lcaron" unicode="&#x13d;" horiz-adv-x="1155" 
d="M184 1446h217v-1258h668v-188h-886zM887 1052l78 189l-59 10v202h165v-212l-81 -189h-103z" />
    <glyph glyph-name="uni013B" unicode="&#x13b;" horiz-adv-x="1155" 
d="M184 1446h217v-1258h668v-188h-886zM500 -397l84 131l-67 7v163h203v-137l-137 -164h-83z" />
    <glyph glyph-name="Ldot" unicode="&#x13f;" horiz-adv-x="1155" 
d="M184 1446h217v-1258h668v-188h-886zM1053 912v-239h-248v239h248z" />
    <glyph glyph-name="Lslash" unicode="&#x141;" horiz-adv-x="1167" 
d="M739 958v-173l-705 -193v182zM196 1446h217v-1258h668v-188h-886z" />
    <glyph glyph-name="M" unicode="M" horiz-adv-x="1788" 
d="M183 0v1446h302l407 -1150l413 1150h300v-1446h-219v1152l-400 -1152h-187l-398 1143v-1143h-218z" />
    <glyph glyph-name="N" unicode="N" horiz-adv-x="1523" 
d="M1126 1446h215v-1446h-192l-752 1101v-1101h-214v1446h207l736 -1078v1078z" />
    <glyph glyph-name="Nacute" unicode="&#x143;" horiz-adv-x="1523" 
d="M1126 1446h215v-1446h-192l-752 1101v-1101h-214v1446h207l736 -1078v1078zM884 1858h235l-280 -291h-161z" />
    <glyph glyph-name="Ncaron" unicode="&#x147;" horiz-adv-x="1523" 
d="M1126 1446h215v-1446h-192l-752 1101v-1101h-214v1446h207l736 -1078v1078zM686 1567l-254 235h179l150 -139l138 139h189l-249 -235h-153z" />
    <glyph glyph-name="uni0145" unicode="&#x145;" horiz-adv-x="1523" 
d="M1126 1446h215v-1446h-192l-752 1101v-1101h-214v1446h207l736 -1078v1078zM618 -397l84 131l-67 7v163h203v-137l-137 -164h-83z" />
    <glyph glyph-name="uni1E44" unicode="&#x1e44;" horiz-adv-x="1523" 
d="M1126 1446h215v-1446h-192l-752 1101v-1101h-214v1446h207l736 -1078v1078zM655 1619v195h212v-195h-212z" />
    <glyph glyph-name="Eng" unicode="&#x14a;" horiz-adv-x="1525" 
d="M1126 1446h215v-1446h-192l-752 1101v-1101h-214v1446h207l736 -1078v1078zM1339 -102q0 -122 -27.5 -206.5t-97.5 -128t-200 -43.5q-74 0 -143 16t-95 25l11 202q30 -10 70 -24.5t96 -14.5q99 0 135.5 54t36.5 179v128h214v-187z" />
    <glyph glyph-name="Ntilde" unicode="&#xd1;" horiz-adv-x="1523" 
d="M1126 1446h215v-1446h-192l-752 1101v-1101h-214v1446h207l736 -1078v1078zM1078 1691q-27 -21 -71.5 -41.5t-108.5 -20.5q-54 0 -96 13.5t-81 26.5t-86 13q-50 0 -81 -16t-64 -42l-38 121q34 33 74 56t100 23q51 0 96 -14t88.5 -28.5t87.5 -14.5q47 0 82 18.5t65 40.5z
" />
    <glyph glyph-name="O" unicode="O" horiz-adv-x="1482" 
d="M744 -20q-197 0 -340.5 87.5t-221 253t-77.5 399.5q0 236 78.5 402.5t222 255t338.5 88.5q194 0 336.5 -88.5t220 -255t77.5 -402.5q0 -234 -77 -399t-219.5 -253t-337.5 -88zM744 163q126 0 215.5 58t136.5 181t47 315q0 197 -47.5 322t-137 184.5t-214.5 59.5
t-215.5 -60t-139.5 -185t-49 -321q0 -193 49 -315.5t139.5 -180.5t215.5 -58z" />
    <glyph glyph-name="Oacute" unicode="&#xd3;" horiz-adv-x="1482" 
d="M744 -20q-197 0 -340.5 87.5t-221 253t-77.5 399.5q0 236 78.5 402.5t222 255t338.5 88.5q194 0 336.5 -88.5t220 -255t77.5 -402.5q0 -234 -77 -399t-219.5 -253t-337.5 -88zM744 163q126 0 215.5 58t136.5 181t47 315q0 197 -47.5 322t-137 184.5t-214.5 59.5
t-215.5 -60t-139.5 -185t-49 -321q0 -193 49 -315.5t139.5 -180.5t215.5 -58zM867 1858h235l-280 -291h-161z" />
    <glyph glyph-name="Obreve" unicode="&#x14e;" horiz-adv-x="1482" 
d="M744 -20q-197 0 -340.5 87.5t-221 253t-77.5 399.5q0 236 78.5 402.5t222 255t338.5 88.5q194 0 336.5 -88.5t220 -255t77.5 -402.5q0 -234 -77 -399t-219.5 -253t-337.5 -88zM744 163q126 0 215.5 58t136.5 181t47 315q0 197 -47.5 322t-137 184.5t-214.5 59.5
t-215.5 -60t-139.5 -185t-49 -321q0 -193 49 -315.5t139.5 -180.5t215.5 -58zM1059 1792q-15 -72 -60 -122.5t-111.5 -77.5t-145.5 -27q-76 0 -142 26t-111.5 77t-61.5 124h148q16 -48 59.5 -78.5t107.5 -30.5q63 0 108 30.5t62 78.5h147z" />
    <glyph glyph-name="Ocircumflex" unicode="&#xd4;" horiz-adv-x="1482" 
d="M744 -20q-197 0 -340.5 87.5t-221 253t-77.5 399.5q0 236 78.5 402.5t222 255t338.5 88.5q194 0 336.5 -88.5t220 -255t77.5 -402.5q0 -234 -77 -399t-219.5 -253t-337.5 -88zM744 163q126 0 215.5 58t136.5 181t47 315q0 197 -47.5 322t-137 184.5t-214.5 59.5
t-215.5 -60t-139.5 -185t-49 -321q0 -193 49 -315.5t139.5 -180.5t215.5 -58zM881 1567l-138 133l-150 -133h-178l254 234h152l249 -234h-189z" />
    <glyph glyph-name="uni1ED0" unicode="&#x1ed0;" horiz-adv-x="1482" 
d="M744 -20q-197 0 -340.5 87.5t-221 253t-77.5 399.5q0 236 78.5 402.5t222 255t338.5 88.5q194 0 336.5 -88.5t220 -255t77.5 -402.5q0 -234 -77 -399t-219.5 -253t-337.5 -88zM744 163q126 0 215.5 58t136.5 181t47 315q0 197 -47.5 322t-137 184.5t-214.5 59.5
t-215.5 -60t-139.5 -185t-49 -321q0 -193 49 -315.5t139.5 -180.5t215.5 -58zM881 1567l-138 133l-150 -133h-178l254 234h152l249 -234h-189zM1086 2042h188l-208 -248h-127z" />
    <glyph glyph-name="uni1ED8" unicode="&#x1ed8;" horiz-adv-x="1482" 
d="M744 -20q-197 0 -340.5 87.5t-221 253t-77.5 399.5q0 236 78.5 402.5t222 255t338.5 88.5q194 0 336.5 -88.5t220 -255t77.5 -402.5q0 -234 -77 -399t-219.5 -253t-337.5 -88zM744 163q126 0 215.5 58t136.5 181t47 315q0 197 -47.5 322t-137 184.5t-214.5 59.5
t-215.5 -60t-139.5 -185t-49 -321q0 -193 49 -315.5t139.5 -180.5t215.5 -58zM640 -370v195h212v-195h-212zM881 1567l-138 133l-150 -133h-178l254 234h152l249 -234h-189z" />
    <glyph glyph-name="uni1ED2" unicode="&#x1ed2;" horiz-adv-x="1482" 
d="M744 -20q-197 0 -340.5 87.5t-221 253t-77.5 399.5q0 236 78.5 402.5t222 255t338.5 88.5q194 0 336.5 -88.5t220 -255t77.5 -402.5q0 -234 -77 -399t-219.5 -253t-337.5 -88zM744 163q126 0 215.5 58t136.5 181t47 315q0 197 -47.5 322t-137 184.5t-214.5 59.5
t-215.5 -60t-139.5 -185t-49 -321q0 -193 49 -315.5t139.5 -180.5t215.5 -58zM881 1567l-138 133l-150 -133h-178l254 234h152l249 -234h-189zM1007 2042l158 -248h-131l-215 248h188z" />
    <glyph glyph-name="uni1ED4" unicode="&#x1ed4;" horiz-adv-x="1482" 
d="M744 -20q-197 0 -340.5 87.5t-221 253t-77.5 399.5q0 236 78.5 402.5t222 255t338.5 88.5q194 0 336.5 -88.5t220 -255t77.5 -402.5q0 -234 -77 -399t-219.5 -253t-337.5 -88zM744 163q126 0 215.5 58t136.5 181t47 315q0 197 -47.5 322t-137 184.5t-214.5 59.5
t-215.5 -60t-139.5 -185t-49 -321q0 -193 49 -315.5t139.5 -180.5t215.5 -58zM886 1567l-138 133l-150 -133h-178l254 234h152l249 -234h-189zM793 2066l58 -90q39 26 80.5 26t60.5 -32q21 -33 4.5 -69t-58.5 -63l59 -90q92 56 116.5 131.5t-26.5 153.5q-42 66 -125 77.5
t-169 -44.5z" />
    <glyph glyph-name="uni1ED6" unicode="&#x1ed6;" horiz-adv-x="1482" 
d="M744 -20q-197 0 -340.5 87.5t-221 253t-77.5 399.5q0 236 78.5 402.5t222 255t338.5 88.5q194 0 336.5 -88.5t220 -255t77.5 -402.5q0 -234 -77 -399t-219.5 -253t-337.5 -88zM744 163q126 0 215.5 58t136.5 181t47 315q0 197 -47.5 322t-137 184.5t-214.5 59.5
t-215.5 -60t-139.5 -185t-49 -321q0 -193 49 -315.5t139.5 -180.5t215.5 -58zM883 1567l-138 133l-150 -133h-178l254 234h152l249 -234h-189zM1057 1973q-27 -21 -71.5 -41.5t-108.5 -20.5q-54 0 -96 13.5t-81 26.5t-86 13q-50 0 -81 -16t-64 -42l-38 121q34 33 74 56
t100 23q51 0 96 -14t88.5 -28.5t87.5 -14.5q47 0 82 18.5t65 40.5z" />
    <glyph glyph-name="uni020C" unicode="&#x20c;" horiz-adv-x="1482" 
d="M744 -20q-197 0 -340.5 87.5t-221 253t-77.5 399.5q0 236 78.5 402.5t222 255t338.5 88.5q194 0 336.5 -88.5t220 -255t77.5 -402.5q0 -234 -77 -399t-219.5 -253t-337.5 -88zM744 163q126 0 215.5 58t136.5 181t47 315q0 197 -47.5 322t-137 184.5t-214.5 59.5
t-215.5 -60t-139.5 -185t-49 -321q0 -193 49 -315.5t139.5 -180.5t215.5 -58zM775 1858l197 -291h-161l-250 291h214zM434 1858l239 -291h-161l-297 291h219z" />
    <glyph glyph-name="Odieresis" unicode="&#xd6;" horiz-adv-x="1482" 
d="M744 -20q-197 0 -340.5 87.5t-221 253t-77.5 399.5q0 236 78.5 402.5t222 255t338.5 88.5q194 0 336.5 -88.5t220 -255t77.5 -402.5q0 -234 -77 -399t-219.5 -253t-337.5 -88zM744 163q126 0 215.5 58t136.5 181t47 315q0 197 -47.5 322t-137 184.5t-214.5 59.5
t-215.5 -60t-139.5 -185t-49 -321q0 -193 49 -315.5t139.5 -180.5t215.5 -58zM845 1619l2 195h206l-2 -195h-206zM435 1619l2 195h206l-2 -195h-206z" />
    <glyph glyph-name="uni1ECC" unicode="&#x1ecc;" horiz-adv-x="1482" 
d="M744 -20q-197 0 -340.5 87.5t-221 253t-77.5 399.5q0 236 78.5 402.5t222 255t338.5 88.5q194 0 336.5 -88.5t220 -255t77.5 -402.5q0 -234 -77 -399t-219.5 -253t-337.5 -88zM744 163q126 0 215.5 58t136.5 181t47 315q0 197 -47.5 322t-137 184.5t-214.5 59.5
t-215.5 -60t-139.5 -185t-49 -321q0 -193 49 -315.5t139.5 -180.5t215.5 -58zM640 -370v195h212v-195h-212z" />
    <glyph glyph-name="Ograve" unicode="&#xd2;" horiz-adv-x="1482" 
d="M744 -20q-197 0 -340.5 87.5t-221 253t-77.5 399.5q0 236 78.5 402.5t222 255t338.5 88.5q194 0 336.5 -88.5t220 -255t77.5 -402.5q0 -234 -77 -399t-219.5 -253t-337.5 -88zM744 163q126 0 215.5 58t136.5 181t47 315q0 197 -47.5 322t-137 184.5t-214.5 59.5
t-215.5 -60t-139.5 -185t-49 -321q0 -193 49 -315.5t139.5 -180.5t215.5 -58zM616 1858h-235l280 -291h161z" />
    <glyph glyph-name="uni1ECE" unicode="&#x1ece;" horiz-adv-x="1482" 
d="M744 -20q-197 0 -340.5 87.5t-221 253t-77.5 399.5q0 236 78.5 402.5t222 255t338.5 88.5q194 0 336.5 -88.5t220 -255t77.5 -402.5q0 -234 -77 -399t-219.5 -253t-337.5 -88zM744 163q126 0 215.5 58t136.5 181t47 315q0 197 -47.5 322t-137 184.5t-214.5 59.5
t-215.5 -60t-139.5 -185t-49 -321q0 -193 49 -315.5t139.5 -180.5t215.5 -58zM606 1882l58 -90q39 26 80.5 26t60.5 -32q21 -33 4.5 -69t-58.5 -63l59 -90q92 56 116.5 131.5t-26.5 153.5q-42 66 -125 77.5t-169 -44.5z" />
    <glyph glyph-name="Ohorn" unicode="&#x1a0;" horiz-adv-x="1598" 
d="M744 -20q-197 0 -340.5 87.5t-221 253t-77.5 399.5q0 236 78.5 402.5t222 255t338.5 88.5q194 0 336.5 -88.5t220 -255t77.5 -402.5q0 -234 -77 -399t-219.5 -253t-337.5 -88zM744 163q126 0 215.5 58t136.5 181t47 315q0 197 -47.5 322t-137 184.5t-214.5 59.5
t-215.5 -60t-139.5 -185t-49 -321q0 -193 49 -315.5t139.5 -180.5t215.5 -58zM1523 1480q-1 -125 -33.5 -200.5t-106.5 -104.5t-201 -15v116q47 -1 80 5t53.5 26t32.5 61.5t15 111.5h160z" />
    <glyph glyph-name="uni1EDA" unicode="&#x1eda;" horiz-adv-x="1598" 
d="M744 -20q-197 0 -340.5 87.5t-221 253t-77.5 399.5q0 236 78.5 402.5t222 255t338.5 88.5q194 0 336.5 -88.5t220 -255t77.5 -402.5q0 -234 -77 -399t-219.5 -253t-337.5 -88zM744 163q126 0 215.5 58t136.5 181t47 315q0 197 -47.5 322t-137 184.5t-214.5 59.5
t-215.5 -60t-139.5 -185t-49 -321q0 -193 49 -315.5t139.5 -180.5t215.5 -58zM1523 1480q-1 -125 -33.5 -200.5t-106.5 -104.5t-201 -15v116q47 -1 80 5t53.5 26t32.5 61.5t15 111.5h160zM867 1858h235l-280 -291h-161z" />
    <glyph glyph-name="uni1EE2" unicode="&#x1ee2;" horiz-adv-x="1598" 
d="M744 -20q-197 0 -340.5 87.5t-221 253t-77.5 399.5q0 236 78.5 402.5t222 255t338.5 88.5q194 0 336.5 -88.5t220 -255t77.5 -402.5q0 -234 -77 -399t-219.5 -253t-337.5 -88zM744 163q126 0 215.5 58t136.5 181t47 315q0 197 -47.5 322t-137 184.5t-214.5 59.5
t-215.5 -60t-139.5 -185t-49 -321q0 -193 49 -315.5t139.5 -180.5t215.5 -58zM1523 1480q-1 -125 -33.5 -200.5t-106.5 -104.5t-201 -15v116q47 -1 80 5t53.5 26t32.5 61.5t15 111.5h160zM640 -370v195h212v-195h-212z" />
    <glyph glyph-name="uni1EDC" unicode="&#x1edc;" horiz-adv-x="1598" 
d="M744 -20q-197 0 -340.5 87.5t-221 253t-77.5 399.5q0 236 78.5 402.5t222 255t338.5 88.5q194 0 336.5 -88.5t220 -255t77.5 -402.5q0 -234 -77 -399t-219.5 -253t-337.5 -88zM744 163q126 0 215.5 58t136.5 181t47 315q0 197 -47.5 322t-137 184.5t-214.5 59.5
t-215.5 -60t-139.5 -185t-49 -321q0 -193 49 -315.5t139.5 -180.5t215.5 -58zM1523 1480q-1 -125 -33.5 -200.5t-106.5 -104.5t-201 -15v116q47 -1 80 5t53.5 26t32.5 61.5t15 111.5h160zM616 1858h-235l280 -291h161z" />
    <glyph glyph-name="uni1EDE" unicode="&#x1ede;" horiz-adv-x="1598" 
d="M744 -20q-197 0 -340.5 87.5t-221 253t-77.5 399.5q0 236 78.5 402.5t222 255t338.5 88.5q194 0 336.5 -88.5t220 -255t77.5 -402.5q0 -234 -77 -399t-219.5 -253t-337.5 -88zM744 163q126 0 215.5 58t136.5 181t47 315q0 197 -47.5 322t-137 184.5t-214.5 59.5
t-215.5 -60t-139.5 -185t-49 -321q0 -193 49 -315.5t139.5 -180.5t215.5 -58zM1523 1480q-1 -125 -33.5 -200.5t-106.5 -104.5t-201 -15v116q47 -1 80 5t53.5 26t32.5 61.5t15 111.5h160zM606 1882l58 -90q39 26 80.5 26t60.5 -32q21 -33 4.5 -69t-58.5 -63l59 -90
q92 56 116.5 131.5t-26.5 153.5q-42 66 -125 77.5t-169 -44.5z" />
    <glyph glyph-name="uni1EE0" unicode="&#x1ee0;" horiz-adv-x="1598" 
d="M744 -20q-197 0 -340.5 87.5t-221 253t-77.5 399.5q0 236 78.5 402.5t222 255t338.5 88.5q194 0 336.5 -88.5t220 -255t77.5 -402.5q0 -234 -77 -399t-219.5 -253t-337.5 -88zM744 163q126 0 215.5 58t136.5 181t47 315q0 197 -47.5 322t-137 184.5t-214.5 59.5
t-215.5 -60t-139.5 -185t-49 -321q0 -193 49 -315.5t139.5 -180.5t215.5 -58zM1523 1480q-1 -125 -33.5 -200.5t-106.5 -104.5t-201 -15v116q47 -1 80 5t53.5 26t32.5 61.5t15 111.5h160zM1060 1691q-27 -21 -71.5 -41.5t-108.5 -20.5q-54 0 -96 13.5t-81 26.5t-86 13
q-50 0 -81 -16t-64 -42l-38 121q34 33 74 56t100 23q51 0 96 -14t88.5 -28.5t87.5 -14.5q47 0 82 18.5t65 40.5z" />
    <glyph glyph-name="Ohungarumlaut" unicode="&#x150;" horiz-adv-x="1482" 
d="M744 -20q-197 0 -340.5 87.5t-221 253t-77.5 399.5q0 236 78.5 402.5t222 255t338.5 88.5q194 0 336.5 -88.5t220 -255t77.5 -402.5q0 -234 -77 -399t-219.5 -253t-337.5 -88zM744 163q126 0 215.5 58t136.5 181t47 315q0 197 -47.5 322t-137 184.5t-214.5 59.5
t-215.5 -60t-139.5 -185t-49 -321q0 -193 49 -315.5t139.5 -180.5t215.5 -58zM715 1858l-197 -291h161l250 291h-214zM1056 1858l-239 -291h161l297 291h-219z" />
    <glyph glyph-name="uni020E" unicode="&#x20e;" horiz-adv-x="1482" 
d="M744 -20q-197 0 -340.5 87.5t-221 253t-77.5 399.5q0 236 78.5 402.5t222 255t338.5 88.5q194 0 336.5 -88.5t220 -255t77.5 -402.5q0 -234 -77 -399t-219.5 -253t-337.5 -88zM744 163q126 0 215.5 58t136.5 181t47 315q0 197 -47.5 322t-137 184.5t-214.5 59.5
t-215.5 -60t-139.5 -185t-49 -321q0 -193 49 -315.5t139.5 -180.5t215.5 -58zM1056 1612q-15 72 -60 122.5t-111.5 77.5t-145.5 27q-76 0 -142 -26t-111.5 -77t-61.5 -124h148q16 48 59.5 78.5t107.5 30.5q63 0 108 -30.5t62 -78.5h147z" />
    <glyph glyph-name="Omacron" unicode="&#x14c;" horiz-adv-x="1482" 
d="M744 -20q-197 0 -340.5 87.5t-221 253t-77.5 399.5q0 236 78.5 402.5t222 255t338.5 88.5q194 0 336.5 -88.5t220 -255t77.5 -402.5q0 -234 -77 -399t-219.5 -253t-337.5 -88zM744 163q126 0 215.5 58t136.5 181t47 315q0 197 -47.5 322t-137 184.5t-214.5 59.5
t-215.5 -60t-139.5 -185t-49 -321q0 -193 49 -315.5t139.5 -180.5t215.5 -58zM1056 1785v-146h-625v146h625z" />
    <glyph glyph-name="uni01EA" unicode="&#x1ea;" horiz-adv-x="1482" 
d="M744 -20q-197 0 -340.5 87.5t-221 253t-77.5 399.5q0 236 78.5 402.5t222 255t338.5 88.5q194 0 336.5 -88.5t220 -255t77.5 -402.5q0 -234 -77 -399t-219.5 -253t-337.5 -88zM744 163q126 0 215.5 58t136.5 181t47 315q0 197 -47.5 322t-137 184.5t-214.5 59.5
t-215.5 -60t-139.5 -185t-49 -321q0 -193 49 -315.5t139.5 -180.5t215.5 -58zM571 -176q0 58 41 105.5t160 85.5l153 -10q-102 -42 -145.5 -77.5t-43.5 -82.5q0 -35 20.5 -53t66.5 -18q47 0 83.5 13t60.5 26v-106q-26 -16 -79 -29.5t-114 -13.5q-99 0 -151 42t-52 118z" />
    <glyph glyph-name="Oslash" unicode="&#xd8;" horiz-adv-x="1515" 
d="M160 -27l-107 107l169 183q-51 88 -78.5 202t-27.5 253q0 236 78 403t221 256t339 89q135 0 244.5 -42.5t190.5 -125.5l162 173l107 -105l-175 -190q52 -88 79 -203t27 -253q0 -234 -77 -399.5t-220 -253t-339 -87.5q-135 0 -244.5 41.5t-188.5 120.5zM755 160
q174 0 265 113.5t100 351.5q5 96 -2.5 185t-28.5 172l-621 -687q94 -135 287 -135zM415 457l623 688q-46 73 -117 108t-167 35q-176 0 -270 -121t-103 -371q-4 -93 5 -178t29 -161z" />
    <glyph glyph-name="Oslashacute" unicode="&#x1fe;" horiz-adv-x="1515" 
d="M160 -27l-107 107l169 183q-51 88 -78.5 202t-27.5 253q0 236 78 403t221 256t339 89q135 0 244.5 -42.5t190.5 -125.5l162 173l107 -105l-175 -190q52 -88 79 -203t27 -253q0 -234 -77 -399.5t-220 -253t-339 -87.5q-135 0 -244.5 41.5t-188.5 120.5zM755 160
q174 0 265 113.5t100 351.5q5 96 -2.5 185t-28.5 172l-621 -687q94 -135 287 -135zM415 457l623 688q-46 73 -117 108t-167 35q-176 0 -270 -121t-103 -371q-4 -93 5 -178t29 -161zM876 1858h235l-280 -291h-161z" />
    <glyph glyph-name="Otilde" unicode="&#xd5;" horiz-adv-x="1482" 
d="M744 -20q-197 0 -340.5 87.5t-221 253t-77.5 399.5q0 236 78.5 402.5t222 255t338.5 88.5q194 0 336.5 -88.5t220 -255t77.5 -402.5q0 -234 -77 -399t-219.5 -253t-337.5 -88zM744 163q126 0 215.5 58t136.5 181t47 315q0 197 -47.5 322t-137 184.5t-214.5 59.5
t-215.5 -60t-139.5 -185t-49 -321q0 -193 49 -315.5t139.5 -180.5t215.5 -58zM1060 1691q-27 -21 -71.5 -41.5t-108.5 -20.5q-54 0 -96 13.5t-81 26.5t-86 13q-50 0 -81 -16t-64 -42l-38 121q34 33 74 56t100 23q51 0 96 -14t88.5 -28.5t87.5 -14.5q47 0 82 18.5t65 40.5z
" />
    <glyph glyph-name="OE" unicode="&#x152;" horiz-adv-x="2218" 
d="M2103 184v-184h-908l-43 154q-65 -86 -166 -130t-233 -44q-203 0 -348 87.5t-222.5 252t-77.5 398.5q0 236 79 403t227 256t353 89q129 0 227.5 -44t160.5 -131l53 155h874l-1 -183h-710v-443h511v-181h-511v-455h735zM745 159q192 0 283 134.5t91 423.5q0 295 -93 433.5
t-282 138.5q-191 0 -287 -139t-96 -433q0 -288 95.5 -423t288.5 -135z" />
    <glyph glyph-name="P" unicode="P" horiz-adv-x="1282" 
d="M183 0v1446h501q155 0 277.5 -53t193 -156t70.5 -253q0 -144 -64.5 -245.5t-180 -155t-267.5 -53.5h-312v-530h-218zM400 705h307q138 0 225 79.5t87 211.5q0 134 -90 205.5t-230 71.5h-299v-568z" />
    <glyph glyph-name="Thorn" unicode="&#xde;" horiz-adv-x="1318" 
d="M1260 746q0 -145 -69 -239t-189.5 -140.5t-275.5 -46.5h-325v-320h-218v1446h218v-291h318q159 0 281 -44t191 -135t69 -230zM1037 746q0 80 -43 130t-115 73t-161 23h-317v-469h325q85 0 155.5 24.5t113 78t42.5 140.5z" />
    <glyph glyph-name="Q" unicode="Q" horiz-adv-x="1509" 
d="M105 720q0 237 78 403.5t221 254.5t339 88q195 0 338 -88t220 -254.5t77 -403.5q0 -217 -64.5 -374.5t-205.5 -255.5q33 -75 103.5 -113.5t156.5 -41.5v-178q-77 0 -157 17t-156.5 68.5t-142.5 154.5q-50 -8 -89.5 -12.5t-79.5 -4.5q-195 0 -338 86t-221.5 251.5
t-78.5 402.5zM341 716q0 -289 105.5 -421t296.5 -132t296.5 132.5t105.5 422.5t-104.5 427.5t-297.5 137.5t-297.5 -138t-104.5 -429z" />
    <glyph glyph-name="R" unicode="R" horiz-adv-x="1363" 
d="M1241 0h-225l-256 605h-363v-605h-214v1446h574q161 0 267 -49.5t158 -140.5t52 -215q0 -117 -39.5 -195t-102 -127t-131.5 -77zM699 778q151 0 234 65.5t83 187.5q0 120 -75.5 182t-204.5 62h-339v-497h302z" />
    <glyph glyph-name="Racute" unicode="&#x154;" horiz-adv-x="1363" 
d="M1241 0h-225l-256 605h-363v-605h-214v1446h574q161 0 267 -49.5t158 -140.5t52 -215q0 -117 -39.5 -195t-102 -127t-131.5 -77zM699 778q151 0 234 65.5t83 187.5q0 120 -75.5 182t-204.5 62h-339v-497h302zM787 1858h235l-280 -291h-161z" />
    <glyph glyph-name="Rcaron" unicode="&#x158;" horiz-adv-x="1363" 
d="M1241 0h-225l-256 605h-363v-605h-214v1446h574q161 0 267 -49.5t158 -140.5t52 -215q0 -117 -39.5 -195t-102 -127t-131.5 -77zM699 778q151 0 234 65.5t83 187.5q0 120 -75.5 182t-204.5 62h-339v-497h302zM589 1567l-254 235h179l150 -139l138 139h189l-249 -235h-153
z" />
    <glyph glyph-name="uni0156" unicode="&#x156;" horiz-adv-x="1363" 
d="M1241 0h-225l-256 605h-363v-605h-214v1446h574q161 0 267 -49.5t158 -140.5t52 -215q0 -117 -39.5 -195t-102 -127t-131.5 -77zM699 778q151 0 234 65.5t83 187.5q0 120 -75.5 182t-204.5 62h-339v-497h302zM564 -397l84 131l-67 7v163h203v-137l-137 -164h-83z" />
    <glyph glyph-name="uni0210" unicode="&#x210;" horiz-adv-x="1363" 
d="M1241 0h-225l-256 605h-363v-605h-214v1446h574q161 0 267 -49.5t158 -140.5t52 -215q0 -117 -39.5 -195t-102 -127t-131.5 -77zM699 778q151 0 234 65.5t83 187.5q0 120 -75.5 182t-204.5 62h-339v-497h302zM696 1858l197 -291h-161l-250 291h214zM355 1858l239 -291
h-161l-297 291h219z" />
    <glyph glyph-name="uni1E5A" unicode="&#x1e5a;" horiz-adv-x="1363" 
d="M1241 0h-225l-256 605h-363v-605h-214v1446h574q161 0 267 -49.5t158 -140.5t52 -215q0 -117 -39.5 -195t-102 -127t-131.5 -77zM699 778q151 0 234 65.5t83 187.5q0 120 -75.5 182t-204.5 62h-339v-497h302zM576 -370v195h212v-195h-212z" />
    <glyph glyph-name="uni0212" unicode="&#x212;" horiz-adv-x="1363" 
d="M1241 0h-225l-256 605h-363v-605h-214v1446h574q161 0 267 -49.5t158 -140.5t52 -215q0 -117 -39.5 -195t-102 -127t-131.5 -77zM699 778q151 0 234 65.5t83 187.5q0 120 -75.5 182t-204.5 62h-339v-497h302zM977 1612q-15 72 -60 122.5t-111.5 77.5t-145.5 27
q-76 0 -142 -26t-111.5 -77t-61.5 -124h148q16 48 59.5 78.5t107.5 30.5q63 0 108 -30.5t62 -78.5h147z" />
    <glyph glyph-name="S" unicode="S" horiz-adv-x="1358" 
d="M688 -20q-103 0 -201 26t-178 77.5t-132.5 128.5t-65.5 180h223q17 -78 67.5 -131t124.5 -80t161 -27q96 0 172.5 26.5t121.5 76t45 119.5q0 63 -30.5 107t-86 73.5t-133.5 46.5l-274 62q-161 34 -253.5 126.5t-93.5 245.5q-1 128 67.5 224t187.5 149.5t271 53.5
q177 0 297.5 -59t182.5 -155.5t63 -209.5h-219q-8 92 -54 146t-115.5 77.5t-152.5 23.5q-60 0 -115 -15t-97 -44t-66.5 -71.5t-24.5 -97.5q0 -74 50 -120t184 -79l268 -61q115 -24 186 -70.5t109 -105.5t52 -122.5t14 -121.5q0 -112 -67 -202.5t-191 -143.5t-297 -53z" />
    <glyph glyph-name="Sacute" unicode="&#x15a;" horiz-adv-x="1358" 
d="M688 -20q-103 0 -201 26t-178 77.5t-132.5 128.5t-65.5 180h223q17 -78 67.5 -131t124.5 -80t161 -27q96 0 172.5 26.5t121.5 76t45 119.5q0 63 -30.5 107t-86 73.5t-133.5 46.5l-274 62q-161 34 -253.5 126.5t-93.5 245.5q-1 128 67.5 224t187.5 149.5t271 53.5
q177 0 297.5 -59t182.5 -155.5t63 -209.5h-219q-8 92 -54 146t-115.5 77.5t-152.5 23.5q-60 0 -115 -15t-97 -44t-66.5 -71.5t-24.5 -97.5q0 -74 50 -120t184 -79l268 -61q115 -24 186 -70.5t109 -105.5t52 -122.5t14 -121.5q0 -112 -67 -202.5t-191 -143.5t-297 -53z
M802 1858h235l-280 -291h-161z" />
    <glyph glyph-name="Scaron" unicode="&#x160;" horiz-adv-x="1358" 
d="M688 -20q-103 0 -201 26t-178 77.5t-132.5 128.5t-65.5 180h223q17 -78 67.5 -131t124.5 -80t161 -27q96 0 172.5 26.5t121.5 76t45 119.5q0 63 -30.5 107t-86 73.5t-133.5 46.5l-274 62q-161 34 -253.5 126.5t-93.5 245.5q-1 128 67.5 224t187.5 149.5t271 53.5
q177 0 297.5 -59t182.5 -155.5t63 -209.5h-219q-8 92 -54 146t-115.5 77.5t-152.5 23.5q-60 0 -115 -15t-97 -44t-66.5 -71.5t-24.5 -97.5q0 -74 50 -120t184 -79l268 -61q115 -24 186 -70.5t109 -105.5t52 -122.5t14 -121.5q0 -112 -67 -202.5t-191 -143.5t-297 -53z
M604 1567l-254 235h179l150 -139l138 139h189l-249 -235h-153z" />
    <glyph glyph-name="Scedilla" unicode="&#x15e;" horiz-adv-x="1358" 
d="M688 -20q-103 0 -201 26t-178 77.5t-132.5 128.5t-65.5 180h223q17 -78 67.5 -131t124.5 -80t161 -27q96 0 172.5 26.5t121.5 76t45 119.5q0 63 -30.5 107t-86 73.5t-133.5 46.5l-274 62q-161 34 -253.5 126.5t-93.5 245.5q-1 128 67.5 224t187.5 149.5t271 53.5
q177 0 297.5 -59t182.5 -155.5t63 -209.5h-219q-8 92 -54 146t-115.5 77.5t-152.5 23.5q-60 0 -115 -15t-97 -44t-66.5 -71.5t-24.5 -97.5q0 -74 50 -120t184 -79l268 -61q115 -24 186 -70.5t109 -105.5t52 -122.5t14 -121.5q0 -112 -67 -202.5t-191 -143.5t-297 -53z
M870 -259q0 -50 -30.5 -85t-81 -53t-110.5 -18q-56 0 -106.5 12t-94.5 39l33 83q28 -19 63 -33.5t79 -14.5q53 0 79.5 18.5t26.5 51.5q0 43 -37.5 64t-125.5 23q-10 0 -13.5 3t0.5 12l73 167h106l-46 -120q70 -2 110.5 -25t57.5 -56.5t17 -67.5z" />
    <glyph glyph-name="Scircumflex" unicode="&#x15c;" horiz-adv-x="1358" 
d="M688 -20q-103 0 -201 26t-178 77.5t-132.5 128.5t-65.5 180h223q17 -78 67.5 -131t124.5 -80t161 -27q96 0 172.5 26.5t121.5 76t45 119.5q0 63 -30.5 107t-86 73.5t-133.5 46.5l-274 62q-161 34 -253.5 126.5t-93.5 245.5q-1 128 67.5 224t187.5 149.5t271 53.5
q177 0 297.5 -59t182.5 -155.5t63 -209.5h-219q-8 92 -54 146t-115.5 77.5t-152.5 23.5q-60 0 -115 -15t-97 -44t-66.5 -71.5t-24.5 -97.5q0 -74 50 -120t184 -79l268 -61q115 -24 186 -70.5t109 -105.5t52 -122.5t14 -121.5q0 -112 -67 -202.5t-191 -143.5t-297 -53z
M817 1567l-138 133l-150 -133h-178l254 234h152l249 -234h-189z" />
    <glyph glyph-name="uni0218" unicode="&#x218;" horiz-adv-x="1358" 
d="M688 -20q-103 0 -201 26t-178 77.5t-132.5 128.5t-65.5 180h223q17 -78 67.5 -131t124.5 -80t161 -27q96 0 172.5 26.5t121.5 76t45 119.5q0 63 -30.5 107t-86 73.5t-133.5 46.5l-274 62q-161 34 -253.5 126.5t-93.5 245.5q-1 128 67.5 224t187.5 149.5t271 53.5
q177 0 297.5 -59t182.5 -155.5t63 -209.5h-219q-8 92 -54 146t-115.5 77.5t-152.5 23.5q-60 0 -115 -15t-97 -44t-66.5 -71.5t-24.5 -97.5q0 -74 50 -120t184 -79l268 -61q115 -24 186 -70.5t109 -105.5t52 -122.5t14 -121.5q0 -112 -67 -202.5t-191 -143.5t-297 -53z
M555 -397l84 131l-67 7v163h203v-137l-137 -164h-83z" />
    <glyph glyph-name="uni1E62" unicode="&#x1e62;" horiz-adv-x="1358" 
d="M688 -20q-103 0 -201 26t-178 77.5t-132.5 128.5t-65.5 180h223q17 -78 67.5 -131t124.5 -80t161 -27q96 0 172.5 26.5t121.5 76t45 119.5q0 63 -30.5 107t-86 73.5t-133.5 46.5l-274 62q-161 34 -253.5 126.5t-93.5 245.5q-1 128 67.5 224t187.5 149.5t271 53.5
q177 0 297.5 -59t182.5 -155.5t63 -209.5h-219q-8 92 -54 146t-115.5 77.5t-152.5 23.5q-60 0 -115 -15t-97 -44t-66.5 -71.5t-24.5 -97.5q0 -74 50 -120t184 -79l268 -61q115 -24 186 -70.5t109 -105.5t52 -122.5t14 -121.5q0 -112 -67 -202.5t-191 -143.5t-297 -53z
M566 -370v195h212v-195h-212z" />
    <glyph glyph-name="uni018F" unicode="&#x18f;" horiz-adv-x="1480" 
d="M740 -20q-190 0 -332.5 85.5t-222 262.5t-79.5 452h1015q0 229 -99 355.5t-286 126.5q-93 0 -165 -28.5t-121.5 -74.5t-75 -100t-25.5 -104h-244q0 84 44 173.5t127 166t200.5 124t263.5 47.5q199 0 341 -87t218 -251.5t76 -397.5q0 -250 -79.5 -416.5t-222 -250
t-333.5 -83.5zM740 173q125 0 208.5 57.5t126.5 157t45 226.5l-753 1q0 -128 42.5 -228t126 -157t204.5 -57z" />
    <glyph glyph-name="T" unicode="T" horiz-adv-x="1199" 
d="M44 1251v195h1111v-195h-437v-1251h-216v1251h-458z" />
    <glyph glyph-name="Tbar" unicode="&#x166;" horiz-adv-x="1199" 
d="M987 801v-166h-776v166h776zM44 1251v195h1111v-195h-437v-1251h-216v1251h-458z" />
    <glyph glyph-name="Tcaron" unicode="&#x164;" horiz-adv-x="1199" 
d="M44 1251v195h1111v-195h-437v-1251h-216v1251h-458zM544 1567l-254 235h179l150 -139l138 139h189l-249 -235h-153z" />
    <glyph glyph-name="uni0162" unicode="&#x162;" horiz-adv-x="1199" 
d="M44 1251v195h1111v-195h-437v-1251h-216v1251h-458zM817 -257q0 -50 -30.5 -85t-81 -53t-110.5 -18q-56 0 -106.5 12t-94.5 39l33 83q28 -19 63 -33.5t79 -14.5q53 0 79.5 18.5t26.5 51.5q0 43 -37.5 64t-125.5 23q-10 0 -13.5 3t0.5 12l73 167h106l-46 -120
q70 -2 110.5 -25t57.5 -56.5t17 -67.5z" />
    <glyph glyph-name="uni021A" unicode="&#x21a;" horiz-adv-x="1199" 
d="M44 1251v195h1111v-195h-437v-1251h-216v1251h-458zM503 -395l84 131l-67 7v163h203v-137l-137 -164h-83z" />
    <glyph glyph-name="uni1E6C" unicode="&#x1e6c;" horiz-adv-x="1199" 
d="M44 1251v195h1111v-195h-437v-1251h-216v1251h-458zM514 -368v195h212v-195h-212z" />
    <glyph glyph-name="U" unicode="U" horiz-adv-x="1414" 
d="M1268 514q0 -169 -56 -288.5t-175.5 -182.5t-311.5 -63q-194 0 -313.5 64t-174 187t-54.5 300v915h221v-942q0 -172 84.5 -255.5t236.5 -83.5q101 0 174.5 36.5t112.5 112t39 190.5v942h217v-932z" />
    <glyph glyph-name="Uacute" unicode="&#xda;" horiz-adv-x="1414" 
d="M1268 514q0 -169 -56 -288.5t-175.5 -182.5t-311.5 -63q-194 0 -313.5 64t-174 187t-54.5 300v915h221v-942q0 -172 84.5 -255.5t236.5 -83.5q101 0 174.5 36.5t112.5 112t39 190.5v942h217v-932zM850 1858h235l-280 -291h-161z" />
    <glyph glyph-name="Ubreve" unicode="&#x16c;" horiz-adv-x="1414" 
d="M1268 514q0 -169 -56 -288.5t-175.5 -182.5t-311.5 -63q-194 0 -313.5 64t-174 187t-54.5 300v915h221v-942q0 -172 84.5 -255.5t236.5 -83.5q101 0 174.5 36.5t112.5 112t39 190.5v942h217v-932zM1042 1792q-15 -72 -60 -122.5t-111.5 -77.5t-145.5 -27q-76 0 -142 26
t-111.5 77t-61.5 124h148q16 -48 59.5 -78.5t107.5 -30.5q63 0 108 30.5t62 78.5h147z" />
    <glyph glyph-name="Ucircumflex" unicode="&#xdb;" horiz-adv-x="1414" 
d="M1268 514q0 -169 -56 -288.5t-175.5 -182.5t-311.5 -63q-194 0 -313.5 64t-174 187t-54.5 300v915h221v-942q0 -172 84.5 -255.5t236.5 -83.5q101 0 174.5 36.5t112.5 112t39 190.5v942h217v-932zM864 1567l-138 133l-150 -133h-178l254 234h152l249 -234h-189z" />
    <glyph glyph-name="uni0214" unicode="&#x214;" horiz-adv-x="1414" 
d="M1268 514q0 -169 -56 -288.5t-175.5 -182.5t-311.5 -63q-194 0 -313.5 64t-174 187t-54.5 300v915h221v-942q0 -172 84.5 -255.5t236.5 -83.5q101 0 174.5 36.5t112.5 112t39 190.5v942h217v-932zM758 1858l197 -291h-161l-250 291h214zM417 1858l239 -291h-161l-297 291
h219z" />
    <glyph glyph-name="Udieresis" unicode="&#xdc;" horiz-adv-x="1414" 
d="M1268 514q0 -169 -56 -288.5t-175.5 -182.5t-311.5 -63q-194 0 -313.5 64t-174 187t-54.5 300v915h221v-942q0 -172 84.5 -255.5t236.5 -83.5q101 0 174.5 36.5t112.5 112t39 190.5v942h217v-932zM828 1619l2 195h206l-2 -195h-206zM418 1619l2 195h206l-2 -195h-206z
" />
    <glyph glyph-name="uni1EE4" unicode="&#x1ee4;" horiz-adv-x="1414" 
d="M1268 514q0 -169 -56 -288.5t-175.5 -182.5t-311.5 -63q-194 0 -313.5 64t-174 187t-54.5 300v915h221v-942q0 -172 84.5 -255.5t236.5 -83.5q101 0 174.5 36.5t112.5 112t39 190.5v942h217v-932zM618 -368v195h212v-195h-212z" />
    <glyph glyph-name="Ugrave" unicode="&#xd9;" horiz-adv-x="1414" 
d="M1268 514q0 -169 -56 -288.5t-175.5 -182.5t-311.5 -63q-194 0 -313.5 64t-174 187t-54.5 300v915h221v-942q0 -172 84.5 -255.5t236.5 -83.5q101 0 174.5 36.5t112.5 112t39 190.5v942h217v-932zM599 1858h-235l280 -291h161z" />
    <glyph glyph-name="uni1EE6" unicode="&#x1ee6;" horiz-adv-x="1414" 
d="M1268 514q0 -169 -56 -288.5t-175.5 -182.5t-311.5 -63q-194 0 -313.5 64t-174 187t-54.5 300v915h221v-942q0 -172 84.5 -255.5t236.5 -83.5q101 0 174.5 36.5t112.5 112t39 190.5v942h217v-932zM589 1882l58 -90q39 26 80.5 26t60.5 -32q21 -33 4.5 -69t-58.5 -63
l59 -90q92 56 116.5 131.5t-26.5 153.5q-42 66 -125 77.5t-169 -44.5z" />
    <glyph glyph-name="Uhorn" unicode="&#x1af;" horiz-adv-x="1648" 
d="M1268 514q0 -169 -56 -288.5t-175.5 -182.5t-311.5 -63q-194 0 -313.5 64t-174 187t-54.5 300v915h221v-942q0 -172 84.5 -255.5t236.5 -83.5q101 0 174.5 36.5t112.5 112t39 190.5v942h217v-932zM1562 1480q-1 -125 -33.5 -200.5t-106.5 -104.5t-201 -15v116q47 -1 80 5
t53.5 26t32.5 61.5t15 111.5h160z" />
    <glyph glyph-name="uni1EE8" unicode="&#x1ee8;" horiz-adv-x="1648" 
d="M1268 514q0 -169 -56 -288.5t-175.5 -182.5t-311.5 -63q-194 0 -313.5 64t-174 187t-54.5 300v915h221v-942q0 -172 84.5 -255.5t236.5 -83.5q101 0 174.5 36.5t112.5 112t39 190.5v942h217v-932zM1562 1480q-1 -125 -33.5 -200.5t-106.5 -104.5t-201 -15v116q47 -1 80 5
t53.5 26t32.5 61.5t15 111.5h160zM850 1858h235l-280 -291h-161z" />
    <glyph glyph-name="uni1EF0" unicode="&#x1ef0;" horiz-adv-x="1648" 
d="M1268 514q0 -169 -56 -288.5t-175.5 -182.5t-311.5 -63q-194 0 -313.5 64t-174 187t-54.5 300v915h221v-942q0 -172 84.5 -255.5t236.5 -83.5q101 0 174.5 36.5t112.5 112t39 190.5v942h217v-932zM1562 1480q-1 -125 -33.5 -200.5t-106.5 -104.5t-201 -15v116q47 -1 80 5
t53.5 26t32.5 61.5t15 111.5h160zM618 -368v195h212v-195h-212z" />
    <glyph glyph-name="uni1EEA" unicode="&#x1eea;" horiz-adv-x="1648" 
d="M1268 514q0 -169 -56 -288.5t-175.5 -182.5t-311.5 -63q-194 0 -313.5 64t-174 187t-54.5 300v915h221v-942q0 -172 84.5 -255.5t236.5 -83.5q101 0 174.5 36.5t112.5 112t39 190.5v942h217v-932zM1562 1480q-1 -125 -33.5 -200.5t-106.5 -104.5t-201 -15v116q47 -1 80 5
t53.5 26t32.5 61.5t15 111.5h160zM599 1858h-235l280 -291h161z" />
    <glyph glyph-name="uni1EEC" unicode="&#x1eec;" horiz-adv-x="1648" 
d="M1268 514q0 -169 -56 -288.5t-175.5 -182.5t-311.5 -63q-194 0 -313.5 64t-174 187t-54.5 300v915h221v-942q0 -172 84.5 -255.5t236.5 -83.5q101 0 174.5 36.5t112.5 112t39 190.5v942h217v-932zM1562 1480q-1 -125 -33.5 -200.5t-106.5 -104.5t-201 -15v116q47 -1 80 5
t53.5 26t32.5 61.5t15 111.5h160zM589 1882l58 -90q39 26 80.5 26t60.5 -32q21 -33 4.5 -69t-58.5 -63l59 -90q92 56 116.5 131.5t-26.5 153.5q-42 66 -125 77.5t-169 -44.5z" />
    <glyph glyph-name="uni1EEE" unicode="&#x1eee;" horiz-adv-x="1643" 
d="M1268 514q0 -169 -56 -288.5t-175.5 -182.5t-311.5 -63q-194 0 -313.5 64t-174 187t-54.5 300v915h221v-942q0 -172 84.5 -255.5t236.5 -83.5q101 0 174.5 36.5t112.5 112t39 190.5v942h217v-932zM1562 1480q-1 -125 -33.5 -200.5t-106.5 -104.5t-201 -15v116q47 -1 80 5
t53.5 26t32.5 61.5t15 111.5h160zM1043 1691q-27 -21 -71.5 -41.5t-108.5 -20.5q-54 0 -96 13.5t-81 26.5t-86 13q-50 0 -81 -16t-64 -42l-38 121q34 33 74 56t100 23q51 0 96 -14t88.5 -28.5t87.5 -14.5q47 0 82 18.5t65 40.5z" />
    <glyph glyph-name="Uhungarumlaut" unicode="&#x170;" horiz-adv-x="1414" 
d="M1268 514q0 -169 -56 -288.5t-175.5 -182.5t-311.5 -63q-194 0 -313.5 64t-174 187t-54.5 300v915h221v-942q0 -172 84.5 -255.5t236.5 -83.5q101 0 174.5 36.5t112.5 112t39 190.5v942h217v-932zM698 1858l-197 -291h161l250 291h-214zM1039 1858l-239 -291h161l297 291
h-219z" />
    <glyph glyph-name="uni0216" unicode="&#x216;" horiz-adv-x="1414" 
d="M1268 514q0 -169 -56 -288.5t-175.5 -182.5t-311.5 -63q-194 0 -313.5 64t-174 187t-54.5 300v915h221v-942q0 -172 84.5 -255.5t236.5 -83.5q101 0 174.5 36.5t112.5 112t39 190.5v942h217v-932zM1039 1612q-15 72 -60 122.5t-111.5 77.5t-145.5 27q-76 0 -142 -26
t-111.5 -77t-61.5 -124h148q16 48 59.5 78.5t107.5 30.5q63 0 108 -30.5t62 -78.5h147z" />
    <glyph glyph-name="Umacron" unicode="&#x16a;" horiz-adv-x="1414" 
d="M1268 514q0 -169 -56 -288.5t-175.5 -182.5t-311.5 -63q-194 0 -313.5 64t-174 187t-54.5 300v915h221v-942q0 -172 84.5 -255.5t236.5 -83.5q101 0 174.5 36.5t112.5 112t39 190.5v942h217v-932zM1039 1785v-146h-625v146h625z" />
    <glyph glyph-name="Uogonek" unicode="&#x172;" horiz-adv-x="1414" 
d="M1268 514q0 -169 -56 -288.5t-175.5 -182.5t-311.5 -63q-194 0 -313.5 64t-174 187t-54.5 300v915h221v-942q0 -172 84.5 -255.5t236.5 -83.5q101 0 174.5 36.5t112.5 112t39 190.5v942h217v-932zM543 -175q0 58 41 105.5t160 85.5l153 -10q-102 -42 -145.5 -77.5
t-43.5 -82.5q0 -35 20.5 -53t66.5 -18q47 0 83.5 13t60.5 26v-106q-26 -16 -79 -29.5t-114 -13.5q-99 0 -151 42t-52 118z" />
    <glyph glyph-name="Uring" unicode="&#x16e;" horiz-adv-x="1414" 
d="M1268 514q0 -169 -56 -288.5t-175.5 -182.5t-311.5 -63q-194 0 -313.5 64t-174 187t-54.5 300v915h221v-942q0 -172 84.5 -255.5t236.5 -83.5q101 0 174.5 36.5t112.5 112t39 190.5v942h217v-932zM937 1770q0 -88 -60.5 -148.5t-149.5 -60.5q-87 0 -147.5 61.5
t-60.5 151.5q0 84 61.5 143t146.5 59q59 0 106.5 -27.5t75.5 -74.5t28 -104zM830 1769q0 46 -30.5 75t-74.5 29q-42 0 -74 -29t-32 -75q0 -42 32 -74.5t74 -32.5q44 0 74.5 32.5t30.5 74.5z" />
    <glyph glyph-name="Utilde" unicode="&#x168;" horiz-adv-x="1414" 
d="M1268 514q0 -169 -56 -288.5t-175.5 -182.5t-311.5 -63q-194 0 -313.5 64t-174 187t-54.5 300v915h221v-942q0 -172 84.5 -255.5t236.5 -83.5q101 0 174.5 36.5t112.5 112t39 190.5v942h217v-932zM1043 1691q-27 -21 -71.5 -41.5t-108.5 -20.5q-54 0 -96 13.5t-81 26.5
t-86 13q-50 0 -81 -16t-64 -42l-38 121q34 33 74 56t100 23q51 0 96 -14t88.5 -28.5t87.5 -14.5q47 0 82 18.5t65 40.5z" />
    <glyph glyph-name="V" unicode="V" horiz-adv-x="1351" 
d="M1307 1446l-509 -1446h-252l-502 1446h209l419 -1200l427 1200h208z" />
    <glyph glyph-name="W" unicode="W" horiz-adv-x="1915" 
d="M1871 1446l-423 -1446h-188l-305 1073l-309 -1073h-183l-419 1446h214l306 -1098l310 1098h164l310 -1098l310 1098h213z" />
    <glyph glyph-name="Wacute" unicode="&#x1e82;" horiz-adv-x="1915" 
d="M1871 1446l-423 -1446h-188l-305 1073l-309 -1073h-183l-419 1446h214l306 -1098l310 1098h164l310 -1098l310 1098h213zM1079 1858h235l-280 -291h-161z" />
    <glyph glyph-name="Wcircumflex" unicode="&#x174;" horiz-adv-x="1915" 
d="M1871 1446l-423 -1446h-188l-305 1073l-309 -1073h-183l-419 1446h214l306 -1098l310 1098h164l310 -1098l310 1098h213zM1093 1567l-138 133l-150 -133h-178l254 234h152l249 -234h-189z" />
    <glyph glyph-name="Wdieresis" unicode="&#x1e84;" horiz-adv-x="1915" 
d="M1871 1446l-423 -1446h-188l-305 1073l-309 -1073h-183l-419 1446h214l306 -1098l310 1098h164l310 -1098l310 1098h213zM1057 1619l2 195h206l-2 -195h-206zM647 1619l2 195h206l-2 -195h-206z" />
    <glyph glyph-name="Wgrave" unicode="&#x1e80;" horiz-adv-x="1915" 
d="M1871 1446l-423 -1446h-188l-305 1073l-309 -1073h-183l-419 1446h214l306 -1098l310 1098h164l310 -1098l310 1098h213zM828 1858h-235l280 -291h161z" />
    <glyph glyph-name="X" unicode="X" horiz-adv-x="1392" 
d="M1317 0h-266l-373 576l-368 -576h-235l488 737l-471 709h264l341 -529l338 529h232l-457 -685z" />
    <glyph glyph-name="Y" unicode="Y" horiz-adv-x="1247" 
d="M1225 1446l-493 -833v-613h-214v614l-496 832h234l370 -643l365 643h234z" />
    <glyph glyph-name="Yacute" unicode="&#xdd;" horiz-adv-x="1247" 
d="M1225 1446l-493 -833v-613h-214v614l-496 832h234l370 -643l365 643h234zM768 1860h235l-280 -291h-161z" />
    <glyph glyph-name="Ycircumflex" unicode="&#x176;" horiz-adv-x="1247" 
d="M1225 1446l-493 -833v-613h-214v614l-496 832h234l370 -643l365 643h234zM783 1569l-138 133l-150 -133h-178l254 234h152l249 -234h-189z" />
    <glyph glyph-name="Ydieresis" unicode="&#x178;" horiz-adv-x="1247" 
d="M1225 1446l-493 -833v-613h-214v614l-496 832h234l370 -643l365 643h234zM747 1621l2 195h206l-2 -195h-206zM337 1621l2 195h206l-2 -195h-206z" />
    <glyph glyph-name="uni1EF4" unicode="&#x1ef4;" horiz-adv-x="1247" 
d="M1225 1446l-493 -833v-613h-214v614l-496 832h234l370 -643l365 643h234zM520 -370v195h212v-195h-212z" />
    <glyph glyph-name="Ygrave" unicode="&#x1ef2;" horiz-adv-x="1247" 
d="M1225 1446l-493 -833v-613h-214v614l-496 832h234l370 -643l365 643h234zM518 1860h-235l280 -291h161z" />
    <glyph glyph-name="uni1EF6" unicode="&#x1ef6;" horiz-adv-x="1247" 
d="M1225 1446l-493 -833v-613h-214v614l-496 832h234l370 -643l365 643h234zM508 1885l58 -90q39 26 80.5 26t60.5 -32q21 -33 4.5 -69t-58.5 -63l59 -90q92 56 116.5 131.5t-26.5 153.5q-42 66 -125 77.5t-169 -44.5z" />
    <glyph glyph-name="uni1EF8" unicode="&#x1ef8;" horiz-adv-x="1247" 
d="M1225 1446l-493 -833v-613h-214v614l-496 832h234l370 -643l365 643h234zM962 1693q-27 -21 -71.5 -41.5t-108.5 -20.5q-54 0 -96 13.5t-81 26.5t-86 13q-50 0 -81 -16t-64 -42l-38 121q34 33 74 56t100 23q51 0 96 -14t88.5 -28.5t87.5 -14.5q47 0 82 18.5t65 40.5z" />
    <glyph glyph-name="Z" unicode="Z" horiz-adv-x="1292" 
d="M122 0v113l776 1149h-738v184h1040v-108l-784 -1152h779v-186h-1073z" />
    <glyph glyph-name="Zacute" unicode="&#x179;" horiz-adv-x="1292" 
d="M122 0v113l776 1149h-738v184h1040v-108l-784 -1152h779v-186h-1073zM812 1858h235l-280 -291h-161z" />
    <glyph glyph-name="Zcaron" unicode="&#x17d;" horiz-adv-x="1292" 
d="M122 0v113l776 1149h-738v184h1040v-108l-784 -1152h779v-186h-1073zM614 1567l-254 235h179l150 -139l138 139h189l-249 -235h-153z" />
    <glyph glyph-name="Zdotaccent" unicode="&#x17b;" horiz-adv-x="1292" 
d="M122 0v113l776 1149h-738v184h1040v-108l-784 -1152h779v-186h-1073zM583 1619v195h212v-195h-212z" />
    <glyph glyph-name="uni1E92" unicode="&#x1e92;" horiz-adv-x="1292" 
d="M122 0v113l776 1149h-738v184h1040v-108l-784 -1152h779v-186h-1073zM571 -370v195h212v-195h-212z" />
    <glyph glyph-name="a" unicode="a" horiz-adv-x="1134" 
d="M435 -20q-100 0 -177.5 36t-121.5 104t-44 164q0 172 122 257t389 90l170 5v75q0 89 -53 140t-163 50q-83 0 -147.5 -38t-84.5 -125h-186q6 103 59.5 173.5t147.5 106.5t221 36q141 0 232 -38.5t135.5 -112.5t44.5 -180v-723h-181l-17 190q-58 -119 -146.5 -164.5
t-199.5 -45.5zM502 129q49 0 97 17.5t87 48t62.5 68.5t24.5 78v171l-140 -3q-107 -1 -181.5 -22t-114 -65t-39.5 -117q0 -83 58 -129.5t146 -46.5z" />
    <glyph glyph-name="aacute" unicode="&#xe1;" horiz-adv-x="1134" 
d="M435 -20q-100 0 -177.5 36t-121.5 104t-44 164q0 172 122 257t389 90l170 5v75q0 89 -53 140t-163 50q-83 0 -147.5 -38t-84.5 -125h-186q6 103 59.5 173.5t147.5 106.5t221 36q141 0 232 -38.5t135.5 -112.5t44.5 -180v-723h-181l-17 190q-58 -119 -146.5 -164.5
t-199.5 -45.5zM502 129q49 0 97 17.5t87 48t62.5 68.5t24.5 78v171l-140 -3q-107 -1 -181.5 -22t-114 -65t-39.5 -117q0 -83 58 -129.5t146 -46.5zM691 1446h235l-280 -291h-161z" />
    <glyph glyph-name="abreve" unicode="&#x103;" horiz-adv-x="1134" 
d="M435 -20q-100 0 -177.5 36t-121.5 104t-44 164q0 172 122 257t389 90l170 5v75q0 89 -53 140t-163 50q-83 0 -147.5 -38t-84.5 -125h-186q6 103 59.5 173.5t147.5 106.5t221 36q141 0 232 -38.5t135.5 -112.5t44.5 -180v-723h-181l-17 190q-58 -119 -146.5 -164.5
t-199.5 -45.5zM502 129q49 0 97 17.5t87 48t62.5 68.5t24.5 78v171l-140 -3q-107 -1 -181.5 -22t-114 -65t-39.5 -117q0 -83 58 -129.5t146 -46.5zM884 1380q-15 -72 -60 -122.5t-111.5 -77.5t-145.5 -27q-76 0 -142 26t-111.5 77t-61.5 124h148q16 -48 59.5 -78.5
t107.5 -30.5q63 0 108 30.5t62 78.5h147z" />
    <glyph glyph-name="uni1EAF" unicode="&#x1eaf;" horiz-adv-x="1134" 
d="M435 -20q-100 0 -177.5 36t-121.5 104t-44 164q0 172 122 257t389 90l170 5v75q0 89 -53 140t-163 50q-83 0 -147.5 -38t-84.5 -125h-186q6 103 59.5 173.5t147.5 106.5t221 36q141 0 232 -38.5t135.5 -112.5t44.5 -180v-723h-181l-17 190q-58 -119 -146.5 -164.5
t-199.5 -45.5zM502 129q49 0 97 17.5t87 48t62.5 68.5t24.5 78v171l-140 -3q-107 -1 -181.5 -22t-114 -65t-39.5 -117q0 -83 58 -129.5t146 -46.5zM887 1380q-15 -72 -60 -122.5t-111.5 -77.5t-145.5 -27q-76 0 -142 26t-111.5 77t-61.5 124h148q16 -48 59.5 -78.5
t107.5 -30.5q63 0 108 30.5t62 78.5h147zM651 1666h188l-208 -248h-127z" />
    <glyph glyph-name="uni1EB7" unicode="&#x1eb7;" horiz-adv-x="1134" 
d="M435 -20q-100 0 -177.5 36t-121.5 104t-44 164q0 172 122 257t389 90l170 5v75q0 89 -53 140t-163 50q-83 0 -147.5 -38t-84.5 -125h-186q6 103 59.5 173.5t147.5 106.5t221 36q141 0 232 -38.5t135.5 -112.5t44.5 -180v-723h-181l-17 190q-58 -119 -146.5 -164.5
t-199.5 -45.5zM502 129q49 0 97 17.5t87 48t62.5 68.5t24.5 78v171l-140 -3q-107 -1 -181.5 -22t-114 -65t-39.5 -117q0 -83 58 -129.5t146 -46.5zM459 -370v195h212v-195h-212zM884 1380q-15 -72 -60 -122.5t-111.5 -77.5t-145.5 -27q-76 0 -142 26t-111.5 77t-61.5 124
h148q16 -48 59.5 -78.5t107.5 -30.5q63 0 108 30.5t62 78.5h147z" />
    <glyph glyph-name="uni1EB1" unicode="&#x1eb1;" horiz-adv-x="1134" 
d="M435 -20q-100 0 -177.5 36t-121.5 104t-44 164q0 172 122 257t389 90l170 5v75q0 89 -53 140t-163 50q-83 0 -147.5 -38t-84.5 -125h-186q6 103 59.5 173.5t147.5 106.5t221 36q141 0 232 -38.5t135.5 -112.5t44.5 -180v-723h-181l-17 190q-58 -119 -146.5 -164.5
t-199.5 -45.5zM502 129q49 0 97 17.5t87 48t62.5 68.5t24.5 78v171l-140 -3q-107 -1 -181.5 -22t-114 -65t-39.5 -117q0 -83 58 -129.5t146 -46.5zM887 1380q-15 -72 -60 -122.5t-111.5 -77.5t-145.5 -27q-76 0 -142 26t-111.5 77t-61.5 124h148q16 -48 59.5 -78.5
t107.5 -30.5q63 0 108 30.5t62 78.5h147zM491 1665l158 -248h-131l-215 248h188z" />
    <glyph glyph-name="uni1EB3" unicode="&#x1eb3;" horiz-adv-x="1134" 
d="M435 -20q-100 0 -177.5 36t-121.5 104t-44 164q0 172 122 257t389 90l170 5v75q0 89 -53 140t-163 50q-83 0 -147.5 -38t-84.5 -125h-186q6 103 59.5 173.5t147.5 106.5t221 36q141 0 232 -38.5t135.5 -112.5t44.5 -180v-723h-181l-17 190q-58 -119 -146.5 -164.5
t-199.5 -45.5zM502 129q49 0 97 17.5t87 48t62.5 68.5t24.5 78v171l-140 -3q-107 -1 -181.5 -22t-114 -65t-39.5 -117q0 -83 58 -129.5t146 -46.5zM887 1380q-15 -72 -60 -122.5t-111.5 -77.5t-145.5 -27q-76 0 -142 26t-111.5 77t-61.5 124h148q16 -48 59.5 -78.5
t107.5 -30.5q63 0 108 30.5t62 78.5h147zM454 1755l58 -90q39 26 80.5 26t60.5 -32q21 -33 4.5 -69t-58.5 -63l59 -90q92 56 116.5 131.5t-26.5 153.5q-42 66 -125 77.5t-169 -44.5z" />
    <glyph glyph-name="uni1EB5" unicode="&#x1eb5;" horiz-adv-x="1134" 
d="M435 -20q-100 0 -177.5 36t-121.5 104t-44 164q0 172 122 257t389 90l170 5v75q0 89 -53 140t-163 50q-83 0 -147.5 -38t-84.5 -125h-186q6 103 59.5 173.5t147.5 106.5t221 36q141 0 232 -38.5t135.5 -112.5t44.5 -180v-723h-181l-17 190q-58 -119 -146.5 -164.5
t-199.5 -45.5zM502 129q49 0 97 17.5t87 48t62.5 68.5t24.5 78v171l-140 -3q-107 -1 -181.5 -22t-114 -65t-39.5 -117q0 -83 58 -129.5t146 -46.5zM887 1380q-15 -72 -60 -122.5t-111.5 -77.5t-145.5 -27q-76 0 -142 26t-111.5 77t-61.5 124h148q16 -48 59.5 -78.5
t107.5 -30.5q63 0 108 30.5t62 78.5h147zM884 1559q-27 -21 -71.5 -41.5t-108.5 -20.5q-54 0 -96 13.5t-81 26.5t-86 13q-50 0 -81 -16t-64 -42l-38 121q34 33 74 56t100 23q51 0 96 -14t88.5 -28.5t87.5 -14.5q47 0 82 18.5t65 40.5z" />
    <glyph glyph-name="acircumflex" unicode="&#xe2;" horiz-adv-x="1134" 
d="M435 -20q-100 0 -177.5 36t-121.5 104t-44 164q0 172 122 257t389 90l170 5v75q0 89 -53 140t-163 50q-83 0 -147.5 -38t-84.5 -125h-186q6 103 59.5 173.5t147.5 106.5t221 36q141 0 232 -38.5t135.5 -112.5t44.5 -180v-723h-181l-17 190q-58 -119 -146.5 -164.5
t-199.5 -45.5zM502 129q49 0 97 17.5t87 48t62.5 68.5t24.5 78v171l-140 -3q-107 -1 -181.5 -22t-114 -65t-39.5 -117q0 -83 58 -129.5t146 -46.5zM705 1155l-138 133l-150 -133h-178l254 234h152l249 -234h-189z" />
    <glyph glyph-name="uni1EA5" unicode="&#x1ea5;" horiz-adv-x="1134" 
d="M435 -20q-100 0 -177.5 36t-121.5 104t-44 164q0 172 122 257t389 90l170 5v75q0 89 -53 140t-163 50q-83 0 -147.5 -38t-84.5 -125h-186q6 103 59.5 173.5t147.5 106.5t221 36q141 0 232 -38.5t135.5 -112.5t44.5 -180v-723h-181l-17 190q-58 -119 -146.5 -164.5
t-199.5 -45.5zM502 129q49 0 97 17.5t87 48t62.5 68.5t24.5 78v171l-140 -3q-107 -1 -181.5 -22t-114 -65t-39.5 -117q0 -83 58 -129.5t146 -46.5zM705 1155l-138 133l-150 -133h-178l254 234h152l249 -234h-189zM910 1630h188l-208 -248h-127z" />
    <glyph glyph-name="uni1EAD" unicode="&#x1ead;" horiz-adv-x="1134" 
d="M435 -20q-100 0 -177.5 36t-121.5 104t-44 164q0 172 122 257t389 90l170 5v75q0 89 -53 140t-163 50q-83 0 -147.5 -38t-84.5 -125h-186q6 103 59.5 173.5t147.5 106.5t221 36q141 0 232 -38.5t135.5 -112.5t44.5 -180v-723h-181l-17 190q-58 -119 -146.5 -164.5
t-199.5 -45.5zM502 129q49 0 97 17.5t87 48t62.5 68.5t24.5 78v171l-140 -3q-107 -1 -181.5 -22t-114 -65t-39.5 -117q0 -83 58 -129.5t146 -46.5zM459 -370v195h212v-195h-212zM705 1155l-138 133l-150 -133h-178l254 234h152l249 -234h-189z" />
    <glyph glyph-name="uni1EA7" unicode="&#x1ea7;" horiz-adv-x="1134" 
d="M435 -20q-100 0 -177.5 36t-121.5 104t-44 164q0 172 122 257t389 90l170 5v75q0 89 -53 140t-163 50q-83 0 -147.5 -38t-84.5 -125h-186q6 103 59.5 173.5t147.5 106.5t221 36q141 0 232 -38.5t135.5 -112.5t44.5 -180v-723h-181l-17 190q-58 -119 -146.5 -164.5
t-199.5 -45.5zM502 129q49 0 97 17.5t87 48t62.5 68.5t24.5 78v171l-140 -3q-107 -1 -181.5 -22t-114 -65t-39.5 -117q0 -83 58 -129.5t146 -46.5zM705 1155l-138 133l-150 -133h-178l254 234h152l249 -234h-189zM831 1630l158 -248h-131l-215 248h188z" />
    <glyph glyph-name="uni1EA9" unicode="&#x1ea9;" horiz-adv-x="1134" 
d="M435 -20q-100 0 -177.5 36t-121.5 104t-44 164q0 172 122 257t389 90l170 5v75q0 89 -53 140t-163 50q-83 0 -147.5 -38t-84.5 -125h-186q6 103 59.5 173.5t147.5 106.5t221 36q141 0 232 -38.5t135.5 -112.5t44.5 -180v-723h-181l-17 190q-58 -119 -146.5 -164.5
t-199.5 -45.5zM502 129q49 0 97 17.5t87 48t62.5 68.5t24.5 78v171l-140 -3q-107 -1 -181.5 -22t-114 -65t-39.5 -117q0 -83 58 -129.5t146 -46.5zM710 1155l-138 133l-150 -133h-178l254 234h152l249 -234h-189zM617 1654l58 -90q39 26 80.5 26t60.5 -32q21 -33 4.5 -69
t-58.5 -63l59 -90q92 56 116.5 131.5t-26.5 153.5q-42 66 -125 77.5t-169 -44.5z" />
    <glyph glyph-name="uni1EAB" unicode="&#x1eab;" horiz-adv-x="1134" 
d="M435 -20q-100 0 -177.5 36t-121.5 104t-44 164q0 172 122 257t389 90l170 5v75q0 89 -53 140t-163 50q-83 0 -147.5 -38t-84.5 -125h-186q6 103 59.5 173.5t147.5 106.5t221 36q141 0 232 -38.5t135.5 -112.5t44.5 -180v-723h-181l-17 190q-58 -119 -146.5 -164.5
t-199.5 -45.5zM502 129q49 0 97 17.5t87 48t62.5 68.5t24.5 78v171l-140 -3q-107 -1 -181.5 -22t-114 -65t-39.5 -117q0 -83 58 -129.5t146 -46.5zM707 1155l-138 133l-150 -133h-178l254 234h152l249 -234h-189zM881 1561q-27 -21 -71.5 -41.5t-108.5 -20.5q-54 0 -96 13.5
t-81 26.5t-86 13q-50 0 -81 -16t-64 -42l-38 121q34 33 74 56t100 23q51 0 96 -14t88.5 -28.5t87.5 -14.5q47 0 82 18.5t65 40.5z" />
    <glyph glyph-name="uni0201" unicode="&#x201;" horiz-adv-x="1134" 
d="M435 -20q-100 0 -177.5 36t-121.5 104t-44 164q0 172 122 257t389 90l170 5v75q0 89 -53 140t-163 50q-83 0 -147.5 -38t-84.5 -125h-186q6 103 59.5 173.5t147.5 106.5t221 36q141 0 232 -38.5t135.5 -112.5t44.5 -180v-723h-181l-17 190q-58 -119 -146.5 -164.5
t-199.5 -45.5zM502 129q49 0 97 17.5t87 48t62.5 68.5t24.5 78v171l-140 -3q-107 -1 -181.5 -22t-114 -65t-39.5 -117q0 -83 58 -129.5t146 -46.5zM599 1446l197 -291h-161l-250 291h214zM258 1446l239 -291h-161l-297 291h219z" />
    <glyph glyph-name="adieresis" unicode="&#xe4;" horiz-adv-x="1134" 
d="M435 -20q-100 0 -177.5 36t-121.5 104t-44 164q0 172 122 257t389 90l170 5v75q0 89 -53 140t-163 50q-83 0 -147.5 -38t-84.5 -125h-186q6 103 59.5 173.5t147.5 106.5t221 36q141 0 232 -38.5t135.5 -112.5t44.5 -180v-723h-181l-17 190q-58 -119 -146.5 -164.5
t-199.5 -45.5zM502 129q49 0 97 17.5t87 48t62.5 68.5t24.5 78v171l-140 -3q-107 -1 -181.5 -22t-114 -65t-39.5 -117q0 -83 58 -129.5t146 -46.5zM669 1207l2 195h206l-2 -195h-206zM259 1207l2 195h206l-2 -195h-206z" />
    <glyph glyph-name="uni1EA1" unicode="&#x1ea1;" horiz-adv-x="1134" 
d="M435 -20q-100 0 -177.5 36t-121.5 104t-44 164q0 172 122 257t389 90l170 5v75q0 89 -53 140t-163 50q-83 0 -147.5 -38t-84.5 -125h-186q6 103 59.5 173.5t147.5 106.5t221 36q141 0 232 -38.5t135.5 -112.5t44.5 -180v-723h-181l-17 190q-58 -119 -146.5 -164.5
t-199.5 -45.5zM502 129q49 0 97 17.5t87 48t62.5 68.5t24.5 78v171l-140 -3q-107 -1 -181.5 -22t-114 -65t-39.5 -117q0 -83 58 -129.5t146 -46.5zM459 -370v195h212v-195h-212z" />
    <glyph glyph-name="agrave" unicode="&#xe0;" horiz-adv-x="1134" 
d="M435 -20q-100 0 -177.5 36t-121.5 104t-44 164q0 172 122 257t389 90l170 5v75q0 89 -53 140t-163 50q-83 0 -147.5 -38t-84.5 -125h-186q6 103 59.5 173.5t147.5 106.5t221 36q141 0 232 -38.5t135.5 -112.5t44.5 -180v-723h-181l-17 190q-58 -119 -146.5 -164.5
t-199.5 -45.5zM502 129q49 0 97 17.5t87 48t62.5 68.5t24.5 78v171l-140 -3q-107 -1 -181.5 -22t-114 -65t-39.5 -117q0 -83 58 -129.5t146 -46.5zM440 1446h-235l280 -291h161z" />
    <glyph glyph-name="uni1EA3" unicode="&#x1ea3;" horiz-adv-x="1134" 
d="M435 -20q-100 0 -177.5 36t-121.5 104t-44 164q0 172 122 257t389 90l170 5v75q0 89 -53 140t-163 50q-83 0 -147.5 -38t-84.5 -125h-186q6 103 59.5 173.5t147.5 106.5t221 36q141 0 232 -38.5t135.5 -112.5t44.5 -180v-723h-181l-17 190q-58 -119 -146.5 -164.5
t-199.5 -45.5zM502 129q49 0 97 17.5t87 48t62.5 68.5t24.5 78v171l-140 -3q-107 -1 -181.5 -22t-114 -65t-39.5 -117q0 -83 58 -129.5t146 -46.5zM430 1470l58 -90q39 26 80.5 26t60.5 -32q21 -33 4.5 -69t-58.5 -63l59 -90q92 56 116.5 131.5t-26.5 153.5
q-42 66 -125 77.5t-169 -44.5z" />
    <glyph glyph-name="uni0203" unicode="&#x203;" horiz-adv-x="1134" 
d="M435 -20q-100 0 -177.5 36t-121.5 104t-44 164q0 172 122 257t389 90l170 5v75q0 89 -53 140t-163 50q-83 0 -147.5 -38t-84.5 -125h-186q6 103 59.5 173.5t147.5 106.5t221 36q141 0 232 -38.5t135.5 -112.5t44.5 -180v-723h-181l-17 190q-58 -119 -146.5 -164.5
t-199.5 -45.5zM502 129q49 0 97 17.5t87 48t62.5 68.5t24.5 78v171l-140 -3q-107 -1 -181.5 -22t-114 -65t-39.5 -117q0 -83 58 -129.5t146 -46.5zM881 1200q-15 72 -60 122.5t-111.5 77.5t-145.5 27q-76 0 -142 -26t-111.5 -77t-61.5 -124h148q16 48 59.5 78.5t107.5 30.5
q63 0 108 -30.5t62 -78.5h147z" />
    <glyph glyph-name="amacron" unicode="&#x101;" horiz-adv-x="1134" 
d="M435 -20q-100 0 -177.5 36t-121.5 104t-44 164q0 172 122 257t389 90l170 5v75q0 89 -53 140t-163 50q-83 0 -147.5 -38t-84.5 -125h-186q6 103 59.5 173.5t147.5 106.5t221 36q141 0 232 -38.5t135.5 -112.5t44.5 -180v-723h-181l-17 190q-58 -119 -146.5 -164.5
t-199.5 -45.5zM502 129q49 0 97 17.5t87 48t62.5 68.5t24.5 78v171l-140 -3q-107 -1 -181.5 -22t-114 -65t-39.5 -117q0 -83 58 -129.5t146 -46.5zM880 1373v-146h-625v146h625z" />
    <glyph glyph-name="aogonek" unicode="&#x105;" horiz-adv-x="1134" 
d="M435 -20q-100 0 -177.5 36t-121.5 104t-44 164q0 172 122 257t389 90l170 5v75q0 89 -53 140t-163 50q-83 0 -147.5 -38t-84.5 -125h-186q6 103 59.5 173.5t147.5 106.5t221 36q141 0 232 -38.5t135.5 -112.5t44.5 -180v-723h-181l-17 190q-58 -119 -146.5 -164.5
t-199.5 -45.5zM502 129q49 0 97 17.5t87 48t62.5 68.5t24.5 78v171l-140 -3q-107 -1 -181.5 -22t-114 -65t-39.5 -117q0 -83 58 -129.5t146 -46.5zM618 -171q0 58 41 105.5t160 85.5l153 -10q-102 -42 -145.5 -77.5t-43.5 -82.5q0 -35 20.5 -53t66.5 -18q47 0 83.5 13
t60.5 26v-106q-26 -16 -79 -29.5t-114 -13.5q-99 0 -151 42t-52 118z" />
    <glyph glyph-name="aring" unicode="&#xe5;" horiz-adv-x="1134" 
d="M435 -20q-100 0 -177.5 36t-121.5 104t-44 164q0 172 122 257t389 90l170 5v75q0 89 -53 140t-163 50q-83 0 -147.5 -38t-84.5 -125h-186q6 103 59.5 173.5t147.5 106.5t221 36q141 0 232 -38.5t135.5 -112.5t44.5 -180v-723h-181l-17 190q-58 -119 -146.5 -164.5
t-199.5 -45.5zM502 129q49 0 97 17.5t87 48t62.5 68.5t24.5 78v171l-140 -3q-107 -1 -181.5 -22t-114 -65t-39.5 -117q0 -83 58 -129.5t146 -46.5zM778 1358q0 -88 -60.5 -148.5t-149.5 -60.5q-87 0 -147.5 61.5t-60.5 151.5q0 84 61.5 143t146.5 59q59 0 106.5 -27.5
t75.5 -74.5t28 -104zM671 1357q0 46 -30.5 75t-74.5 29q-42 0 -74 -29t-32 -75q0 -42 32 -74.5t74 -32.5q44 0 74.5 32.5t30.5 74.5z" />
    <glyph glyph-name="aringacute" unicode="&#x1fb;" horiz-adv-x="1134" 
d="M435 -20q-100 0 -177.5 36t-121.5 104t-44 164q0 172 122 257t389 90l170 5v75q0 89 -53 140t-163 50q-83 0 -147.5 -38t-84.5 -125h-186q6 103 59.5 173.5t147.5 106.5t221 36q141 0 232 -38.5t135.5 -112.5t44.5 -180v-723h-181l-17 190q-58 -119 -146.5 -164.5
t-199.5 -45.5zM502 129q49 0 97 17.5t87 48t62.5 68.5t24.5 78v171l-140 -3q-107 -1 -181.5 -22t-114 -65t-39.5 -117q0 -83 58 -129.5t146 -46.5zM566 976q-86 0 -144.5 57t-58.5 145q0 82 59 137t144 55t144 -56t59 -140q0 -87 -59 -142.5t-144 -55.5zM564 1065
q44 0 74.5 32.5t30.5 74.5q0 46 -30.5 75.5t-74.5 29.5q-42 0 -74.5 -29.5t-32.5 -75.5q0 -42 32.5 -74.5t74.5 -32.5zM512 1321l41 174h147l-73 -174h-115z" />
    <glyph glyph-name="atilde" unicode="&#xe3;" horiz-adv-x="1134" 
d="M435 -20q-100 0 -177.5 36t-121.5 104t-44 164q0 172 122 257t389 90l170 5v75q0 89 -53 140t-163 50q-83 0 -147.5 -38t-84.5 -125h-186q6 103 59.5 173.5t147.5 106.5t221 36q141 0 232 -38.5t135.5 -112.5t44.5 -180v-723h-181l-17 190q-58 -119 -146.5 -164.5
t-199.5 -45.5zM502 129q49 0 97 17.5t87 48t62.5 68.5t24.5 78v171l-140 -3q-107 -1 -181.5 -22t-114 -65t-39.5 -117q0 -83 58 -129.5t146 -46.5zM885 1279q-27 -21 -71.5 -41.5t-108.5 -20.5q-54 0 -96 13.5t-81 26.5t-86 13q-50 0 -81 -16t-64 -42l-38 121q34 33 74 56
t100 23q51 0 96 -14t88.5 -28.5t87.5 -14.5q47 0 82 18.5t65 40.5z" />
    <glyph glyph-name="ae" unicode="&#xe6;" horiz-adv-x="1813" 
d="M435 -20q-100 0 -177.5 36t-121.5 104t-44 164q0 172 122 257t390 90l169 5v75q0 93 -58.5 142t-157.5 48q-82 0 -147.5 -40t-84.5 -123h-186q6 94 59.5 165.5t148 111t220.5 39.5q140 0 231.5 -41t136 -115t44.5 -175l-117 -459q-12 -87 -70.5 -150.5t-150.5 -98.5
t-206 -35zM502 129q82 0 142.5 37.5t94.5 93t34 109.5v143l-140 -3q-106 -1 -181 -22t-114.5 -65t-39.5 -117q0 -83 58 -129.5t146 -46.5zM991 467q0 -93 30.5 -166.5t92.5 -116t154 -42.5t159.5 42t88.5 125h198q-18 -106 -84.5 -180t-160.5 -111.5t-197 -37.5
q-147 0 -258.5 63.5t-174 181.5t-62.5 281q0 161 56.5 284.5t164.5 193.5t261 70q149 0 251.5 -64t155.5 -179.5t53 -272.5v-71h-728zM992 606h524q0 81 -28.5 147.5t-85.5 105t-144 38.5q-89 0 -148.5 -43t-89 -110t-28.5 -138z" />
    <glyph glyph-name="aeacute" unicode="&#x1fd;" horiz-adv-x="1813" 
d="M435 -20q-100 0 -177.5 36t-121.5 104t-44 164q0 172 122 257t390 90l169 5v75q0 93 -58.5 142t-157.5 48q-82 0 -147.5 -40t-84.5 -123h-186q6 94 59.5 165.5t148 111t220.5 39.5q140 0 231.5 -41t136 -115t44.5 -175l-117 -459q-12 -87 -70.5 -150.5t-150.5 -98.5
t-206 -35zM502 129q82 0 142.5 37.5t94.5 93t34 109.5v143l-140 -3q-106 -1 -181 -22t-114.5 -65t-39.5 -117q0 -83 58 -129.5t146 -46.5zM991 467q0 -93 30.5 -166.5t92.5 -116t154 -42.5t159.5 42t88.5 125h198q-18 -106 -84.5 -180t-160.5 -111.5t-197 -37.5
q-147 0 -258.5 63.5t-174 181.5t-62.5 281q0 161 56.5 284.5t164.5 193.5t261 70q149 0 251.5 -64t155.5 -179.5t53 -272.5v-71h-728zM992 606h524q0 81 -28.5 147.5t-85.5 105t-144 38.5q-89 0 -148.5 -43t-89 -110t-28.5 -138zM989 1446h235l-280 -291h-161z" />
    <glyph glyph-name="b" unicode="b" horiz-adv-x="1195" 
d="M674 -20q-87 0 -148 23t-100.5 59t-62 76t-34.5 74l-23 -212h-161v1486h216v-609q14 27 41.5 58t69 58t96.5 44t124 17q193 0 306.5 -136t113.5 -396q0 -164 -49 -285.5t-146.5 -189t-242.5 -67.5zM632 141q118 0 192.5 92t74.5 296q0 176 -69.5 269t-200.5 93
q-94 0 -153 -41.5t-86.5 -122.5t-28.5 -198q0 -207 64 -297.5t207 -90.5z" />
    <glyph glyph-name="c" unicode="c" horiz-adv-x="1079" 
d="M566 1054q116 0 206.5 -45.5t146.5 -126.5t68 -189h-185q-9 51 -38.5 95t-79 70.5t-117.5 26.5q-124 0 -202 -91t-78 -279q0 -172 72.5 -274t211.5 -102q67 0 116.5 28t78.5 72t37 91h182q-11 -104 -67.5 -183t-147 -123t-204.5 -44q-141 0 -250 61.5t-170.5 181
t-61.5 290.5q0 161 57 283t165.5 190t259.5 68z" />
    <glyph glyph-name="cacute" unicode="&#x107;" horiz-adv-x="1079" 
d="M566 1054q116 0 206.5 -45.5t146.5 -126.5t68 -189h-185q-9 51 -38.5 95t-79 70.5t-117.5 26.5q-124 0 -202 -91t-78 -279q0 -172 72.5 -274t211.5 -102q67 0 116.5 28t78.5 72t37 91h182q-11 -104 -67.5 -183t-147 -123t-204.5 -44q-141 0 -250 61.5t-170.5 181
t-61.5 290.5q0 161 57 283t165.5 190t259.5 68zM689 1446h235l-280 -291h-161z" />
    <glyph glyph-name="ccaron" unicode="&#x10d;" horiz-adv-x="1079" 
d="M566 1054q116 0 206.5 -45.5t146.5 -126.5t68 -189h-185q-9 51 -38.5 95t-79 70.5t-117.5 26.5q-124 0 -202 -91t-78 -279q0 -172 72.5 -274t211.5 -102q67 0 116.5 28t78.5 72t37 91h182q-11 -104 -67.5 -183t-147 -123t-204.5 -44q-141 0 -250 61.5t-170.5 181
t-61.5 290.5q0 161 57 283t165.5 190t259.5 68zM490 1155l-254 235h179l150 -139l138 139h189l-249 -235h-153z" />
    <glyph glyph-name="ccedilla" unicode="&#xe7;" horiz-adv-x="1079" 
d="M566 1054q116 0 206.5 -45.5t146.5 -126.5t68 -189h-185q-9 51 -38.5 95t-79 70.5t-117.5 26.5q-124 0 -202 -91t-78 -279q0 -172 72.5 -274t211.5 -102q67 0 116.5 28t78.5 72t37 91h182q-11 -104 -67.5 -183t-147 -123t-204.5 -44q-141 0 -250 61.5t-170.5 181
t-61.5 290.5q0 161 57 283t165.5 190t259.5 68zM764 -259q0 -50 -30.5 -85t-81 -53t-110.5 -18q-56 0 -106.5 12t-94.5 39l33 83q28 -19 63 -33.5t79 -14.5q53 0 79.5 18.5t26.5 51.5q0 43 -37.5 64t-125.5 23q-10 0 -13.5 3t0.5 12l73 167h106l-46 -120q70 -2 110.5 -25
t57.5 -56.5t17 -67.5z" />
    <glyph glyph-name="ccircumflex" unicode="&#x109;" horiz-adv-x="1079" 
d="M566 1054q116 0 206.5 -45.5t146.5 -126.5t68 -189h-185q-9 51 -38.5 95t-79 70.5t-117.5 26.5q-124 0 -202 -91t-78 -279q0 -172 72.5 -274t211.5 -102q67 0 116.5 28t78.5 72t37 91h182q-11 -104 -67.5 -183t-147 -123t-204.5 -44q-141 0 -250 61.5t-170.5 181
t-61.5 290.5q0 161 57 283t165.5 190t259.5 68zM703 1155l-138 133l-150 -133h-178l254 234h152l249 -234h-189z" />
    <glyph glyph-name="cdotaccent" unicode="&#x10b;" horiz-adv-x="1079" 
d="M566 1054q116 0 206.5 -45.5t146.5 -126.5t68 -189h-185q-9 51 -38.5 95t-79 70.5t-117.5 26.5q-124 0 -202 -91t-78 -279q0 -172 72.5 -274t211.5 -102q67 0 116.5 28t78.5 72t37 91h182q-11 -104 -67.5 -183t-147 -123t-204.5 -44q-141 0 -250 61.5t-170.5 181
t-61.5 290.5q0 161 57 283t165.5 190t259.5 68zM460 1207v195h212v-195h-212z" />
    <glyph glyph-name="d" unicode="d" horiz-adv-x="1195" 
d="M522 -20q-204 0 -321 139.5t-117 402.5q0 161 47 280.5t140.5 185.5t231.5 66q70 0 124.5 -17t96 -44t69 -58t42.5 -58v609h215v-1486h-160l-24 212q-11 -34 -34 -74t-62.5 -76t-100.5 -59t-147 -23zM563 141q144 0 208 90.5t64 297.5q-1 117 -29 198t-86.5 122.5
t-153.5 41.5q-119 0 -194 -85.5t-75 -276.5q0 -188 68.5 -288t197.5 -100z" />
    <glyph glyph-name="eth" unicode="&#xf0;" horiz-adv-x="1167" 
d="M585 -20q-150 0 -263 69.5t-175.5 188t-62.5 266.5q0 126 37.5 224.5t103.5 167.5t153.5 105t187.5 36q92 0 160.5 -24t116 -66.5t77.5 -98.5q-33 140 -94.5 242t-135 172.5t-145.5 117.5t-127 79l253 21q120 -66 200.5 -158t127.5 -209.5t66.5 -262t16.5 -316.5
q-1 -162 -62.5 -287t-172.5 -196t-262 -71zM578 145q95 0 156.5 54.5t90.5 140t29 178.5q0 110 -28 194t-89 131t-159 47q-95 0 -157.5 -50t-94 -134.5t-31.5 -187.5q0 -93 31 -178.5t94 -140t158 -54.5zM383 1082v152l644 227v-152z" />
    <glyph glyph-name="dcaron" unicode="&#x10f;" horiz-adv-x="1217" 
d="M522 -20q-204 0 -321 139.5t-117 402.5q0 161 47 280.5t140.5 185.5t231.5 66q70 0 124.5 -17t96 -44t69 -58t42.5 -58v609h215v-1486h-160l-24 212q-11 -34 -34 -74t-62.5 -76t-100.5 -59t-147 -23zM563 141q144 0 208 90.5t64 297.5q-1 117 -29 198t-86.5 122.5
t-153.5 41.5q-119 0 -194 -85.5t-75 -276.5q0 -188 68.5 -288t197.5 -100zM1166 1053l78 189l-59 10v202h165v-212l-81 -189h-103z" />
    <glyph glyph-name="dcroat" unicode="&#x111;" horiz-adv-x="1246" 
d="M1186 1312v-129h-633v129h633zM522 -20q-204 0 -321 139.5t-117 402.5q0 161 47 280.5t140.5 185.5t231.5 66q70 0 124.5 -17t96 -44t69 -58t42.5 -58v609h215v-1486h-160l-24 212q-11 -34 -34 -74t-62.5 -76t-100.5 -59t-147 -23zM563 141q144 0 208 90.5t64 297.5
q-1 117 -29 198t-86.5 122.5t-153.5 41.5q-119 0 -194 -85.5t-75 -276.5q0 -188 68.5 -288t197.5 -100z" />
    <glyph glyph-name="uni1E0D" unicode="&#x1e0d;" horiz-adv-x="1195" 
d="M522 -20q-204 0 -321 139.5t-117 402.5q0 161 47 280.5t140.5 185.5t231.5 66q70 0 124.5 -17t96 -44t69 -58t42.5 -58v609h215v-1486h-160l-24 212q-11 -34 -34 -74t-62.5 -76t-100.5 -59t-147 -23zM563 141q144 0 208 90.5t64 297.5q-1 117 -29 198t-86.5 122.5
t-153.5 41.5q-119 0 -194 -85.5t-75 -276.5q0 -188 68.5 -288t197.5 -100zM434 -370v195h212v-195h-212z" />
    <glyph glyph-name="e" unicode="e" horiz-adv-x="1129" 
d="M307 467q0 -93 30.5 -166.5t92.5 -116t154 -42.5t159.5 42t88.5 125h198q-18 -106 -84.5 -180t-160.5 -111.5t-197 -37.5q-147 0 -259 63.5t-174.5 181.5t-62.5 281q0 161 57 284.5t165 193.5t260 70q150 0 252.5 -64t155.5 -179.5t53 -272.5v-71h-728zM307 606h524
q0 81 -28 147.5t-85.5 105t-144.5 38.5q-89 0 -148 -43t-88.5 -110t-29.5 -138z" />
    <glyph glyph-name="eacute" unicode="&#xe9;" horiz-adv-x="1129" 
d="M307 467q0 -93 30.5 -166.5t92.5 -116t154 -42.5t159.5 42t88.5 125h198q-18 -106 -84.5 -180t-160.5 -111.5t-197 -37.5q-147 0 -259 63.5t-174.5 181.5t-62.5 281q0 161 57 284.5t165 193.5t260 70q150 0 252.5 -64t155.5 -179.5t53 -272.5v-71h-728zM307 606h524
q0 81 -28 147.5t-85.5 105t-144.5 38.5q-89 0 -148 -43t-88.5 -110t-29.5 -138zM698 1446h235l-280 -291h-161z" />
    <glyph glyph-name="ebreve" unicode="&#x115;" horiz-adv-x="1129" 
d="M307 467q0 -93 30.5 -166.5t92.5 -116t154 -42.5t159.5 42t88.5 125h198q-18 -106 -84.5 -180t-160.5 -111.5t-197 -37.5q-147 0 -259 63.5t-174.5 181.5t-62.5 281q0 161 57 284.5t165 193.5t260 70q150 0 252.5 -64t155.5 -179.5t53 -272.5v-71h-728zM307 606h524
q0 81 -28 147.5t-85.5 105t-144.5 38.5q-89 0 -148 -43t-88.5 -110t-29.5 -138zM891 1380q-15 -72 -60 -122.5t-111.5 -77.5t-145.5 -27q-76 0 -142 26t-111.5 77t-61.5 124h148q16 -48 59.5 -78.5t107.5 -30.5q63 0 108 30.5t62 78.5h147z" />
    <glyph glyph-name="ecaron" unicode="&#x11b;" horiz-adv-x="1129" 
d="M307 467q0 -93 30.5 -166.5t92.5 -116t154 -42.5t159.5 42t88.5 125h198q-18 -106 -84.5 -180t-160.5 -111.5t-197 -37.5q-147 0 -259 63.5t-174.5 181.5t-62.5 281q0 161 57 284.5t165 193.5t260 70q150 0 252.5 -64t155.5 -179.5t53 -272.5v-71h-728zM307 606h524
q0 81 -28 147.5t-85.5 105t-144.5 38.5q-89 0 -148 -43t-88.5 -110t-29.5 -138zM497 1155l-254 235h179l150 -139l138 139h189l-249 -235h-153z" />
    <glyph glyph-name="ecircumflex" unicode="&#xea;" horiz-adv-x="1129" 
d="M307 467q0 -93 30.5 -166.5t92.5 -116t154 -42.5t159.5 42t88.5 125h198q-18 -106 -84.5 -180t-160.5 -111.5t-197 -37.5q-147 0 -259 63.5t-174.5 181.5t-62.5 281q0 161 57 284.5t165 193.5t260 70q150 0 252.5 -64t155.5 -179.5t53 -272.5v-71h-728zM307 606h524
q0 81 -28 147.5t-85.5 105t-144.5 38.5q-89 0 -148 -43t-88.5 -110t-29.5 -138zM712 1155l-138 133l-150 -133h-178l254 234h152l249 -234h-189z" />
    <glyph glyph-name="uni1EBF" unicode="&#x1ebf;" horiz-adv-x="1129" 
d="M307 467q0 -93 30.5 -166.5t92.5 -116t154 -42.5t159.5 42t88.5 125h198q-18 -106 -84.5 -180t-160.5 -111.5t-197 -37.5q-147 0 -259 63.5t-174.5 181.5t-62.5 281q0 161 57 284.5t165 193.5t260 70q150 0 252.5 -64t155.5 -179.5t53 -272.5v-71h-728zM307 606h524
q0 81 -28 147.5t-85.5 105t-144.5 38.5q-89 0 -148 -43t-88.5 -110t-29.5 -138zM712 1155l-138 133l-150 -133h-178l254 234h152l249 -234h-189zM917 1630h188l-208 -248h-127z" />
    <glyph glyph-name="uni1EC7" unicode="&#x1ec7;" horiz-adv-x="1129" 
d="M307 467q0 -93 30.5 -166.5t92.5 -116t154 -42.5t159.5 42t88.5 125h198q-18 -106 -84.5 -180t-160.5 -111.5t-197 -37.5q-147 0 -259 63.5t-174.5 181.5t-62.5 281q0 161 57 284.5t165 193.5t260 70q150 0 252.5 -64t155.5 -179.5t53 -272.5v-71h-728zM307 606h524
q0 81 -28 147.5t-85.5 105t-144.5 38.5q-89 0 -148 -43t-88.5 -110t-29.5 -138zM471 -370v195h212v-195h-212zM712 1155l-138 133l-150 -133h-178l254 234h152l249 -234h-189z" />
    <glyph glyph-name="uni1EC1" unicode="&#x1ec1;" horiz-adv-x="1129" 
d="M307 467q0 -93 30.5 -166.5t92.5 -116t154 -42.5t159.5 42t88.5 125h198q-18 -106 -84.5 -180t-160.5 -111.5t-197 -37.5q-147 0 -259 63.5t-174.5 181.5t-62.5 281q0 161 57 284.5t165 193.5t260 70q150 0 252.5 -64t155.5 -179.5t53 -272.5v-71h-728zM307 606h524
q0 81 -28 147.5t-85.5 105t-144.5 38.5q-89 0 -148 -43t-88.5 -110t-29.5 -138zM712 1155l-138 133l-150 -133h-178l254 234h152l249 -234h-189zM838 1630l158 -248h-131l-215 248h188z" />
    <glyph glyph-name="uni1EC3" unicode="&#x1ec3;" horiz-adv-x="1129" 
d="M307 467q0 -93 30.5 -166.5t92.5 -116t154 -42.5t159.5 42t88.5 125h198q-18 -106 -84.5 -180t-160.5 -111.5t-197 -37.5q-147 0 -259 63.5t-174.5 181.5t-62.5 281q0 161 57 284.5t165 193.5t260 70q150 0 252.5 -64t155.5 -179.5t53 -272.5v-71h-728zM307 606h524
q0 81 -28 147.5t-85.5 105t-144.5 38.5q-89 0 -148 -43t-88.5 -110t-29.5 -138zM717 1155l-138 133l-150 -133h-178l254 234h152l249 -234h-189zM624 1654l58 -90q39 26 80.5 26t60.5 -32q21 -33 4.5 -69t-58.5 -63l59 -90q92 56 116.5 131.5t-26.5 153.5q-42 66 -125 77.5
t-169 -44.5z" />
    <glyph glyph-name="uni1EC5" unicode="&#x1ec5;" horiz-adv-x="1129" 
d="M307 467q0 -93 30.5 -166.5t92.5 -116t154 -42.5t159.5 42t88.5 125h198q-18 -106 -84.5 -180t-160.5 -111.5t-197 -37.5q-147 0 -259 63.5t-174.5 181.5t-62.5 281q0 161 57 284.5t165 193.5t260 70q150 0 252.5 -64t155.5 -179.5t53 -272.5v-71h-728zM307 606h524
q0 81 -28 147.5t-85.5 105t-144.5 38.5q-89 0 -148 -43t-88.5 -110t-29.5 -138zM714 1155l-138 133l-150 -133h-178l254 234h152l249 -234h-189zM888 1561q-27 -21 -71.5 -41.5t-108.5 -20.5q-54 0 -96 13.5t-81 26.5t-86 13q-50 0 -81 -16t-64 -42l-38 121q34 33 74 56
t100 23q51 0 96 -14t88.5 -28.5t87.5 -14.5q47 0 82 18.5t65 40.5z" />
    <glyph glyph-name="uni0205" unicode="&#x205;" horiz-adv-x="1129" 
d="M307 467q0 -93 30.5 -166.5t92.5 -116t154 -42.5t159.5 42t88.5 125h198q-18 -106 -84.5 -180t-160.5 -111.5t-197 -37.5q-147 0 -259 63.5t-174.5 181.5t-62.5 281q0 161 57 284.5t165 193.5t260 70q150 0 252.5 -64t155.5 -179.5t53 -272.5v-71h-728zM307 606h524
q0 81 -28 147.5t-85.5 105t-144.5 38.5q-89 0 -148 -43t-88.5 -110t-29.5 -138zM606 1446l197 -291h-161l-250 291h214zM265 1446l239 -291h-161l-297 291h219z" />
    <glyph glyph-name="edieresis" unicode="&#xeb;" horiz-adv-x="1129" 
d="M307 467q0 -93 30.5 -166.5t92.5 -116t154 -42.5t159.5 42t88.5 125h198q-18 -106 -84.5 -180t-160.5 -111.5t-197 -37.5q-147 0 -259 63.5t-174.5 181.5t-62.5 281q0 161 57 284.5t165 193.5t260 70q150 0 252.5 -64t155.5 -179.5t53 -272.5v-71h-728zM307 606h524
q0 81 -28 147.5t-85.5 105t-144.5 38.5q-89 0 -148 -43t-88.5 -110t-29.5 -138zM676 1207l2 195h206l-2 -195h-206zM266 1207l2 195h206l-2 -195h-206z" />
    <glyph glyph-name="edotaccent" unicode="&#x117;" horiz-adv-x="1129" 
d="M307 467q0 -93 30.5 -166.5t92.5 -116t154 -42.5t159.5 42t88.5 125h198q-18 -106 -84.5 -180t-160.5 -111.5t-197 -37.5q-147 0 -259 63.5t-174.5 181.5t-62.5 281q0 161 57 284.5t165 193.5t260 70q150 0 252.5 -64t155.5 -179.5t53 -272.5v-71h-728zM307 606h524
q0 81 -28 147.5t-85.5 105t-144.5 38.5q-89 0 -148 -43t-88.5 -110t-29.5 -138zM469 1207v195h212v-195h-212z" />
    <glyph glyph-name="uni1EB9" unicode="&#x1eb9;" horiz-adv-x="1129" 
d="M307 467q0 -93 30.5 -166.5t92.5 -116t154 -42.5t159.5 42t88.5 125h198q-18 -106 -84.5 -180t-160.5 -111.5t-197 -37.5q-147 0 -259 63.5t-174.5 181.5t-62.5 281q0 161 57 284.5t165 193.5t260 70q150 0 252.5 -64t155.5 -179.5t53 -272.5v-71h-728zM307 606h524
q0 81 -28 147.5t-85.5 105t-144.5 38.5q-89 0 -148 -43t-88.5 -110t-29.5 -138zM471 -370v195h212v-195h-212z" />
    <glyph glyph-name="egrave" unicode="&#xe8;" horiz-adv-x="1129" 
d="M307 467q0 -93 30.5 -166.5t92.5 -116t154 -42.5t159.5 42t88.5 125h198q-18 -106 -84.5 -180t-160.5 -111.5t-197 -37.5q-147 0 -259 63.5t-174.5 181.5t-62.5 281q0 161 57 284.5t165 193.5t260 70q150 0 252.5 -64t155.5 -179.5t53 -272.5v-71h-728zM307 606h524
q0 81 -28 147.5t-85.5 105t-144.5 38.5q-89 0 -148 -43t-88.5 -110t-29.5 -138zM447 1446h-235l280 -291h161z" />
    <glyph glyph-name="uni1EBB" unicode="&#x1ebb;" horiz-adv-x="1129" 
d="M307 467q0 -93 30.5 -166.5t92.5 -116t154 -42.5t159.5 42t88.5 125h198q-18 -106 -84.5 -180t-160.5 -111.5t-197 -37.5q-147 0 -259 63.5t-174.5 181.5t-62.5 281q0 161 57 284.5t165 193.5t260 70q150 0 252.5 -64t155.5 -179.5t53 -272.5v-71h-728zM307 606h524
q0 81 -28 147.5t-85.5 105t-144.5 38.5q-89 0 -148 -43t-88.5 -110t-29.5 -138zM437 1470l58 -90q39 26 80.5 26t60.5 -32q21 -33 4.5 -69t-58.5 -63l59 -90q92 56 116.5 131.5t-26.5 153.5q-42 66 -125 77.5t-169 -44.5z" />
    <glyph glyph-name="uni0207" unicode="&#x207;" horiz-adv-x="1129" 
d="M307 467q0 -93 30.5 -166.5t92.5 -116t154 -42.5t159.5 42t88.5 125h198q-18 -106 -84.5 -180t-160.5 -111.5t-197 -37.5q-147 0 -259 63.5t-174.5 181.5t-62.5 281q0 161 57 284.5t165 193.5t260 70q150 0 252.5 -64t155.5 -179.5t53 -272.5v-71h-728zM307 606h524
q0 81 -28 147.5t-85.5 105t-144.5 38.5q-89 0 -148 -43t-88.5 -110t-29.5 -138zM887 1200q-15 72 -60 122.5t-111.5 77.5t-145.5 27q-76 0 -142 -26t-111.5 -77t-61.5 -124h148q16 48 59.5 78.5t107.5 30.5q63 0 108 -30.5t62 -78.5h147z" />
    <glyph glyph-name="emacron" unicode="&#x113;" horiz-adv-x="1129" 
d="M307 467q0 -93 30.5 -166.5t92.5 -116t154 -42.5t159.5 42t88.5 125h198q-18 -106 -84.5 -180t-160.5 -111.5t-197 -37.5q-147 0 -259 63.5t-174.5 181.5t-62.5 281q0 161 57 284.5t165 193.5t260 70q150 0 252.5 -64t155.5 -179.5t53 -272.5v-71h-728zM307 606h524
q0 81 -28 147.5t-85.5 105t-144.5 38.5q-89 0 -148 -43t-88.5 -110t-29.5 -138zM887 1373v-146h-625v146h625z" />
    <glyph glyph-name="eogonek" unicode="&#x119;" horiz-adv-x="1129" 
d="M307 467q0 -93 30.5 -166.5t92.5 -116t154 -42.5t159.5 42t88.5 125h198q-18 -106 -84.5 -180t-160.5 -111.5t-197 -37.5q-147 0 -259 63.5t-174.5 181.5t-62.5 281q0 161 57 284.5t165 193.5t260 70q150 0 252.5 -64t155.5 -179.5t53 -272.5v-71h-728zM307 606h524
q0 81 -28 147.5t-85.5 105t-144.5 38.5q-89 0 -148 -43t-88.5 -110t-29.5 -138zM463 -153q0 58 41 105.5t160 85.5l153 -10q-102 -42 -145.5 -77.5t-43.5 -82.5q0 -35 20.5 -53t66.5 -18q47 0 83.5 13t60.5 26v-106q-26 -16 -79 -29.5t-114 -13.5q-99 0 -151 42t-52 118z
" />
    <glyph glyph-name="uni1EBD" unicode="&#x1ebd;" horiz-adv-x="1129" 
d="M307 467q0 -93 30.5 -166.5t92.5 -116t154 -42.5t159.5 42t88.5 125h198q-18 -106 -84.5 -180t-160.5 -111.5t-197 -37.5q-147 0 -259 63.5t-174.5 181.5t-62.5 281q0 161 57 284.5t165 193.5t260 70q150 0 252.5 -64t155.5 -179.5t53 -272.5v-71h-728zM307 606h524
q0 81 -28 147.5t-85.5 105t-144.5 38.5q-89 0 -148 -43t-88.5 -110t-29.5 -138zM891 1279q-27 -21 -71.5 -41.5t-108.5 -20.5q-54 0 -96 13.5t-81 26.5t-86 13q-50 0 -81 -16t-64 -42l-38 121q34 33 74 56t100 23q51 0 96 -14t88.5 -28.5t87.5 -14.5q47 0 82 18.5t65 40.5z
" />
    <glyph glyph-name="uni0259" unicode="&#x259;" horiz-adv-x="1129" 
d="M822 567q0 93 -30.5 166.5t-92.5 116t-154 42.5t-159.5 -42t-88.5 -125h-198q18 106 84.5 180t160.5 111.5t197 37.5q147 0 259 -63.5t174.5 -181.5t62.5 -281q0 -161 -57 -284.5t-165 -193.5t-260 -70q-150 0 -252.5 64t-155.5 179.5t-53 272.5v71h728zM822 428h-524
q0 -81 28 -147.5t85.5 -105t144.5 -38.5q89 0 148 43t88.5 110t29.5 138z" />
    <glyph glyph-name="f" unicode="f" horiz-adv-x="809" 
d="M742 1034v-154h-242v-880h-215v880h-211v154h211v157q0 124 66 189.5t194 65.5h206l1 -148h-149q-62 0 -84.5 -32.5t-22.5 -99.5v-132h246z" />
    <glyph glyph-name="g" unicode="g" horiz-adv-x="1246" 
d="M593 -342q-252 0 -390 70.5t-138 196.5q0 55 26.5 93.5t63 63.5t67.5 39.5t40 20.5q-17 10 -43.5 25.5t-47.5 42t-21 69.5q0 50 47.5 92.5t142.5 62.5q-94 46 -145.5 124t-51.5 166q0 101 57 174.5t160.5 112.5t243.5 39q102 0 171 -23t127 -64q19 7 54 21.5t77.5 31.5
t81 33t62.5 26l-1 -186l-180 -33q14 -30 22.5 -66t8.5 -66q0 -90 -49 -165.5t-147 -120.5t-245 -45q-14 0 -36 0.5t-37 2.5q-93 -3 -128 -21.5t-35 -40.5q0 -28 45 -38t148 -17q37 -3 94.5 -6t127.5 -8q170 -10 259.5 -85t89.5 -199q0 -142 -129 -232.5t-392 -90.5z
M630 -211q137 0 206.5 39.5t69.5 117.5q0 58 -45 95t-134 43l-276 18q-41 2 -81.5 -18t-67 -55.5t-26.5 -78.5q0 -78 86.5 -119.5t267.5 -41.5zM592 524q104 0 167.5 50.5t63.5 145.5q0 98 -63.5 151.5t-167.5 53.5q-105 0 -169.5 -54t-64.5 -151q0 -92 61.5 -144t172.5 -52
z" />
    <glyph glyph-name="gbreve" unicode="&#x11f;" horiz-adv-x="1246" 
d="M593 -342q-252 0 -390 70.5t-138 196.5q0 55 26.5 93.5t63 63.5t67.5 39.5t40 20.5q-17 10 -43.5 25.5t-47.5 42t-21 69.5q0 50 47.5 92.5t142.5 62.5q-94 46 -145.5 124t-51.5 166q0 101 57 174.5t160.5 112.5t243.5 39q102 0 171 -23t127 -64q19 7 54 21.5t77.5 31.5
t81 33t62.5 26l-1 -186l-180 -33q14 -30 22.5 -66t8.5 -66q0 -90 -49 -165.5t-147 -120.5t-245 -45q-14 0 -36 0.5t-37 2.5q-93 -3 -128 -21.5t-35 -40.5q0 -28 45 -38t148 -17q37 -3 94.5 -6t127.5 -8q170 -10 259.5 -85t89.5 -199q0 -142 -129 -232.5t-392 -90.5z
M630 -211q137 0 206.5 39.5t69.5 117.5q0 58 -45 95t-134 43l-276 18q-41 2 -81.5 -18t-67 -55.5t-26.5 -78.5q0 -78 86.5 -119.5t267.5 -41.5zM592 524q104 0 167.5 50.5t63.5 145.5q0 98 -63.5 151.5t-167.5 53.5q-105 0 -169.5 -54t-64.5 -151q0 -92 61.5 -144t172.5 -52
zM917 1380q-15 -72 -60 -122.5t-111.5 -77.5t-145.5 -27q-76 0 -142 26t-111.5 77t-61.5 124h148q16 -48 59.5 -78.5t107.5 -30.5q63 0 108 30.5t62 78.5h147z" />
    <glyph glyph-name="gcircumflex" unicode="&#x11d;" horiz-adv-x="1246" 
d="M593 -342q-252 0 -390 70.5t-138 196.5q0 55 26.5 93.5t63 63.5t67.5 39.5t40 20.5q-17 10 -43.5 25.5t-47.5 42t-21 69.5q0 50 47.5 92.5t142.5 62.5q-94 46 -145.5 124t-51.5 166q0 101 57 174.5t160.5 112.5t243.5 39q102 0 171 -23t127 -64q19 7 54 21.5t77.5 31.5
t81 33t62.5 26l-1 -186l-180 -33q14 -30 22.5 -66t8.5 -66q0 -90 -49 -165.5t-147 -120.5t-245 -45q-14 0 -36 0.5t-37 2.5q-93 -3 -128 -21.5t-35 -40.5q0 -28 45 -38t148 -17q37 -3 94.5 -6t127.5 -8q170 -10 259.5 -85t89.5 -199q0 -142 -129 -232.5t-392 -90.5z
M630 -211q137 0 206.5 39.5t69.5 117.5q0 58 -45 95t-134 43l-276 18q-41 2 -81.5 -18t-67 -55.5t-26.5 -78.5q0 -78 86.5 -119.5t267.5 -41.5zM592 524q104 0 167.5 50.5t63.5 145.5q0 98 -63.5 151.5t-167.5 53.5q-105 0 -169.5 -54t-64.5 -151q0 -92 61.5 -144t172.5 -52
zM739 1155l-138 133l-150 -133h-178l254 234h152l249 -234h-189z" />
    <glyph glyph-name="uni0123" unicode="&#x123;" horiz-adv-x="1246" 
d="M466 1204v190l97 147h93l-96 -158h80v-179h-174zM593 -342q-252 0 -390 70.5t-138 196.5q0 55 26.5 93.5t63 63.5t67.5 39.5t40 20.5q-17 10 -43.5 25.5t-47.5 42t-21 69.5q0 50 47.5 92.5t142.5 62.5q-94 46 -145.5 124t-51.5 166q0 101 57 174.5t160.5 112.5t243.5 39
q102 0 171 -23t127 -64q19 7 54 21.5t77.5 31.5t81 33t62.5 26l-1 -186l-180 -33q14 -30 22.5 -66t8.5 -66q0 -90 -49 -165.5t-147 -120.5t-245 -45q-14 0 -36 0.5t-37 2.5q-93 -3 -128 -21.5t-35 -40.5q0 -28 45 -38t148 -17q37 -3 94.5 -6t127.5 -8q170 -10 259.5 -85
t89.5 -199q0 -142 -129 -232.5t-392 -90.5zM630 -211q137 0 206.5 39.5t69.5 117.5q0 58 -45 95t-134 43l-276 18q-41 2 -81.5 -18t-67 -55.5t-26.5 -78.5q0 -78 86.5 -119.5t267.5 -41.5zM592 524q104 0 167.5 50.5t63.5 145.5q0 98 -63.5 151.5t-167.5 53.5
q-105 0 -169.5 -54t-64.5 -151q0 -92 61.5 -144t172.5 -52z" />
    <glyph glyph-name="gdotaccent" unicode="&#x121;" horiz-adv-x="1246" 
d="M593 -342q-252 0 -390 70.5t-138 196.5q0 55 26.5 93.5t63 63.5t67.5 39.5t40 20.5q-17 10 -43.5 25.5t-47.5 42t-21 69.5q0 50 47.5 92.5t142.5 62.5q-94 46 -145.5 124t-51.5 166q0 101 57 174.5t160.5 112.5t243.5 39q102 0 171 -23t127 -64q19 7 54 21.5t77.5 31.5
t81 33t62.5 26l-1 -186l-180 -33q14 -30 22.5 -66t8.5 -66q0 -90 -49 -165.5t-147 -120.5t-245 -45q-14 0 -36 0.5t-37 2.5q-93 -3 -128 -21.5t-35 -40.5q0 -28 45 -38t148 -17q37 -3 94.5 -6t127.5 -8q170 -10 259.5 -85t89.5 -199q0 -142 -129 -232.5t-392 -90.5z
M630 -211q137 0 206.5 39.5t69.5 117.5q0 58 -45 95t-134 43l-276 18q-41 2 -81.5 -18t-67 -55.5t-26.5 -78.5q0 -78 86.5 -119.5t267.5 -41.5zM592 524q104 0 167.5 50.5t63.5 145.5q0 98 -63.5 151.5t-167.5 53.5q-105 0 -169.5 -54t-64.5 -151q0 -92 61.5 -144t172.5 -52
zM495 1207v195h212v-195h-212z" />
    <glyph glyph-name="h" unicode="h" horiz-adv-x="1162" 
d="M145 0v1486h211v-603q25 41 67.5 78t104 60.5t143.5 23.5q101 0 182.5 -37.5t130 -108t48.5 -167.5v-732h-214v693q0 87 -60 134t-154 47q-63 0 -119.5 -21.5t-91 -64t-34.5 -106.5v-682h-214z" />
    <glyph glyph-name="hbar" unicode="&#x127;" horiz-adv-x="1194" 
d="M673 1312v-129h-633v129h633zM177 0v1486h211v-603q25 41 67.5 78t104 60.5t143.5 23.5q101 0 182.5 -37.5t130 -108t48.5 -167.5v-732h-214v693q0 87 -60 134t-154 47q-63 0 -119.5 -21.5t-91 -64t-34.5 -106.5v-682h-214z" />
    <glyph glyph-name="hcircumflex" unicode="&#x125;" horiz-adv-x="1162" 
d="M145 0v1486h211v-603q25 41 67.5 78t104 60.5t143.5 23.5q101 0 182.5 -37.5t130 -108t48.5 -167.5v-732h-214v693q0 87 -60 134t-154 47q-63 0 -119.5 -21.5t-91 -64t-34.5 -106.5v-682h-214zM386 1567l-138 133l-150 -133h-178l254 234h152l249 -234h-189z" />
    <glyph glyph-name="uni1E25" unicode="&#x1e25;" horiz-adv-x="1162" 
d="M145 0v1486h211v-603q25 41 67.5 78t104 60.5t143.5 23.5q101 0 182.5 -37.5t130 -108t48.5 -167.5v-732h-214v693q0 87 -60 134t-154 47q-63 0 -119.5 -21.5t-91 -64t-34.5 -106.5v-682h-214zM495 -370v195h212v-195h-212z" />
    <glyph glyph-name="i" unicode="i" horiz-adv-x="534" 
d="M371 1034v-1034h-206v1034h206zM375 1445v-211h-215v211h215z" />
    <glyph glyph-name="dotlessi" unicode="&#x131;" horiz-adv-x="525" 
d="M366 1034v-1034h-206v1034h206z" />
    <glyph glyph-name="iacute" unicode="&#xed;" horiz-adv-x="525" 
d="M366 1034v-1034h-206v1034h206zM322 1446h226l-209 -291l-159 1z" />
    <glyph glyph-name="ibreve" unicode="&#x12d;" horiz-adv-x="525" 
d="M366 1034v-1034h-206v1034h206zM580 1380q-15 -72 -60 -122.5t-111.5 -77.5t-145.5 -27q-76 0 -142 26t-111.5 77t-61.5 124h148q16 -48 59.5 -78.5t107.5 -30.5q63 0 108 30.5t62 78.5h147z" />
    <glyph glyph-name="icircumflex" unicode="&#xee;" horiz-adv-x="525" 
d="M366 1034v-1034h-206v1034h206zM402 1155l-138 133l-150 -133h-178l254 234h152l249 -234h-189z" />
    <glyph glyph-name="uni0209" unicode="&#x209;" horiz-adv-x="525" 
d="M366 1034v-1034h-206v1034h206zM296 1446l197 -291h-161l-250 291h214zM-45 1446l239 -291h-161l-297 291h219z" />
    <glyph glyph-name="idieresis" unicode="&#xef;" horiz-adv-x="668" 
d="M437 1034v-1034h-206v1034h206zM435 1204l2 195h206l-2 -195h-206zM25 1204l2 195h206l-2 -195h-206z" />
    <glyph glyph-name="i.loclTRK" horiz-adv-x="525" 
d="M366 1034v-1034h-206v1034h206zM158 1207v195h212v-195h-212z" />
    <glyph glyph-name="uni1ECB" unicode="&#x1ecb;" horiz-adv-x="535" 
d="M371 1034v-1034h-206v1034h206zM375 1445v-211h-215v211h215zM162 -370v195h212v-195h-212z" />
    <glyph glyph-name="igrave" unicode="&#xec;" horiz-adv-x="525" 
d="M366 1034v-1034h-206v1034h206zM137 1446h-235l280 -291h161z" />
    <glyph glyph-name="uni1EC9" unicode="&#x1ec9;" horiz-adv-x="525" 
d="M366 1034v-1034h-206v1034h206zM127 1470l58 -90q39 26 80.5 26t60.5 -32q21 -33 4.5 -69t-58.5 -63l59 -90q92 56 116.5 131.5t-26.5 153.5q-42 66 -125 77.5t-169 -44.5z" />
    <glyph glyph-name="uni020B" unicode="&#x20b;" horiz-adv-x="620" 
d="M415 1034v-1034h-206v1034h206zM622 1200q-15 72 -60 122.5t-111.5 77.5t-145.5 27q-76 0 -142 -26t-111.5 -77t-61.5 -124h148q16 48 59.5 78.5t107.5 30.5q63 0 108 -30.5t62 -78.5h147z" />
    <glyph glyph-name="imacron" unicode="&#x12b;" horiz-adv-x="625" 
d="M418 1034v-1034h-206v1034h206zM624 1373v-146h-625v146h625z" />
    <glyph glyph-name="iogonek" unicode="&#x12f;" horiz-adv-x="525" 
d="M366 1034v-1034h-206v1034h206zM158 1207v195h212v-195h-212zM12 -173q0 58 41 105.5t160 85.5l153 -10q-102 -42 -145.5 -77.5t-43.5 -82.5q0 -35 20.5 -53t66.5 -18q47 0 83.5 13t60.5 26v-106q-26 -16 -79 -29.5t-114 -13.5q-99 0 -151 42t-52 118z" />
    <glyph glyph-name="itilde" unicode="&#x129;" horiz-adv-x="612" 
d="M408 1034v-1034h-206v1034h206zM619 1279q-27 -21 -71.5 -41.5t-108.5 -20.5q-54 0 -96 13.5t-81 26.5t-86 13q-50 0 -81 -16t-64 -42l-38 121q34 33 74 56t100 23q51 0 96 -14t88.5 -28.5t87.5 -14.5q47 0 82 18.5t65 40.5z" />
    <glyph glyph-name="j" unicode="j" horiz-adv-x="539" 
d="M390 -32q0 -151 -68 -225.5t-234 -74.5q-83 0 -106.5 12.5l-23.5 12.5v143l96 6q67 6 94.5 36t27.5 96v1060h214v-1066zM394 1445v-211h-224v211h224z" />
    <glyph glyph-name="uni0237" unicode="&#x237;" horiz-adv-x="536" 
d="M391 -32q0 -151 -69 -225.5t-234 -74.5q-83 0 -106.5 9t-23.5 16v143l96 6q67 6 95 36t28 96v1060h214v-1066z" />
    <glyph glyph-name="jcircumflex" unicode="&#x135;" horiz-adv-x="536" 
d="M391 -32q0 -151 -69 -225.5t-234 -74.5q-83 0 -106.5 9t-23.5 16v143l96 6q67 6 95 36t28 96v1060h214v-1066zM420 1155l-138 133l-150 -133h-178l254 234h152l249 -234h-189z" />
    <glyph glyph-name="k" unicode="k" horiz-adv-x="1137" 
d="M1078 0h-222l-311 499l-186 -193v-306h-214v1486h214v-945l457 493h240l-374 -399z" />
    <glyph glyph-name="uni0137" unicode="&#x137;" horiz-adv-x="1137" 
d="M1078 0h-222l-311 499l-186 -193v-306h-214v1486h214v-945l457 493h240l-374 -399zM448 -397l84 131l-67 7v163h203v-137l-137 -164h-83z" />
    <glyph glyph-name="kgreenlandic" unicode="&#x138;" horiz-adv-x="1164" 
d="M1105 0h-249l-284 518l-213 -212v-306h-214v1034h214v-511l483 511h229l-353 -358z" />
    <glyph glyph-name="l" unicode="l" horiz-adv-x="610" 
d="M425 -14q-92 0 -147.5 24t-84.5 64.5t-38.5 92t-9.5 106.5v1213h211v-1191q0 -72 28.5 -110t87.5 -43l54 -2v-136q-25 -8 -51.5 -13t-49.5 -5z" />
    <glyph glyph-name="lacute" unicode="&#x13a;" horiz-adv-x="610" 
d="M425 -14q-92 0 -147.5 24t-84.5 64.5t-38.5 92t-9.5 106.5v1213h211v-1191q0 -72 28.5 -110t87.5 -43l54 -2v-136q-25 -8 -51.5 -13t-49.5 -5zM370 1939h235l-280 -291h-161z" />
    <glyph glyph-name="lcaron" unicode="&#x13e;" horiz-adv-x="610" 
d="M425 -14q-92 0 -147.5 24t-84.5 64.5t-38.5 92t-9.5 106.5v1213h211v-1191q0 -72 28.5 -110t87.5 -43l54 -2v-136q-25 -8 -51.5 -13t-49.5 -5zM467 1050l78 189l-59 10v202h165v-212l-81 -189h-103z" />
    <glyph glyph-name="uni013C" unicode="&#x13c;" horiz-adv-x="610" 
d="M425 -14q-92 0 -147.5 24t-84.5 64.5t-38.5 92t-9.5 106.5v1213h211v-1191q0 -72 28.5 -110t87.5 -43l54 -2v-136q-25 -8 -51.5 -13t-49.5 -5zM146 -396l84 131l-67 7v163h203v-137l-137 -164h-83z" />
    <glyph glyph-name="ldot" unicode="&#x140;" horiz-adv-x="735" 
d="M425 -14q-92 0 -147.5 24t-84.5 64.5t-38.5 92t-9.5 106.5v1213h211v-1191q0 -72 28.5 -110t87.5 -43l54 -2v-136q-25 -8 -51.5 -13t-49.5 -5zM766 688v-239h-248v239h248z" />
    <glyph glyph-name="lslash" unicode="&#x142;" horiz-adv-x="705" 
d="M606 924v-182l-536 -426v192zM499 -14q-91 0 -147 24t-84.5 64.5t-38 92t-9.5 106.5v1213h210v-1191q0 -72 29 -110t88 -43l53 -2v-136q-25 -8 -51.5 -13t-49.5 -5z" />
    <glyph glyph-name="m" unicode="m" horiz-adv-x="1746" 
d="M145 0v1034h208v-149q44 68 120 118.5t196 50.5q56 0 113.5 -19t106 -56.5t76.5 -92.5q49 74 131 121t184 47q55 0 114 -17.5t109.5 -59t82 -114.5t31.5 -185v-678h-215v655q0 85 -28.5 133t-74 67.5t-96.5 19.5q-46 0 -96 -18t-85 -60t-35 -114v-683h-214v701
q0 57 -30.5 96t-76 58.5t-90.5 19.5q-50 0 -100 -20t-83.5 -62.5t-33.5 -109.5v-683h-214z" />
    <glyph glyph-name="n" unicode="n" horiz-adv-x="1163" 
d="M145 0v1034h209v-149q25 42 67.5 79t105 60t144.5 23q97 0 179.5 -38.5t132.5 -120t50 -210.5v-678h-214v655q0 111 -59.5 165t-153.5 54q-63 0 -120 -21t-92 -63.5t-35 -106.5v-683h-214z" />
    <glyph glyph-name="nacute" unicode="&#x144;" horiz-adv-x="1163" 
d="M145 0v1034h209v-149q25 42 67.5 79t105 60t144.5 23q97 0 179.5 -38.5t132.5 -120t50 -210.5v-678h-214v655q0 111 -59.5 165t-153.5 54q-63 0 -120 -21t-92 -63.5t-35 -106.5v-683h-214zM723 1446h235l-280 -291h-161z" />
    <glyph glyph-name="ncaron" unicode="&#x148;" horiz-adv-x="1163" 
d="M145 0v1034h209v-149q25 42 67.5 79t105 60t144.5 23q97 0 179.5 -38.5t132.5 -120t50 -210.5v-678h-214v655q0 111 -59.5 165t-153.5 54q-63 0 -120 -21t-92 -63.5t-35 -106.5v-683h-214zM524 1155l-254 235h179l150 -139l138 139h189l-249 -235h-153z" />
    <glyph glyph-name="uni0146" unicode="&#x146;" horiz-adv-x="1163" 
d="M145 0v1034h209v-149q25 42 67.5 79t105 60t144.5 23q97 0 179.5 -38.5t132.5 -120t50 -210.5v-678h-214v655q0 111 -59.5 165t-153.5 54q-63 0 -120 -21t-92 -63.5t-35 -106.5v-683h-214zM473 -397l84 131l-67 7v163h203v-137l-137 -164h-83z" />
    <glyph glyph-name="uni1E45" unicode="&#x1e45;" horiz-adv-x="1163" 
d="M145 0v1034h209v-149q25 42 67.5 79t105 60t144.5 23q97 0 179.5 -38.5t132.5 -120t50 -210.5v-678h-214v655q0 111 -59.5 165t-153.5 54q-63 0 -120 -21t-92 -63.5t-35 -106.5v-683h-214zM494 1207v195h212v-195h-212z" />
    <glyph glyph-name="eng" unicode="&#x14b;" horiz-adv-x="1179" 
d="M736 -332q-80 0 -99 7.5t-19 14.5v145l81 3q65 5 93 35t28 98v736q0 83 -43.5 134t-140.5 51q-73 0 -141.5 -39t-133.5 -108v-745h-216l3 1034h207v-159q68 63 127.5 102t117.5 58t122 19q145 0 228.5 -82.5t83.5 -217.5v-774q0 -98 -35 -168t-101.5 -107t-161.5 -37z
" />
    <glyph glyph-name="ntilde" unicode="&#xf1;" horiz-adv-x="1163" 
d="M145 0v1034h209v-149q25 42 67.5 79t105 60t144.5 23q97 0 179.5 -38.5t132.5 -120t50 -210.5v-678h-214v655q0 111 -59.5 165t-153.5 54q-63 0 -120 -21t-92 -63.5t-35 -106.5v-683h-214zM917 1279q-27 -21 -71.5 -41.5t-108.5 -20.5q-54 0 -96 13.5t-81 26.5t-86 13
q-50 0 -81 -16t-64 -42l-38 121q34 33 74 56t100 23q51 0 96 -14t88.5 -28.5t87.5 -14.5q47 0 82 18.5t65 40.5z" />
    <glyph glyph-name="o" unicode="o" horiz-adv-x="1128" 
d="M565 -20q-145 0 -253.5 62.5t-168 181.5t-59.5 288q0 163 56.5 285t164.5 189.5t261 67.5q146 0 253 -63.5t166 -185t59 -293.5q0 -157 -55.5 -277t-162 -187.5t-261.5 -67.5zM566 145q88 0 147.5 46.5t89.5 131t30 195.5q0 103 -26.5 187.5t-85.5 134.5t-155 50
q-90 0 -150 -45.5t-90.5 -129t-30.5 -197.5q0 -101 27 -186t87 -136t157 -51z" />
    <glyph glyph-name="oacute" unicode="&#xf3;" horiz-adv-x="1128" 
d="M565 -20q-145 0 -253.5 62.5t-168 181.5t-59.5 288q0 163 56.5 285t164.5 189.5t261 67.5q146 0 253 -63.5t166 -185t59 -293.5q0 -157 -55.5 -277t-162 -187.5t-261.5 -67.5zM566 145q88 0 147.5 46.5t89.5 131t30 195.5q0 103 -26.5 187.5t-85.5 134.5t-155 50
q-90 0 -150 -45.5t-90.5 -129t-30.5 -197.5q0 -101 27 -186t87 -136t157 -51zM688 1446h235l-280 -291h-161z" />
    <glyph glyph-name="obreve" unicode="&#x14f;" horiz-adv-x="1128" 
d="M565 -20q-145 0 -253.5 62.5t-168 181.5t-59.5 288q0 163 56.5 285t164.5 189.5t261 67.5q146 0 253 -63.5t166 -185t59 -293.5q0 -157 -55.5 -277t-162 -187.5t-261.5 -67.5zM566 145q88 0 147.5 46.5t89.5 131t30 195.5q0 103 -26.5 187.5t-85.5 134.5t-155 50
q-90 0 -150 -45.5t-90.5 -129t-30.5 -197.5q0 -101 27 -186t87 -136t157 -51zM880 1380q-15 -72 -60 -122.5t-111.5 -77.5t-145.5 -27q-76 0 -142 26t-111.5 77t-61.5 124h148q16 -48 59.5 -78.5t107.5 -30.5q63 0 108 30.5t62 78.5h147z" />
    <glyph glyph-name="ocircumflex" unicode="&#xf4;" horiz-adv-x="1128" 
d="M565 -20q-145 0 -253.5 62.5t-168 181.5t-59.5 288q0 163 56.5 285t164.5 189.5t261 67.5q146 0 253 -63.5t166 -185t59 -293.5q0 -157 -55.5 -277t-162 -187.5t-261.5 -67.5zM566 145q88 0 147.5 46.5t89.5 131t30 195.5q0 103 -26.5 187.5t-85.5 134.5t-155 50
q-90 0 -150 -45.5t-90.5 -129t-30.5 -197.5q0 -101 27 -186t87 -136t157 -51zM702 1155l-138 133l-150 -133h-178l254 234h152l249 -234h-189z" />
    <glyph glyph-name="uni1ED1" unicode="&#x1ed1;" horiz-adv-x="1128" 
d="M565 -20q-145 0 -253.5 62.5t-168 181.5t-59.5 288q0 163 56.5 285t164.5 189.5t261 67.5q146 0 253 -63.5t166 -185t59 -293.5q0 -157 -55.5 -277t-162 -187.5t-261.5 -67.5zM566 145q88 0 147.5 46.5t89.5 131t30 195.5q0 103 -26.5 187.5t-85.5 134.5t-155 50
q-90 0 -150 -45.5t-90.5 -129t-30.5 -197.5q0 -101 27 -186t87 -136t157 -51zM702 1155l-138 133l-150 -133h-178l254 234h152l249 -234h-189zM907 1630h188l-208 -248h-127z" />
    <glyph glyph-name="uni1ED9" unicode="&#x1ed9;" horiz-adv-x="1128" 
d="M565 -20q-145 0 -253.5 62.5t-168 181.5t-59.5 288q0 163 56.5 285t164.5 189.5t261 67.5q146 0 253 -63.5t166 -185t59 -293.5q0 -157 -55.5 -277t-162 -187.5t-261.5 -67.5zM566 145q88 0 147.5 46.5t89.5 131t30 195.5q0 103 -26.5 187.5t-85.5 134.5t-155 50
q-90 0 -150 -45.5t-90.5 -129t-30.5 -197.5q0 -101 27 -186t87 -136t157 -51zM458 -370v195h212v-195h-212zM702 1155l-138 133l-150 -133h-178l254 234h152l249 -234h-189z" />
    <glyph glyph-name="uni1ED3" unicode="&#x1ed3;" horiz-adv-x="1128" 
d="M565 -20q-145 0 -253.5 62.5t-168 181.5t-59.5 288q0 163 56.5 285t164.5 189.5t261 67.5q146 0 253 -63.5t166 -185t59 -293.5q0 -157 -55.5 -277t-162 -187.5t-261.5 -67.5zM566 145q88 0 147.5 46.5t89.5 131t30 195.5q0 103 -26.5 187.5t-85.5 134.5t-155 50
q-90 0 -150 -45.5t-90.5 -129t-30.5 -197.5q0 -101 27 -186t87 -136t157 -51zM702 1155l-138 133l-150 -133h-178l254 234h152l249 -234h-189zM828 1630l158 -248h-131l-215 248h188z" />
    <glyph glyph-name="uni1ED5" unicode="&#x1ed5;" horiz-adv-x="1128" 
d="M565 -20q-145 0 -253.5 62.5t-168 181.5t-59.5 288q0 163 56.5 285t164.5 189.5t261 67.5q146 0 253 -63.5t166 -185t59 -293.5q0 -157 -55.5 -277t-162 -187.5t-261.5 -67.5zM566 145q88 0 147.5 46.5t89.5 131t30 195.5q0 103 -26.5 187.5t-85.5 134.5t-155 50
q-90 0 -150 -45.5t-90.5 -129t-30.5 -197.5q0 -101 27 -186t87 -136t157 -51zM707 1155l-138 133l-150 -133h-178l254 234h152l249 -234h-189zM614 1654l58 -90q39 26 80.5 26t60.5 -32q21 -33 4.5 -69t-58.5 -63l59 -90q92 56 116.5 131.5t-26.5 153.5q-42 66 -125 77.5
t-169 -44.5z" />
    <glyph glyph-name="uni1ED7" unicode="&#x1ed7;" horiz-adv-x="1128" 
d="M565 -20q-145 0 -253.5 62.5t-168 181.5t-59.5 288q0 163 56.5 285t164.5 189.5t261 67.5q146 0 253 -63.5t166 -185t59 -293.5q0 -157 -55.5 -277t-162 -187.5t-261.5 -67.5zM566 145q88 0 147.5 46.5t89.5 131t30 195.5q0 103 -26.5 187.5t-85.5 134.5t-155 50
q-90 0 -150 -45.5t-90.5 -129t-30.5 -197.5q0 -101 27 -186t87 -136t157 -51zM704 1155l-138 133l-150 -133h-178l254 234h152l249 -234h-189zM878 1561q-27 -21 -71.5 -41.5t-108.5 -20.5q-54 0 -96 13.5t-81 26.5t-86 13q-50 0 -81 -16t-64 -42l-38 121q34 33 74 56
t100 23q51 0 96 -14t88.5 -28.5t87.5 -14.5q47 0 82 18.5t65 40.5z" />
    <glyph glyph-name="uni020D" unicode="&#x20d;" horiz-adv-x="1128" 
d="M565 -20q-145 0 -253.5 62.5t-168 181.5t-59.5 288q0 163 56.5 285t164.5 189.5t261 67.5q146 0 253 -63.5t166 -185t59 -293.5q0 -157 -55.5 -277t-162 -187.5t-261.5 -67.5zM566 145q88 0 147.5 46.5t89.5 131t30 195.5q0 103 -26.5 187.5t-85.5 134.5t-155 50
q-90 0 -150 -45.5t-90.5 -129t-30.5 -197.5q0 -101 27 -186t87 -136t157 -51zM596 1446l197 -291h-161l-250 291h214zM255 1446l239 -291h-161l-297 291h219z" />
    <glyph glyph-name="odieresis" unicode="&#xf6;" horiz-adv-x="1128" 
d="M565 -20q-145 0 -253.5 62.5t-168 181.5t-59.5 288q0 163 56.5 285t164.5 189.5t261 67.5q146 0 253 -63.5t166 -185t59 -293.5q0 -157 -55.5 -277t-162 -187.5t-261.5 -67.5zM566 145q88 0 147.5 46.5t89.5 131t30 195.5q0 103 -26.5 187.5t-85.5 134.5t-155 50
q-90 0 -150 -45.5t-90.5 -129t-30.5 -197.5q0 -101 27 -186t87 -136t157 -51zM666 1207l2 195h206l-2 -195h-206zM256 1207l2 195h206l-2 -195h-206z" />
    <glyph glyph-name="uni1ECD" unicode="&#x1ecd;" horiz-adv-x="1128" 
d="M565 -20q-145 0 -253.5 62.5t-168 181.5t-59.5 288q0 163 56.5 285t164.5 189.5t261 67.5q146 0 253 -63.5t166 -185t59 -293.5q0 -157 -55.5 -277t-162 -187.5t-261.5 -67.5zM566 145q88 0 147.5 46.5t89.5 131t30 195.5q0 103 -26.5 187.5t-85.5 134.5t-155 50
q-90 0 -150 -45.5t-90.5 -129t-30.5 -197.5q0 -101 27 -186t87 -136t157 -51zM458 -370v195h212v-195h-212z" />
    <glyph glyph-name="ograve" unicode="&#xf2;" horiz-adv-x="1128" 
d="M565 -20q-145 0 -253.5 62.5t-168 181.5t-59.5 288q0 163 56.5 285t164.5 189.5t261 67.5q146 0 253 -63.5t166 -185t59 -293.5q0 -157 -55.5 -277t-162 -187.5t-261.5 -67.5zM566 145q88 0 147.5 46.5t89.5 131t30 195.5q0 103 -26.5 187.5t-85.5 134.5t-155 50
q-90 0 -150 -45.5t-90.5 -129t-30.5 -197.5q0 -101 27 -186t87 -136t157 -51zM437 1446h-235l280 -291h161z" />
    <glyph glyph-name="uni1ECF" unicode="&#x1ecf;" horiz-adv-x="1128" 
d="M565 -20q-145 0 -253.5 62.5t-168 181.5t-59.5 288q0 163 56.5 285t164.5 189.5t261 67.5q146 0 253 -63.5t166 -185t59 -293.5q0 -157 -55.5 -277t-162 -187.5t-261.5 -67.5zM566 145q88 0 147.5 46.5t89.5 131t30 195.5q0 103 -26.5 187.5t-85.5 134.5t-155 50
q-90 0 -150 -45.5t-90.5 -129t-30.5 -197.5q0 -101 27 -186t87 -136t157 -51zM427 1470l58 -90q39 26 80.5 26t60.5 -32q21 -33 4.5 -69t-58.5 -63l59 -90q92 56 116.5 131.5t-26.5 153.5q-42 66 -125 77.5t-169 -44.5z" />
    <glyph glyph-name="ohorn" unicode="&#x1a1;" horiz-adv-x="1225" 
d="M565 -20q-145 0 -253.5 62.5t-168 181.5t-59.5 288q0 163 56.5 285t164.5 189.5t261 67.5q146 0 253 -63.5t166 -185t59 -293.5q0 -157 -55.5 -277t-162 -187.5t-261.5 -67.5zM566 145q88 0 147.5 46.5t89.5 131t30 195.5q0 103 -26.5 187.5t-85.5 134.5t-155 50
q-90 0 -150 -45.5t-90.5 -129t-30.5 -197.5q0 -101 27 -186t87 -136t157 -51zM1215 1114q-1 -125 -33.5 -200.5t-106.5 -104.5t-201 -15v116q47 -1 80 5t53.5 26t32.5 61.5t15 111.5h160z" />
    <glyph glyph-name="uni1EDB" unicode="&#x1edb;" horiz-adv-x="1225" 
d="M690 1446h235l-280 -291h-161zM565 -20q-145 0 -253.5 62.5t-168 181.5t-59.5 288q0 163 56.5 285t164.5 189.5t261 67.5q146 0 253 -63.5t166 -185t59 -293.5q0 -157 -55.5 -277t-162 -187.5t-261.5 -67.5zM566 145q88 0 147.5 46.5t89.5 131t30 195.5
q0 103 -26.5 187.5t-85.5 134.5t-155 50q-90 0 -150 -45.5t-90.5 -129t-30.5 -197.5q0 -101 27 -186t87 -136t157 -51zM1215 1114q-1 -125 -33.5 -200.5t-106.5 -104.5t-201 -15v116q47 -1 80 5t53.5 26t32.5 61.5t15 111.5h160z" />
    <glyph glyph-name="uni1EE3" unicode="&#x1ee3;" horiz-adv-x="1225" 
d="M443 -370v195h212v-195h-212zM565 -20q-145 0 -253.5 62.5t-168 181.5t-59.5 288q0 163 56.5 285t164.5 189.5t261 67.5q146 0 253 -63.5t166 -185t59 -293.5q0 -157 -55.5 -277t-162 -187.5t-261.5 -67.5zM566 145q88 0 147.5 46.5t89.5 131t30 195.5q0 103 -26.5 187.5
t-85.5 134.5t-155 50q-90 0 -150 -45.5t-90.5 -129t-30.5 -197.5q0 -101 27 -186t87 -136t157 -51zM1215 1114q-1 -125 -33.5 -200.5t-106.5 -104.5t-201 -15v116q47 -1 80 5t53.5 26t32.5 61.5t15 111.5h160z" />
    <glyph glyph-name="uni1EDD" unicode="&#x1edd;" horiz-adv-x="1225" 
d="M436 1446h-235l280 -291h161zM565 -20q-145 0 -253.5 62.5t-168 181.5t-59.5 288q0 163 56.5 285t164.5 189.5t261 67.5q146 0 253 -63.5t166 -185t59 -293.5q0 -157 -55.5 -277t-162 -187.5t-261.5 -67.5zM566 145q88 0 147.5 46.5t89.5 131t30 195.5q0 103 -26.5 187.5
t-85.5 134.5t-155 50q-90 0 -150 -45.5t-90.5 -129t-30.5 -197.5q0 -101 27 -186t87 -136t157 -51zM1215 1114q-1 -125 -33.5 -200.5t-106.5 -104.5t-201 -15v116q47 -1 80 5t53.5 26t32.5 61.5t15 111.5h160z" />
    <glyph glyph-name="uni1EDF" unicode="&#x1edf;" horiz-adv-x="1225" 
d="M425 1470l58 -90q39 26 80.5 26t60.5 -32q21 -33 4.5 -69t-58.5 -63l59 -90q92 56 116.5 131.5t-26.5 153.5q-42 66 -125 77.5t-169 -44.5zM565 -20q-145 0 -253.5 62.5t-168 181.5t-59.5 288q0 163 56.5 285t164.5 189.5t261 67.5q146 0 253 -63.5t166 -185t59 -293.5
q0 -157 -55.5 -277t-162 -187.5t-261.5 -67.5zM566 145q88 0 147.5 46.5t89.5 131t30 195.5q0 103 -26.5 187.5t-85.5 134.5t-155 50q-90 0 -150 -45.5t-90.5 -129t-30.5 -197.5q0 -101 27 -186t87 -136t157 -51zM1215 1114q-1 -125 -33.5 -200.5t-106.5 -104.5t-201 -15
v116q47 -1 80 5t53.5 26t32.5 61.5t15 111.5h160z" />
    <glyph glyph-name="uni1EE1" unicode="&#x1ee1;" horiz-adv-x="1225" 
d="M879 1279q-27 -21 -71.5 -41.5t-108.5 -20.5q-54 0 -96 13.5t-81 26.5t-86 13q-50 0 -81 -16t-64 -42l-38 121q34 33 74 56t100 23q51 0 96 -14t88.5 -28.5t87.5 -14.5q47 0 82 18.5t65 40.5zM565 -20q-145 0 -253.5 62.5t-168 181.5t-59.5 288q0 163 56.5 285
t164.5 189.5t261 67.5q146 0 253 -63.5t166 -185t59 -293.5q0 -157 -55.5 -277t-162 -187.5t-261.5 -67.5zM566 145q88 0 147.5 46.5t89.5 131t30 195.5q0 103 -26.5 187.5t-85.5 134.5t-155 50q-90 0 -150 -45.5t-90.5 -129t-30.5 -197.5q0 -101 27 -186t87 -136t157 -51z
M1215 1114q-1 -125 -33.5 -200.5t-106.5 -104.5t-201 -15v116q47 -1 80 5t53.5 26t32.5 61.5t15 111.5h160z" />
    <glyph glyph-name="ohungarumlaut" unicode="&#x151;" horiz-adv-x="1128" 
d="M565 -20q-145 0 -253.5 62.5t-168 181.5t-59.5 288q0 163 56.5 285t164.5 189.5t261 67.5q146 0 253 -63.5t166 -185t59 -293.5q0 -157 -55.5 -277t-162 -187.5t-261.5 -67.5zM566 145q88 0 147.5 46.5t89.5 131t30 195.5q0 103 -26.5 187.5t-85.5 134.5t-155 50
q-90 0 -150 -45.5t-90.5 -129t-30.5 -197.5q0 -101 27 -186t87 -136t157 -51zM536 1446l-197 -291h161l250 291h-214zM877 1446l-239 -291h161l297 291h-219z" />
    <glyph glyph-name="uni020F" unicode="&#x20f;" horiz-adv-x="1128" 
d="M565 -20q-145 0 -253.5 62.5t-168 181.5t-59.5 288q0 163 56.5 285t164.5 189.5t261 67.5q146 0 253 -63.5t166 -185t59 -293.5q0 -157 -55.5 -277t-162 -187.5t-261.5 -67.5zM566 145q88 0 147.5 46.5t89.5 131t30 195.5q0 103 -26.5 187.5t-85.5 134.5t-155 50
q-90 0 -150 -45.5t-90.5 -129t-30.5 -197.5q0 -101 27 -186t87 -136t157 -51zM877 1200q-15 72 -60 122.5t-111.5 77.5t-145.5 27q-76 0 -142 -26t-111.5 -77t-61.5 -124h148q16 48 59.5 78.5t107.5 30.5q63 0 108 -30.5t62 -78.5h147z" />
    <glyph glyph-name="omacron" unicode="&#x14d;" horiz-adv-x="1128" 
d="M565 -20q-145 0 -253.5 62.5t-168 181.5t-59.5 288q0 163 56.5 285t164.5 189.5t261 67.5q146 0 253 -63.5t166 -185t59 -293.5q0 -157 -55.5 -277t-162 -187.5t-261.5 -67.5zM566 145q88 0 147.5 46.5t89.5 131t30 195.5q0 103 -26.5 187.5t-85.5 134.5t-155 50
q-90 0 -150 -45.5t-90.5 -129t-30.5 -197.5q0 -101 27 -186t87 -136t157 -51zM877 1373v-146h-625v146h625z" />
    <glyph glyph-name="uni01EB" unicode="&#x1eb;" horiz-adv-x="1128" 
d="M565 -20q-145 0 -253.5 62.5t-168 181.5t-59.5 288q0 163 56.5 285t164.5 189.5t261 67.5q146 0 253 -63.5t166 -185t59 -293.5q0 -157 -55.5 -277t-162 -187.5t-261.5 -67.5zM566 145q88 0 147.5 46.5t89.5 131t30 195.5q0 103 -26.5 187.5t-85.5 134.5t-155 50
q-90 0 -150 -45.5t-90.5 -129t-30.5 -197.5q0 -101 27 -186t87 -136t157 -51zM372 -175q0 58 41 105.5t160 85.5l153 -10q-102 -42 -145.5 -77.5t-43.5 -82.5q0 -35 20.5 -53t66.5 -18q47 0 83.5 13t60.5 26v-106q-26 -16 -79 -29.5t-114 -13.5q-99 0 -151 42t-52 118z" />
    <glyph glyph-name="oslash" unicode="&#xf8;" horiz-adv-x="1186" 
d="M1134 958l-1010 -970l-81 85l1011 970zM593 -20q-146 0 -254 62.5t-168 181.5t-60 288q0 163 57 285t165 189.5t261 67.5q145 0 252 -63.5t166 -185t59 -293.5q0 -157 -55 -277t-161.5 -187.5t-261.5 -67.5zM594 145q88 0 147.5 46.5t89 131t29.5 195.5
q0 103 -26.5 187.5t-85 134.5t-154.5 50q-90 0 -150 -45.5t-90.5 -129t-30.5 -197.5q0 -101 27 -186t86.5 -136t157.5 -51z" />
    <glyph glyph-name="oslashacute" unicode="&#x1ff;" horiz-adv-x="1186" 
d="M1134 958l-1010 -970l-81 85l1011 970zM593 -20q-146 0 -254 62.5t-168 181.5t-60 288q0 163 57 285t165 189.5t261 67.5q145 0 252 -63.5t166 -185t59 -293.5q0 -157 -55 -277t-161.5 -187.5t-261.5 -67.5zM594 145q88 0 147.5 46.5t89 131t29.5 195.5
q0 103 -26.5 187.5t-85 134.5t-154.5 50q-90 0 -150 -45.5t-90.5 -129t-30.5 -197.5q0 -101 27 -186t86.5 -136t157.5 -51zM713 1446h235l-280 -291h-161z" />
    <glyph glyph-name="otilde" unicode="&#xf5;" horiz-adv-x="1128" 
d="M565 -20q-145 0 -253.5 62.5t-168 181.5t-59.5 288q0 163 56.5 285t164.5 189.5t261 67.5q146 0 253 -63.5t166 -185t59 -293.5q0 -157 -55.5 -277t-162 -187.5t-261.5 -67.5zM566 145q88 0 147.5 46.5t89.5 131t30 195.5q0 103 -26.5 187.5t-85.5 134.5t-155 50
q-90 0 -150 -45.5t-90.5 -129t-30.5 -197.5q0 -101 27 -186t87 -136t157 -51zM881 1279q-27 -21 -71.5 -41.5t-108.5 -20.5q-54 0 -96 13.5t-81 26.5t-86 13q-50 0 -81 -16t-64 -42l-38 121q34 33 74 56t100 23q51 0 96 -14t88.5 -28.5t87.5 -14.5q47 0 82 18.5t65 40.5z
" />
    <glyph glyph-name="oe" unicode="&#x153;" horiz-adv-x="1878" 
d="M565 -20q-145 0 -253.5 62.5t-168 181.5t-59.5 288q0 163 56.5 285t164.5 189.5t261 67.5q146 0 253 -63.5t166 -185t59 -293.5q0 -157 -55.5 -277t-162 -187.5t-261.5 -67.5zM566 145q88 0 147.5 46.5t89.5 131t30 195.5q0 103 -26.5 187.5t-85.5 134.5t-155 50
q-90 0 -150 -45.5t-90.5 -129t-30.5 -197.5q0 -101 27 -186t87 -136t157 -51zM1057 467q0 -93 30.5 -166.5t92.5 -116t154 -42.5t159.5 42t88.5 125h198q-18 -106 -84.5 -180t-160.5 -111.5t-197 -37.5q-147 0 -259 63.5t-174.5 181.5t-62.5 281q0 161 57 284.5t165 193.5
t260 70q150 0 252.5 -64t155.5 -179.5t53 -272.5v-71h-728zM1057 606h524q0 81 -28 147.5t-85.5 105t-144.5 38.5q-89 0 -148 -43t-88.5 -110t-29.5 -138z" />
    <glyph glyph-name="p" unicode="p" horiz-adv-x="1193" 
d="M145 -322v1356h214l2 -172q19 34 49 67.5t71.5 62t95 45.5t118.5 17q122 0 215.5 -56.5t146 -173t52.5 -295.5q0 -180 -52.5 -302t-149.5 -184.5t-230 -62.5q-64 0 -115 18t-90 47.5t-66.5 64t-45.5 68.5v-500h-215zM632 143q119 0 195.5 92.5t76.5 289.5
q0 169 -70.5 267.5t-201.5 98.5q-135 0 -204 -102.5t-69 -263.5q0 -105 30.5 -191.5t91.5 -138.5t151 -52z" />
    <glyph glyph-name="thorn" unicode="&#xfe;" horiz-adv-x="1183" 
d="M358 1446v-551q27 30 67.5 67.5t102.5 64.5t153 27q118 0 212.5 -57.5t150 -174t55.5 -293.5q0 -180 -55.5 -302t-154.5 -184.5t-227 -62.5q-85 0 -152 27t-119 72q-19 17 -25.5 14.5t-6.5 -26.5v-389h-214v1768h213zM359 242q50 -52 107 -84.5t128 -32.5q85 0 149.5 44
t101 133.5t36.5 227.5q0 136 -37.5 219.5t-100.5 121t-141 37.5q-71 0 -126 -30.5t-86 -76.5t-31 -92v-467z" />
    <glyph glyph-name="q" unicode="q" horiz-adv-x="1193" 
d="M1048 -322h-215v500q-18 -34 -45.5 -68.5t-66.5 -64t-90 -47.5t-115 -18q-122 0 -220 57t-155 178.5t-57 313.5q0 168 48.5 285.5t141 178.5t224.5 61q65 0 118.5 -17t95 -45.5t71.5 -62t49 -67.5l2 172h214v-1356zM561 143q90 0 151 52t91.5 138.5t30.5 191.5
q0 161 -68.5 263.5t-204.5 102.5q-118 0 -195 -91t-77 -275q0 -181 71 -281.5t201 -100.5z" />
    <glyph glyph-name="r" unicode="r" horiz-adv-x="786" 
d="M145 0v1034h205v-212q26 76 72.5 127.5t108.5 78t131 26.5q21 0 40 -2.5t30 -8.5v-206q-13 6 -33.5 8t-35.5 3q-68 5 -124 -7t-96.5 -40t-62 -73t-21.5 -106v-622h-214z" />
    <glyph glyph-name="racute" unicode="&#x155;" horiz-adv-x="786" 
d="M145 0v1034h205v-212q26 76 72.5 127.5t108.5 78t131 26.5q21 0 40 -2.5t30 -8.5v-206q-13 6 -33.5 8t-35.5 3q-68 5 -124 -7t-96.5 -40t-62 -73t-21.5 -106v-622h-214zM553 1446h235l-280 -291h-161z" />
    <glyph glyph-name="rcaron" unicode="&#x159;" horiz-adv-x="786" 
d="M145 0v1034h205v-212q26 76 72.5 127.5t108.5 78t131 26.5q21 0 40 -2.5t30 -8.5v-206q-13 6 -33.5 8t-35.5 3q-68 5 -124 -7t-96.5 -40t-62 -73t-21.5 -106v-622h-214zM354 1155l-254 235h179l150 -139l138 139h189l-249 -235h-153z" />
    <glyph glyph-name="uni0157" unicode="&#x157;" horiz-adv-x="786" 
d="M145 0v1034h205v-212q26 76 72.5 127.5t108.5 78t131 26.5q21 0 40 -2.5t30 -8.5v-206q-13 6 -33.5 8t-35.5 3q-68 5 -124 -7t-96.5 -40t-62 -73t-21.5 -106v-622h-214zM134 -397l84 131l-67 7v163h203v-137l-137 -164h-83z" />
    <glyph glyph-name="uni0211" unicode="&#x211;" horiz-adv-x="786" 
d="M145 0v1034h205v-212q26 76 72.5 127.5t108.5 78t131 26.5q21 0 40 -2.5t30 -8.5v-206q-13 6 -33.5 8t-35.5 3q-68 5 -124 -7t-96.5 -40t-62 -73t-21.5 -106v-622h-214zM461 1446l197 -291h-161l-250 291h214zM120 1446l239 -291h-161l-297 291h219z" />
    <glyph glyph-name="uni1E5B" unicode="&#x1e5b;" horiz-adv-x="786" 
d="M145 0v1034h205v-212q26 76 72.5 127.5t108.5 78t131 26.5q21 0 40 -2.5t30 -8.5v-206q-13 6 -33.5 8t-35.5 3q-68 5 -124 -7t-96.5 -40t-62 -73t-21.5 -106v-622h-214zM145 -370v195h212v-195h-212z" />
    <glyph glyph-name="uni0213" unicode="&#x213;" horiz-adv-x="786" 
d="M145 0v1034h205v-212q26 76 72.5 127.5t108.5 78t131 26.5q21 0 40 -2.5t30 -8.5v-206q-13 6 -33.5 8t-35.5 3q-68 5 -124 -7t-96.5 -40t-62 -73t-21.5 -106v-622h-214zM742 1183q-15 72 -60 122.5t-111.5 77.5t-145.5 27q-76 0 -142 -26t-111.5 -77t-61.5 -124h148
q16 48 59.5 78.5t107.5 30.5q63 0 108 -30.5t62 -78.5h147z" />
    <glyph glyph-name="s" unicode="s" horiz-adv-x="1030" 
d="M524 -20q-108 0 -202.5 34t-158 107t-79.5 187h191q13 -59 49.5 -97.5t88 -57t110.5 -18.5q98 0 158.5 35.5t60.5 109.5q0 53 -32.5 85t-102.5 47l-206 49q-128 30 -205 95.5t-78 183.5q0 91 45.5 162t135.5 111.5t224 40.5q175 0 281 -78t110 -226h-185
q-10 71 -64.5 111.5t-143.5 40.5q-92 0 -151 -36.5t-59 -111.5q0 -51 43 -80.5t129 -48.5l196 -49q76 -20 125 -52.5t77 -71.5t39.5 -81t11.5 -79q0 -98 -49.5 -167.5t-141 -107t-217.5 -37.5z" />
    <glyph glyph-name="sacute" unicode="&#x15b;" horiz-adv-x="1030" 
d="M524 -20q-108 0 -202.5 34t-158 107t-79.5 187h191q13 -59 49.5 -97.5t88 -57t110.5 -18.5q98 0 158.5 35.5t60.5 109.5q0 53 -32.5 85t-102.5 47l-206 49q-128 30 -205 95.5t-78 183.5q0 91 45.5 162t135.5 111.5t224 40.5q175 0 281 -78t110 -226h-185
q-10 71 -64.5 111.5t-143.5 40.5q-92 0 -151 -36.5t-59 -111.5q0 -51 43 -80.5t129 -48.5l196 -49q76 -20 125 -52.5t77 -71.5t39.5 -81t11.5 -79q0 -98 -49.5 -167.5t-141 -107t-217.5 -37.5zM648 1446h235l-280 -291h-161z" />
    <glyph glyph-name="scaron" unicode="&#x161;" horiz-adv-x="1030" 
d="M524 -20q-108 0 -202.5 34t-158 107t-79.5 187h191q13 -59 49.5 -97.5t88 -57t110.5 -18.5q98 0 158.5 35.5t60.5 109.5q0 53 -32.5 85t-102.5 47l-206 49q-128 30 -205 95.5t-78 183.5q0 91 45.5 162t135.5 111.5t224 40.5q175 0 281 -78t110 -226h-185
q-10 71 -64.5 111.5t-143.5 40.5q-92 0 -151 -36.5t-59 -111.5q0 -51 43 -80.5t129 -48.5l196 -49q76 -20 125 -52.5t77 -71.5t39.5 -81t11.5 -79q0 -98 -49.5 -167.5t-141 -107t-217.5 -37.5zM449 1155l-254 235h179l150 -139l138 139h189l-249 -235h-153z" />
    <glyph glyph-name="scedilla" unicode="&#x15f;" horiz-adv-x="1030" 
d="M524 -20q-108 0 -202.5 34t-158 107t-79.5 187h191q13 -59 49.5 -97.5t88 -57t110.5 -18.5q98 0 158.5 35.5t60.5 109.5q0 53 -32.5 85t-102.5 47l-206 49q-128 30 -205 95.5t-78 183.5q0 91 45.5 162t135.5 111.5t224 40.5q175 0 281 -78t110 -226h-185
q-10 71 -64.5 111.5t-143.5 40.5q-92 0 -151 -36.5t-59 -111.5q0 -51 43 -80.5t129 -48.5l196 -49q76 -20 125 -52.5t77 -71.5t39.5 -81t11.5 -79q0 -98 -49.5 -167.5t-141 -107t-217.5 -37.5zM707 -259q0 -50 -30.5 -85t-81 -53t-110.5 -18q-56 0 -106.5 12t-94.5 39l33 83
q28 -19 63 -33.5t79 -14.5q53 0 79.5 18.5t26.5 51.5q0 43 -37.5 64t-125.5 23q-10 0 -13.5 3t0.5 12l73 167h106l-46 -120q70 -2 110.5 -25t57.5 -56.5t17 -67.5z" />
    <glyph glyph-name="scircumflex" unicode="&#x15d;" horiz-adv-x="1030" 
d="M524 -20q-108 0 -202.5 34t-158 107t-79.5 187h191q13 -59 49.5 -97.5t88 -57t110.5 -18.5q98 0 158.5 35.5t60.5 109.5q0 53 -32.5 85t-102.5 47l-206 49q-128 30 -205 95.5t-78 183.5q0 91 45.5 162t135.5 111.5t224 40.5q175 0 281 -78t110 -226h-185
q-10 71 -64.5 111.5t-143.5 40.5q-92 0 -151 -36.5t-59 -111.5q0 -51 43 -80.5t129 -48.5l196 -49q76 -20 125 -52.5t77 -71.5t39.5 -81t11.5 -79q0 -98 -49.5 -167.5t-141 -107t-217.5 -37.5zM662 1155l-138 133l-150 -133h-178l254 234h152l249 -234h-189z" />
    <glyph glyph-name="uni0219" unicode="&#x219;" horiz-adv-x="1030" 
d="M524 -20q-108 0 -202.5 34t-158 107t-79.5 187h191q13 -59 49.5 -97.5t88 -57t110.5 -18.5q98 0 158.5 35.5t60.5 109.5q0 53 -32.5 85t-102.5 47l-206 49q-128 30 -205 95.5t-78 183.5q0 91 45.5 162t135.5 111.5t224 40.5q175 0 281 -78t110 -226h-185
q-10 71 -64.5 111.5t-143.5 40.5q-92 0 -151 -36.5t-59 -111.5q0 -51 43 -80.5t129 -48.5l196 -49q76 -20 125 -52.5t77 -71.5t39.5 -81t11.5 -79q0 -98 -49.5 -167.5t-141 -107t-217.5 -37.5zM393 -397l84 131l-67 7v163h203v-137l-137 -164h-83z" />
    <glyph glyph-name="uni1E63" unicode="&#x1e63;" horiz-adv-x="1030" 
d="M524 -20q-108 0 -202.5 34t-158 107t-79.5 187h191q13 -59 49.5 -97.5t88 -57t110.5 -18.5q98 0 158.5 35.5t60.5 109.5q0 53 -32.5 85t-102.5 47l-206 49q-128 30 -205 95.5t-78 183.5q0 91 45.5 162t135.5 111.5t224 40.5q175 0 281 -78t110 -226h-185
q-10 71 -64.5 111.5t-143.5 40.5q-92 0 -151 -36.5t-59 -111.5q0 -51 43 -80.5t129 -48.5l196 -49q76 -20 125 -52.5t77 -71.5t39.5 -81t11.5 -79q0 -98 -49.5 -167.5t-141 -107t-217.5 -37.5zM404 -370v195h212v-195h-212z" />
    <glyph glyph-name="germandbls" unicode="&#xdf;" horiz-adv-x="1212" 
d="M611 1446q128 0 208.5 -38t119.5 -102t39 -142q0 -75 -30.5 -124.5t-85.5 -85t-129 -69.5q-52 -27 -73.5 -44t-21.5 -47t20.5 -43.5t71.5 -30.5q63 -24 130 -53.5t124.5 -72.5t93.5 -107.5t36 -160.5q0 -113 -52.5 -190t-143.5 -116.5t-207 -39.5q-76 0 -149 19t-123 50
l71 138q39 -23 82.5 -41.5t106.5 -18.5q98 0 158 46t60 132q0 63 -31.5 100.5t-83.5 62t-116 46.5q-53 21 -102 48.5t-80.5 72.5t-31.5 115q0 75 40.5 124.5t115.5 95.5q37 25 71.5 50t57.5 57t23 79q0 64 -47.5 103.5t-136.5 39.5q-108 0 -173 -66t-65 -189v-1044h-211
l-2 1005q1 93 30 173t86 140.5t144.5 94t205.5 33.5z" />
    <glyph glyph-name="t" unicode="t" horiz-adv-x="816" 
d="M709 880h-232l1 -617q0 -51 10.5 -74.5t36 -30t69.5 -6.5h121v-139q-20 -8 -59.5 -14t-101.5 -6q-115 0 -178.5 31t-88 89.5t-24.5 141.5v625h-168v154h174l53 304h155v-303h232v-155z" />
    <glyph glyph-name="tbar" unicode="&#x167;" horiz-adv-x="820" 
d="M673 634v-130h-568v130h568zM751 880h-232l1 -617q0 -51 10.5 -74.5t36 -30t69.5 -6.5h121v-139q-20 -8 -59.5 -14t-101.5 -6q-116 0 -179 31t-87.5 89.5t-24.5 141.5v625h-168v154h174l52 304h156v-303h232v-155z" />
    <glyph glyph-name="tcaron" unicode="&#x165;" horiz-adv-x="860" 
d="M709 880h-232l1 -617q0 -51 10.5 -74.5t36 -30t69.5 -6.5h121v-139q-20 -8 -59.5 -14t-101.5 -6q-115 0 -178.5 31t-88 89.5t-24.5 141.5v625h-168v154h174l53 304h155v-303h232v-155zM787 1045l78 189l-59 10v202h165v-212l-81 -189h-103z" />
    <glyph glyph-name="uni0163" unicode="&#x163;" horiz-adv-x="816" 
d="M709 880h-232l1 -617q0 -51 10.5 -74.5t36 -30t69.5 -6.5h121v-139q-20 -8 -59.5 -14t-101.5 -6q-115 0 -178.5 31t-88 89.5t-24.5 141.5v625h-168v154h174l53 304h155v-303h232v-155zM679 -251q0 -50 -30.5 -85t-81 -53t-110.5 -18q-56 0 -106.5 12t-94.5 39l33 83
q28 -19 63 -33.5t79 -14.5q53 0 79.5 18.5t26.5 51.5q0 43 -37.5 64t-125.5 23q-10 0 -13.5 3t0.5 12l73 167h106l-46 -120q70 -2 110.5 -25t57.5 -56.5t17 -67.5z" />
    <glyph glyph-name="uni021B" unicode="&#x21b;" horiz-adv-x="816" 
d="M709 880h-232l1 -617q0 -51 10.5 -74.5t36 -30t69.5 -6.5h121v-139q-20 -8 -59.5 -14t-101.5 -6q-115 0 -178.5 31t-88 89.5t-24.5 141.5v625h-168v154h174l53 304h155v-303h232v-155zM365 -389l84 131l-67 7v163h203v-137l-137 -164h-83z" />
    <glyph glyph-name="uni1E6D" unicode="&#x1e6d;" horiz-adv-x="816" 
d="M709 880h-232l1 -617q0 -51 10.5 -74.5t36 -30t69.5 -6.5h121v-139q-20 -8 -59.5 -14t-101.5 -6q-115 0 -178.5 31t-88 89.5t-24.5 141.5v625h-168v154h174l53 304h155v-303h232v-155zM376 -362v195h212v-195h-212z" />
    <glyph glyph-name="u" unicode="u" horiz-adv-x="1154" 
d="M525 -20q-78 1 -149 23t-126.5 66t-88 109t-32.5 151v705h215v-682q0 -93 58 -151t175 -58q106 0 170 55.5t64 162.5v673h213v-1034h-166l-24 200q-18 -81 -64.5 -129.5t-110 -70t-134.5 -20.5z" />
    <glyph glyph-name="uacute" unicode="&#xfa;" horiz-adv-x="1154" 
d="M525 -20q-78 1 -149 23t-126.5 66t-88 109t-32.5 151v705h215v-682q0 -93 58 -151t175 -58q106 0 170 55.5t64 162.5v673h213v-1034h-166l-24 200q-18 -81 -64.5 -129.5t-110 -70t-134.5 -20.5zM703 1446h235l-280 -291h-161z" />
    <glyph glyph-name="ubreve" unicode="&#x16d;" horiz-adv-x="1154" 
d="M525 -20q-78 1 -149 23t-126.5 66t-88 109t-32.5 151v705h215v-682q0 -93 58 -151t175 -58q106 0 170 55.5t64 162.5v673h213v-1034h-166l-24 200q-18 -81 -64.5 -129.5t-110 -70t-134.5 -20.5zM896 1380q-15 -72 -60 -122.5t-111.5 -77.5t-145.5 -27q-76 0 -142 26
t-111.5 77t-61.5 124h148q16 -48 59.5 -78.5t107.5 -30.5q63 0 108 30.5t62 78.5h147z" />
    <glyph glyph-name="uni01D4" unicode="&#x1d4;" horiz-adv-x="1154" 
d="M525 -20q-78 1 -149 23t-126.5 66t-88 109t-32.5 151v705h215v-682q0 -93 58 -151t175 -58q106 0 170 55.5t64 162.5v673h213v-1034h-166l-24 200q-18 -81 -64.5 -129.5t-110 -70t-134.5 -20.5zM504 1155l-254 235h179l150 -139l138 139h189l-249 -235h-153z" />
    <glyph glyph-name="ucircumflex" unicode="&#xfb;" horiz-adv-x="1154" 
d="M525 -20q-78 1 -149 23t-126.5 66t-88 109t-32.5 151v705h215v-682q0 -93 58 -151t175 -58q106 0 170 55.5t64 162.5v673h213v-1034h-166l-24 200q-18 -81 -64.5 -129.5t-110 -70t-134.5 -20.5zM717 1155l-138 133l-150 -133h-178l254 234h152l249 -234h-189z" />
    <glyph glyph-name="uni0215" unicode="&#x215;" horiz-adv-x="1154" 
d="M525 -20q-78 1 -149 23t-126.5 66t-88 109t-32.5 151v705h215v-682q0 -93 58 -151t175 -58q106 0 170 55.5t64 162.5v673h213v-1034h-166l-24 200q-18 -81 -64.5 -129.5t-110 -70t-134.5 -20.5zM611 1446l197 -291h-161l-250 291h214zM270 1446l239 -291h-161l-297 291
h219z" />
    <glyph glyph-name="udieresis" unicode="&#xfc;" horiz-adv-x="1154" 
d="M525 -20q-78 1 -149 23t-126.5 66t-88 109t-32.5 151v705h215v-682q0 -93 58 -151t175 -58q106 0 170 55.5t64 162.5v673h213v-1034h-166l-24 200q-18 -81 -64.5 -129.5t-110 -70t-134.5 -20.5zM681 1207l2 195h206l-2 -195h-206zM271 1207l2 195h206l-2 -195h-206z" />
    <glyph glyph-name="uni1EE5" unicode="&#x1ee5;" horiz-adv-x="1154" 
d="M525 -20q-78 1 -149 23t-126.5 66t-88 109t-32.5 151v705h215v-682q0 -93 58 -151t175 -58q106 0 170 55.5t64 162.5v673h213v-1034h-166l-24 200q-18 -81 -64.5 -129.5t-110 -70t-134.5 -20.5zM476 -370v195h212v-195h-212z" />
    <glyph glyph-name="ugrave" unicode="&#xf9;" horiz-adv-x="1154" 
d="M525 -20q-78 1 -149 23t-126.5 66t-88 109t-32.5 151v705h215v-682q0 -93 58 -151t175 -58q106 0 170 55.5t64 162.5v673h213v-1034h-166l-24 200q-18 -81 -64.5 -129.5t-110 -70t-134.5 -20.5zM452 1446h-235l280 -291h161z" />
    <glyph glyph-name="uni1EE7" unicode="&#x1ee7;" horiz-adv-x="1154" 
d="M525 -20q-78 1 -149 23t-126.5 66t-88 109t-32.5 151v705h215v-682q0 -93 58 -151t175 -58q106 0 170 55.5t64 162.5v673h213v-1034h-166l-24 200q-18 -81 -64.5 -129.5t-110 -70t-134.5 -20.5zM442 1470l58 -90q39 26 80.5 26t60.5 -32q21 -33 4.5 -69t-58.5 -63l59 -90
q92 56 116.5 131.5t-26.5 153.5q-42 66 -125 77.5t-169 -44.5z" />
    <glyph glyph-name="uhorn" unicode="&#x1b0;" horiz-adv-x="1336" 
d="M525 -20q-78 1 -149 23t-126.5 66t-88 109t-32.5 151v705h215v-682q0 -93 58 -151t175 -58q106 0 170 55.5t64 162.5v673h213v-1034h-166l-24 200q-18 -81 -64.5 -129.5t-110 -70t-134.5 -20.5zM1330 1114q-1 -125 -33.5 -200.5t-106.5 -104.5t-201 -15v116q47 -1 80 5
t53.5 26t32.5 61.5t15 111.5h160z" />
    <glyph glyph-name="uni1EE9" unicode="&#x1ee9;" horiz-adv-x="1336" 
d="M715 1446h235l-280 -291h-161zM525 -20q-78 1 -149 23t-126.5 66t-88 109t-32.5 151v705h215v-682q0 -93 58 -151t175 -58q106 0 170 55.5t64 162.5v673h213v-1034h-166l-24 200q-18 -81 -64.5 -129.5t-110 -70t-134.5 -20.5zM1330 1114q-1 -125 -33.5 -200.5
t-106.5 -104.5t-201 -15v116q47 -1 80 5t53.5 26t32.5 61.5t15 111.5h160z" />
    <glyph glyph-name="uni1EF1" unicode="&#x1ef1;" horiz-adv-x="1336" 
d="M471 -370v195h212v-195h-212zM525 -20q-78 1 -149 23t-126.5 66t-88 109t-32.5 151v705h215v-682q0 -93 58 -151t175 -58q106 0 170 55.5t64 162.5v673h213v-1034h-166l-24 200q-18 -81 -64.5 -129.5t-110 -70t-134.5 -20.5zM1330 1114q-1 -125 -33.5 -200.5
t-106.5 -104.5t-201 -15v116q47 -1 80 5t53.5 26t32.5 61.5t15 111.5h160z" />
    <glyph glyph-name="uni1EEB" unicode="&#x1eeb;" horiz-adv-x="1336" 
d="M462 1446h-235l280 -291h161zM525 -20q-78 1 -149 23t-126.5 66t-88 109t-32.5 151v705h215v-682q0 -93 58 -151t175 -58q106 0 170 55.5t64 162.5v673h213v-1034h-166l-24 200q-18 -81 -64.5 -129.5t-110 -70t-134.5 -20.5zM1330 1114q-1 -125 -33.5 -200.5
t-106.5 -104.5t-201 -15v116q47 -1 80 5t53.5 26t32.5 61.5t15 111.5h160z" />
    <glyph glyph-name="uni1EED" unicode="&#x1eed;" horiz-adv-x="1336" 
d="M451 1470l58 -90q39 26 80.5 26t60.5 -32q21 -33 4.5 -69t-58.5 -63l59 -90q92 56 116.5 131.5t-26.5 153.5q-42 66 -125 77.5t-169 -44.5zM525 -20q-78 1 -149 23t-126.5 66t-88 109t-32.5 151v705h215v-682q0 -93 58 -151t175 -58q106 0 170 55.5t64 162.5v673h213
v-1034h-166l-24 200q-18 -81 -64.5 -129.5t-110 -70t-134.5 -20.5zM1330 1114q-1 -125 -33.5 -200.5t-106.5 -104.5t-201 -15v116q47 -1 80 5t53.5 26t32.5 61.5t15 111.5h160z" />
    <glyph glyph-name="uni1EEF" unicode="&#x1eef;" horiz-adv-x="1336" 
d="M905 1279q-27 -21 -71.5 -41.5t-108.5 -20.5q-54 0 -96 13.5t-81 26.5t-86 13q-50 0 -81 -16t-64 -42l-38 121q34 33 74 56t100 23q51 0 96 -14t88.5 -28.5t87.5 -14.5q47 0 82 18.5t65 40.5zM525 -20q-78 1 -149 23t-126.5 66t-88 109t-32.5 151v705h215v-682
q0 -93 58 -151t175 -58q106 0 170 55.5t64 162.5v673h213v-1034h-166l-24 200q-18 -81 -64.5 -129.5t-110 -70t-134.5 -20.5zM1330 1114q-1 -125 -33.5 -200.5t-106.5 -104.5t-201 -15v116q47 -1 80 5t53.5 26t32.5 61.5t15 111.5h160z" />
    <glyph glyph-name="uhungarumlaut" unicode="&#x171;" horiz-adv-x="1154" 
d="M525 -20q-78 1 -149 23t-126.5 66t-88 109t-32.5 151v705h215v-682q0 -93 58 -151t175 -58q106 0 170 55.5t64 162.5v673h213v-1034h-166l-24 200q-18 -81 -64.5 -129.5t-110 -70t-134.5 -20.5zM551 1446l-197 -291h161l250 291h-214zM892 1446l-239 -291h161l297 291
h-219z" />
    <glyph glyph-name="uni0217" unicode="&#x217;" horiz-adv-x="1154" 
d="M525 -20q-78 1 -149 23t-126.5 66t-88 109t-32.5 151v705h215v-682q0 -93 58 -151t175 -58q106 0 170 55.5t64 162.5v673h213v-1034h-166l-24 200q-18 -81 -64.5 -129.5t-110 -70t-134.5 -20.5zM892 1200q-15 72 -60 122.5t-111.5 77.5t-145.5 27q-76 0 -142 -26
t-111.5 -77t-61.5 -124h148q16 48 59.5 78.5t107.5 30.5q63 0 108 -30.5t62 -78.5h147z" />
    <glyph glyph-name="umacron" unicode="&#x16b;" horiz-adv-x="1154" 
d="M525 -20q-78 1 -149 23t-126.5 66t-88 109t-32.5 151v705h215v-682q0 -93 58 -151t175 -58q106 0 170 55.5t64 162.5v673h213v-1034h-166l-24 200q-18 -81 -64.5 -129.5t-110 -70t-134.5 -20.5zM892 1373v-146h-625v146h625z" />
    <glyph glyph-name="uogonek" unicode="&#x173;" horiz-adv-x="1154" 
d="M525 -20q-78 1 -149 23t-126.5 66t-88 109t-32.5 151v705h215v-682q0 -93 58 -151t175 -58q106 0 170 55.5t64 162.5v673h213v-1034h-166l-24 200q-18 -81 -64.5 -129.5t-110 -70t-134.5 -20.5zM662 -174q0 58 41 105.5t160 85.5l153 -10q-102 -42 -145.5 -77.5
t-43.5 -82.5q0 -35 20.5 -53t66.5 -18q47 0 83.5 13t60.5 26v-106q-26 -16 -79 -29.5t-114 -13.5q-99 0 -151 42t-52 118z" />
    <glyph glyph-name="uring" unicode="&#x16f;" horiz-adv-x="1154" 
d="M525 -20q-78 1 -149 23t-126.5 66t-88 109t-32.5 151v705h215v-682q0 -93 58 -151t175 -58q106 0 170 55.5t64 162.5v673h213v-1034h-166l-24 200q-18 -81 -64.5 -129.5t-110 -70t-134.5 -20.5zM790 1358q0 -88 -60.5 -148.5t-149.5 -60.5q-87 0 -147.5 61.5t-60.5 151.5
q0 84 61.5 143t146.5 59q59 0 106.5 -27.5t75.5 -74.5t28 -104zM683 1357q0 46 -30.5 75t-74.5 29q-42 0 -74 -29t-32 -75q0 -42 32 -74.5t74 -32.5q44 0 74.5 32.5t30.5 74.5z" />
    <glyph glyph-name="utilde" unicode="&#x169;" horiz-adv-x="1154" 
d="M525 -20q-78 1 -149 23t-126.5 66t-88 109t-32.5 151v705h215v-682q0 -93 58 -151t175 -58q106 0 170 55.5t64 162.5v673h213v-1034h-166l-24 200q-18 -81 -64.5 -129.5t-110 -70t-134.5 -20.5zM896 1279q-27 -21 -71.5 -41.5t-108.5 -20.5q-54 0 -96 13.5t-81 26.5
t-86 13q-50 0 -81 -16t-64 -42l-38 121q34 33 74 56t100 23q51 0 96 -14t88.5 -28.5t87.5 -14.5q47 0 82 18.5t65 40.5z" />
    <glyph glyph-name="v" unicode="v" horiz-adv-x="1015" 
d="M975 1034l-376 -1034h-181l-377 1034h198l262 -763h14l262 763h198z" />
    <glyph glyph-name="w" unicode="w" horiz-adv-x="1574" 
d="M1524 1034l-321 -1034h-196l-224 726l-215 -726h-193l-324 1034h195l226 -753h14l221 753h159l228 -751h14l218 751h198z" />
    <glyph glyph-name="wacute" unicode="&#x1e83;" horiz-adv-x="1574" 
d="M1524 1034l-321 -1034h-196l-224 726l-215 -726h-193l-324 1034h195l226 -753h14l221 753h159l228 -751h14l218 751h198zM918 1446h235l-280 -291h-161z" />
    <glyph glyph-name="wcircumflex" unicode="&#x175;" horiz-adv-x="1574" 
d="M1524 1034l-321 -1034h-196l-224 726l-215 -726h-193l-324 1034h195l226 -753h14l221 753h159l228 -751h14l218 751h198zM932 1155l-138 133l-150 -133h-178l254 234h152l249 -234h-189z" />
    <glyph glyph-name="wdieresis" unicode="&#x1e85;" horiz-adv-x="1574" 
d="M1524 1034l-321 -1034h-196l-224 726l-215 -726h-193l-324 1034h195l226 -753h14l221 753h159l228 -751h14l218 751h198zM896 1207l2 195h206l-2 -195h-206zM486 1207l2 195h206l-2 -195h-206z" />
    <glyph glyph-name="wgrave" unicode="&#x1e81;" horiz-adv-x="1574" 
d="M1524 1034l-321 -1034h-196l-224 726l-215 -726h-193l-324 1034h195l226 -753h14l221 753h159l228 -751h14l218 751h198zM667 1446h-235l280 -291h161z" />
    <glyph glyph-name="x" unicode="x" horiz-adv-x="1139" 
d="M1085 0h-229l-286 387l-285 -387h-231l398 538l-365 496h230l253 -343l254 343h231l-368 -496z" />
    <glyph glyph-name="y" unicode="y" horiz-adv-x="1083" 
d="M263 -330q-95 0 -131.5 14l-36.5 14v138l105 -2q60 -3 98.5 7t61 27.5t34.5 37.5t18 37l32 87l-403 1004h214l290 -764l288 764h210l-431 -1092q-44 -108 -96.5 -167t-115.5 -82t-137 -23z" />
    <glyph glyph-name="yacute" unicode="&#xfd;" horiz-adv-x="1083" 
d="M263 -330q-95 0 -131.5 14l-36.5 14v138l105 -2q60 -3 98.5 7t61 27.5t34.5 37.5t18 37l32 87l-403 1004h214l290 -764l288 764h210l-431 -1092q-44 -108 -96.5 -167t-115.5 -82t-137 -23zM668 1446h235l-280 -291h-161z" />
    <glyph glyph-name="ycircumflex" unicode="&#x177;" horiz-adv-x="1083" 
d="M263 -330q-95 0 -131.5 14l-36.5 14v138l105 -2q60 -3 98.5 7t61 27.5t34.5 37.5t18 37l32 87l-403 1004h214l290 -764l288 764h210l-431 -1092q-44 -108 -96.5 -167t-115.5 -82t-137 -23zM687 1155l-138 133l-150 -133h-178l254 234h152l249 -234h-189z" />
    <glyph glyph-name="ydieresis" unicode="&#xff;" horiz-adv-x="1083" 
d="M263 -330q-95 0 -131.5 14l-36.5 14v138l105 -2q60 -3 98.5 7t61 27.5t34.5 37.5t18 37l32 87l-403 1004h214l290 -764l288 764h210l-431 -1092q-44 -108 -96.5 -167t-115.5 -82t-137 -23zM646 1207l2 195h206l-2 -195h-206zM236 1207l2 195h206l-2 -195h-206z" />
    <glyph glyph-name="uni1EF5" unicode="&#x1ef5;" horiz-adv-x="1083" 
d="M263 -330q-95 0 -131.5 14l-36.5 14v138l105 -2q60 -3 98.5 7t61 27.5t34.5 37.5t18 37l32 87l-403 1004h214l290 -764l288 764h210l-431 -1092q-44 -108 -96.5 -167t-115.5 -82t-137 -23zM707 -351v195h212v-195h-212z" />
    <glyph glyph-name="ygrave" unicode="&#x1ef3;" horiz-adv-x="1083" 
d="M263 -330q-95 0 -131.5 14l-36.5 14v138l105 -2q60 -3 98.5 7t61 27.5t34.5 37.5t18 37l32 87l-403 1004h214l290 -764l288 764h210l-431 -1092q-44 -108 -96.5 -167t-115.5 -82t-137 -23zM417 1446h-235l280 -291h161z" />
    <glyph glyph-name="uni1EF7" unicode="&#x1ef7;" horiz-adv-x="1083" 
d="M263 -330q-95 0 -131.5 14l-36.5 14v138l105 -2q60 -3 98.5 7t61 27.5t34.5 37.5t18 37l32 87l-403 1004h214l290 -764l288 764h210l-431 -1092q-44 -108 -96.5 -167t-115.5 -82t-137 -23zM407 1470l58 -90q39 26 80.5 26t60.5 -32q21 -33 4.5 -69t-58.5 -63l59 -90
q92 56 116.5 131.5t-26.5 153.5q-42 66 -125 77.5t-169 -44.5z" />
    <glyph glyph-name="uni1EF9" unicode="&#x1ef9;" horiz-adv-x="1083" 
d="M263 -330q-95 0 -131.5 14l-36.5 14v138l105 -2q60 -3 98.5 7t61 27.5t34.5 37.5t18 37l32 87l-403 1004h214l290 -764l288 764h210l-431 -1092q-44 -108 -96.5 -167t-115.5 -82t-137 -23zM861 1279q-27 -21 -71.5 -41.5t-108.5 -20.5q-54 0 -96 13.5t-81 26.5t-86 13
q-50 0 -81 -16t-64 -42l-38 121q34 33 74 56t100 23q51 0 96 -14t88.5 -28.5t87.5 -14.5q47 0 82 18.5t65 40.5z" />
    <glyph glyph-name="z" unicode="z" horiz-adv-x="962" 
d="M73 0v128l563 751h-538v155h795v-128l-564 -751h568v-155h-824z" />
    <glyph glyph-name="zacute" unicode="&#x17a;" horiz-adv-x="962" 
d="M73 0v128l563 751h-538v155h795v-128l-564 -751h568v-155h-824zM615 1446h235l-280 -291h-161z" />
    <glyph glyph-name="zcaron" unicode="&#x17e;" horiz-adv-x="962" 
d="M73 0v128l563 751h-538v155h795v-128l-564 -751h568v-155h-824zM417 1155l-254 235h179l150 -139l138 139h189l-249 -235h-153z" />
    <glyph glyph-name="zdotaccent" unicode="&#x17c;" horiz-adv-x="962" 
d="M73 0v128l563 751h-538v155h795v-128l-564 -751h568v-155h-824zM386 1207v195h212v-195h-212z" />
    <glyph glyph-name="uni1E93" unicode="&#x1e93;" horiz-adv-x="962" 
d="M73 0v128l563 751h-538v155h795v-128l-564 -751h568v-155h-824zM387 -370v195h212v-195h-212z" />
    <glyph glyph-name="g.ss01" horiz-adv-x="1167" 
d="M1007 28q1 -122 -53.5 -203.5t-151 -122t-221.5 -40.5q-70 0 -135.5 18t-119 53.5t-91 88t-52.5 120.5h84q32 -109 122 -158.5t192 -51.5q130 -2 208 41t113.5 110.5t36.5 140.5l2 168q-46 -94 -136.5 -137t-207.5 -43q-109 0 -196 37t-148 103t-94.5 155.5t-37.5 194.5
q-4 113 25.5 212t89.5 175.5t148 119.5t201 43q96 0 167 -34.5t115 -80t60 -77.5l3 172h67zM935 364l-5 344q-1 61 -48 123.5t-125 104.5t-172 42q-122 0 -207.5 -60.5t-130 -167.5t-44.5 -248q0 -123 49.5 -216.5t138.5 -146.5t208 -53q138 0 211 42t99.5 106t25.5 130z
" />
    <glyph glyph-name="l.ss01" horiz-adv-x="573" 
d="M179 0v1486h215v-1486h-215z" />
    <glyph glyph-name="ordfeminine" unicode="&#xaa;" horiz-adv-x="838" 
d="M308 793q-103 0 -159.5 49t-56.5 132q0 96 86 153.5t243 65.5l101 8v46q0 64 -38 89.5t-94 25.5q-49 0 -87 -19t-69 -73l-126 32q36 78 104.5 119.5t184.5 41.5q140 -1 202.5 -58t62.5 -156v-136v-103q0 -14 1 -38.5t2.5 -51t4.5 -47.5l13 -68h-146l-16 80
q-53 -47 -101.5 -69.5t-111.5 -22.5zM359 891q71 0 121 45q20 18 31 35t11 39v104l-84 -6q-98 -6 -149 -39t-51 -87q0 -41 33 -66t88 -25z" />
    <glyph glyph-name="ordmasculine" unicode="&#xba;" horiz-adv-x="802" 
d="M400 1465q98 0 169 -43t110 -119t39 -176q0 -97 -38.5 -172t-110 -117.5t-169.5 -42.5t-169 42.5t-109 117.5t-38 172q0 101 40 177t111 118.5t165 42.5zM400 1360q-82 0 -123 -60t-41 -168q0 -111 41 -172t123 -61q83 0 124.5 61t41.5 172q0 108 -41.5 168t-124.5 60z
" />
    <glyph glyph-name="pi" unicode="&#x3c0;" horiz-adv-x="1326" 
d="M1266 880h-215v-880h-207l-1 880h-395q0 -116 -9.5 -240.5t-25.5 -244t-37.5 -222t-45.5 -173.5h-197q22 83 41.5 186t35.5 217t25 230.5t9 226.5q0 20 -17 20h-176v154h1215v-154z" />
    <glyph glyph-name="zero" unicode="0" horiz-adv-x="1242" 
d="M622 1466q241 0 383.5 -189.5t142.5 -556.5q0 -365 -141.5 -553.5t-385.5 -188.5q-245 0 -386 187.5t-141 552.5q0 245 65 411.5t183.5 251.5t279.5 85zM622 160q148 0 222 130.5t74 428.5q0 304 -75 437.5t-222 133.5q-146 0 -223 -134.5t-77 -436.5q0 -297 76.5 -428
t224.5 -131z" />
    <glyph glyph-name="one" unicode="1" horiz-adv-x="825" 
d="M365 0v1132h-274v133q128 0 201.5 20.5t106 61t36.5 99.5h149v-1446h-219z" />
    <glyph glyph-name="two" unicode="2" horiz-adv-x="1213" 
d="M121 0v121v64q0 110 41.5 191t109.5 141.5t149.5 107.5t162.5 90t149 89.5t109.5 105t41.5 137.5q0 104 -73 169t-198 65q-133 0 -216 -75t-96 -207h-210q3 129 63 235t177 169t290 63q150 0 259.5 -52.5t169.5 -146.5t60 -219q0 -111 -41 -191t-107.5 -138
t-146.5 -102.5t-160 -85t-147 -85t-108 -100.5t-41 -135v-25h756v-186h-994z" />
    <glyph glyph-name="three" unicode="3" horiz-adv-x="1279" 
d="M110 1018q0 145 69.5 244.5t186 151.5t258.5 52q153 0 271 -43t185.5 -127t67.5 -207q0 -107 -66.5 -192.5t-206.5 -133.5q91 -25 161 -73.5t109.5 -120.5t39.5 -167q0 -101 -43 -180t-120 -134t-181 -83t-225 -27q-156 1 -272 55.5t-181 154.5t-69 236h211
q21 -131 106.5 -198.5t210.5 -67.5q102 0 176.5 31.5t115.5 87t41 129.5q0 80 -44.5 136t-122 85.5t-173.5 31.5l-133 3v178l124 4q91 2 161.5 34.5t110.5 85.5t40 117q0 58 -35.5 106t-102 76.5t-159.5 28.5q-75 0 -142.5 -28t-111 -88.5t-47.5 -157.5h-210z" />
    <glyph glyph-name="four" unicode="4" horiz-adv-x="1272" 
d="M761 1446h215v-905h235v-185h-235v-356h-208v356h-677v188zM293 541h472v633z" />
    <glyph glyph-name="five" unicode="5" horiz-adv-x="1300" 
d="M236 1446h881l-7 -181h-697l-34 -435q74 60 156 86.5t178 26.5q135 0 246.5 -54t178.5 -158.5t67 -257.5q0 -151 -66 -262t-186.5 -172t-283.5 -61q-136 0 -252 46.5t-199.5 128t-123.5 188.5l179 85q36 -78 89 -139.5t125 -96t165 -34.5q147 0 237 83.5t90 226.5
q0 89 -42 156t-113 104.5t-159 37.5q-55 0 -103 -9.5t-95.5 -37t-100.5 -81.5q-8 -4 -11.5 -4t-13.5 5l-171 62z" />
    <glyph glyph-name="six" unicode="6" horiz-adv-x="1266" 
d="M671 1466q124 0 229.5 -46t174 -132.5t81.5 -209.5h-199q-28 100 -100.5 156.5t-181.5 56.5q-121 0 -202.5 -68.5t-118 -199.5t-23.5 -316q28 66 82.5 115.5t125.5 76.5t152 27q144 0 252 -55t168.5 -157t60.5 -242q0 -144 -63.5 -255.5t-179.5 -175t-273 -63.5
q-172 0 -298.5 87.5t-195 249t-68.5 384.5q0 234 67 406.5t196 266.5t314 94zM651 757q-75 0 -143 -34.5t-111 -90.5t-43 -122q-2 -107 35.5 -188t105 -126.5t157.5 -45.5q84 0 149.5 39.5t103.5 110t38 162.5q0 93 -35 159t-100.5 101t-156.5 35z" />
    <glyph glyph-name="seven" unicode="7" horiz-adv-x="1215" 
d="M91 1446h1033v-181q-75 -101 -149 -230t-140.5 -270.5t-120 -282t-87.5 -265t-42 -217.5h-233q14 96 53 239t105.5 313.5t161.5 353.5t221 359h-802v181z" />
    <glyph glyph-name="eight" unicode="8" horiz-adv-x="1308" 
d="M653 1466q142 0 254 -46.5t177 -135t65 -216.5q0 -116 -62.5 -195.5t-160.5 -121.5q72 -14 137.5 -67t108 -129.5t42.5 -160.5q0 -126 -69.5 -219.5t-195.5 -145t-296 -51.5q-168 0 -294 51.5t-195.5 145t-69.5 219.5q0 84 42 160.5t108 129.5t137 67q-96 42 -160 121.5
t-64 195.5q0 128 65.5 216.5t178 135t252.5 46.5zM653 839q124 0 201.5 62t77.5 172q0 111 -78 175t-201 64q-122 0 -200 -64.5t-78 -174.5t78 -172t200 -62zM653 147q152 0 241.5 68.5t89.5 181.5q0 75 -40.5 133.5t-114.5 92t-176 33.5q-100 0 -174 -33.5t-114.5 -92
t-40.5 -133.5q0 -113 89.5 -181.5t239.5 -68.5z" />
    <glyph glyph-name="nine" unicode="9" horiz-adv-x="1268" 
d="M591 -22q-124 0 -231 47.5t-177.5 134t-84.5 206.5h206q23 -95 97.5 -154t182.5 -59q121 0 209 62t131.5 193t32.5 338q-26 -70 -79 -122.5t-126 -82.5t-162 -30q-144 0 -254 56t-172 159.5t-62 247.5t62.5 255t177 174t271.5 63q172 0 298 -87t194 -248t68 -384
q0 -248 -68 -419.5t-198.5 -260.5t-315.5 -89zM618 689q75 0 143 34t111.5 90.5t43.5 121.5q1 108 -36.5 189t-105 126.5t-158.5 45.5q-82 0 -146 -39.5t-100.5 -110t-36.5 -162.5q0 -137 74 -216t211 -79z" />
    <glyph glyph-name="zero.osf" horiz-adv-x="1242" 
d="M622 1466q241 0 383.5 -189.5t142.5 -556.5q0 -365 -141.5 -553.5t-385.5 -188.5q-245 0 -386 187.5t-141 552.5q0 245 65 411.5t183.5 251.5t279.5 85zM622 160q148 0 222 130.5t74 428.5q0 304 -75 437.5t-222 133.5q-146 0 -223 -134.5t-77 -436.5q0 -297 76.5 -428
t224.5 -131z" />
    <glyph glyph-name="one.osf" horiz-adv-x="825" 
d="M365 0v1132h-274v133q128 0 201.5 20.5t106 61t36.5 99.5h149v-1446h-219z" />
    <glyph glyph-name="two.osf" horiz-adv-x="1213" 
d="M121 0v121v64q0 110 41.5 191t109.5 141.5t149.5 107.5t162.5 90t149 89.5t109.5 105t41.5 137.5q0 104 -73 169t-198 65q-133 0 -216 -75t-96 -207h-210q3 129 63 235t177 169t290 63q150 0 259.5 -52.5t169.5 -146.5t60 -219q0 -111 -41 -191t-107.5 -138
t-146.5 -102.5t-160 -85t-147 -85t-108 -100.5t-41 -135v-25h756v-186h-994z" />
    <glyph glyph-name="three.osf" horiz-adv-x="1279" 
d="M110 1024q0 145 69.5 244.5t186 151.5t258.5 52q153 0 271 -43t185.5 -127t67.5 -207q0 -107 -66.5 -192.5t-206.5 -133.5q91 -25 161 -73.5t109.5 -120.5t39.5 -167q0 -101 -43 -180t-120 -134t-181 -83t-225 -27q-156 1 -272 55.5t-181 154.5t-69 236h211
q21 -131 106.5 -198.5t210.5 -67.5q102 0 176.5 31.5t115.5 87t41 129.5q0 80 -44.5 136t-122 85.5t-173.5 31.5l-133 3v178l124 4q91 2 161.5 34.5t110.5 85.5t40 117q0 58 -35.5 106t-102 76.5t-159.5 28.5q-75 0 -142.5 -28t-111 -88.5t-47.5 -157.5h-210z" />
    <glyph glyph-name="four.osf" horiz-adv-x="1272" 
d="M761 1446h215v-905h235v-185h-235v-356h-208v356h-677v188zM293 541h472v633z" />
    <glyph glyph-name="five.osf" horiz-adv-x="1300" 
d="M236 1446h881l-7 -181h-697l-34 -435q74 60 156 86.5t178 26.5q135 0 246.5 -54t178.5 -158.5t67 -257.5q0 -151 -66 -262t-186.5 -172t-283.5 -61q-136 0 -252 46.5t-199.5 128t-123.5 188.5l179 85q36 -78 89 -139.5t125 -96t165 -34.5q147 0 237 83.5t90 226.5
q0 89 -42 156t-113 104.5t-159 37.5q-55 0 -103 -9.5t-95.5 -37t-100.5 -81.5q-8 -4 -11.5 -4t-13.5 5l-171 62z" />
    <glyph glyph-name="six.osf" horiz-adv-x="1266" 
d="M671 1466q124 0 229.5 -46t174 -132.5t81.5 -209.5h-199q-28 100 -100.5 156.5t-181.5 56.5q-121 0 -202.5 -68.5t-118 -199.5t-23.5 -316q28 66 82.5 115.5t125.5 76.5t152 27q144 0 252 -55t168.5 -157t60.5 -242q0 -144 -63.5 -255.5t-179.5 -175t-273 -63.5
q-172 0 -298.5 87.5t-195 249t-68.5 384.5q0 234 67 406.5t196 266.5t314 94zM651 757q-75 0 -143 -34.5t-111 -90.5t-43 -122q-2 -107 35.5 -188t105 -126.5t157.5 -45.5q84 0 149.5 39.5t103.5 110t38 162.5q0 93 -35 159t-100.5 101t-156.5 35z" />
    <glyph glyph-name="seven.osf" horiz-adv-x="1215" 
d="M91 1446h1033v-181q-75 -101 -149 -230t-140.5 -270.5t-120 -282t-87.5 -265t-42 -217.5h-233q14 96 53 239t105.5 313.5t161.5 353.5t221 359h-802v181z" />
    <glyph glyph-name="eight.osf" horiz-adv-x="1308" 
d="M653 1466q142 0 254 -46.5t177 -135t65 -216.5q0 -116 -62.5 -195.5t-160.5 -121.5q72 -14 137.5 -67t108 -129.5t42.5 -160.5q0 -126 -69.5 -219.5t-195.5 -145t-296 -51.5q-168 0 -294 51.5t-195.5 145t-69.5 219.5q0 84 42 160.5t108 129.5t137 67q-96 42 -160 121.5
t-64 195.5q0 128 65.5 216.5t178 135t252.5 46.5zM653 839q124 0 201.5 62t77.5 172q0 111 -78 175t-201 64q-122 0 -200 -64.5t-78 -174.5t78 -172t200 -62zM653 147q152 0 241.5 68.5t89.5 181.5q0 75 -40.5 133.5t-114.5 92t-176 33.5q-100 0 -174 -33.5t-114.5 -92
t-40.5 -133.5q0 -113 89.5 -181.5t239.5 -68.5z" />
    <glyph glyph-name="nine.osf" horiz-adv-x="1268" 
d="M591 -22q-124 0 -231 47.5t-177.5 134t-84.5 206.5h206q23 -95 97.5 -154t182.5 -59q121 0 209 62t131.5 193t32.5 338q-26 -70 -79 -122.5t-126 -82.5t-162 -30q-144 0 -254 56t-172 159.5t-62 247.5t62.5 255t177 174t271.5 63q172 0 298 -87t194 -248t68 -384
q0 -248 -68 -419.5t-198.5 -260.5t-315.5 -89zM618 689q75 0 143 34t111.5 90.5t43.5 121.5q1 108 -36.5 189t-105 126.5t-158.5 45.5q-82 0 -146 -39.5t-100.5 -110t-36.5 -162.5q0 -137 74 -216t211 -79z" />
    <glyph glyph-name="zero.tf" horiz-adv-x="1400" 
d="M701 1466q241 0 383.5 -189.5t142.5 -556.5q0 -365 -141.5 -553.5t-385.5 -188.5q-245 0 -386 187.5t-141 552.5q0 245 65 411.5t183.5 251.5t279.5 85zM701 160q148 0 222 130.5t74 428.5q0 304 -75 437.5t-222 133.5q-146 0 -223 -134.5t-77 -436.5q0 -297 76.5 -428
t224.5 -131z" />
    <glyph glyph-name="one.tf" horiz-adv-x="1400" 
d="M198 186h1047v-186h-1047v186zM627 1v1214l-407 -144v194l512 182h107v-1446h-212z" />
    <glyph glyph-name="two.tf" horiz-adv-x="1400" 
d="M230 0v121v64q0 110 41.5 191t109.5 141.5t149.5 107.5t162.5 90t149 89.5t109.5 105t41.5 137.5q0 104 -73 169t-198 65q-133 0 -216 -75t-96 -207h-210q3 129 63 235t177 169t290 63q150 0 259.5 -52.5t169.5 -146.5t60 -219q0 -111 -41 -191t-107.5 -138
t-146.5 -102.5t-160 -85t-147 -85t-108 -100.5t-41 -135v-25h756v-186h-994z" />
    <glyph glyph-name="three.tf" horiz-adv-x="1400" 
d="M180 1018q0 145 69.5 244.5t186 151.5t258.5 52q153 0 271 -43t185.5 -127t67.5 -207q0 -107 -66.5 -192.5t-206.5 -133.5q91 -25 161 -73.5t109.5 -120.5t39.5 -167q0 -101 -43 -180t-120 -134t-181 -83t-225 -27q-156 1 -272 55.5t-181 154.5t-69 236h211
q21 -131 106.5 -198.5t210.5 -67.5q102 0 176.5 31.5t115.5 87t41 129.5q0 80 -44.5 136t-122 85.5t-173.5 31.5l-133 3v178l124 4q91 2 161.5 34.5t110.5 85.5t40 117q0 58 -35.5 106t-102 76.5t-159.5 28.5q-75 0 -142.5 -28t-111 -88.5t-47.5 -157.5h-210z" />
    <glyph glyph-name="four.tf" horiz-adv-x="1400" 
d="M808 1446h215v-905h235v-185h-235v-356h-208v356h-677v188zM340 541h472v633z" />
    <glyph glyph-name="five.tf" horiz-adv-x="1400" 
d="M314 1446h881l-7 -181h-697l-34 -435q74 60 156 86.5t178 26.5q135 0 246.5 -54t178.5 -158.5t67 -257.5q0 -151 -66 -262t-186.5 -172t-283.5 -61q-136 0 -252 46.5t-199.5 128t-123.5 188.5l179 85q36 -78 89 -139.5t125 -96t165 -34.5q147 0 237 83.5t90 226.5
q0 89 -42 156t-113 104.5t-159 37.5q-55 0 -103 -9.5t-95.5 -37t-100.5 -81.5q-8 -4 -11.5 -4t-13.5 5l-171 62z" />
    <glyph glyph-name="six.tf" horiz-adv-x="1400" 
d="M739 1466q124 0 229.5 -46t174 -132.5t81.5 -209.5h-199q-28 100 -100.5 156.5t-181.5 56.5q-121 0 -202.5 -68.5t-118 -199.5t-23.5 -316q28 66 82.5 115.5t125.5 76.5t152 27q144 0 252 -55t168.5 -157t60.5 -242q0 -144 -63.5 -255.5t-179.5 -175t-273 -63.5
q-172 0 -298.5 87.5t-195 249t-68.5 384.5q0 234 67 406.5t196 266.5t314 94zM719 757q-75 0 -143 -34.5t-111 -90.5t-43 -122q-2 -107 35.5 -188t105 -126.5t157.5 -45.5q84 0 149.5 39.5t103.5 110t38 162.5q0 93 -35 159t-100.5 101t-156.5 35z" />
    <glyph glyph-name="seven.tf" horiz-adv-x="1400" 
d="M141 1446h1126v-181q-75 -101 -157.5 -230t-162 -270.5t-145.5 -282t-108 -265t-51 -217.5h-238q14 96 66 239t135.5 313.5t192 353.5t234.5 359h-892v181z" />
    <glyph glyph-name="eight.tf" horiz-adv-x="1400" 
d="M699 1466q142 0 254 -46.5t177 -135t65 -216.5q0 -116 -62.5 -195.5t-160.5 -121.5q72 -14 137.5 -67t108 -129.5t42.5 -160.5q0 -126 -69.5 -219.5t-195.5 -145t-296 -51.5q-168 0 -294 51.5t-195.5 145t-69.5 219.5q0 84 42 160.5t108 129.5t137 67q-96 42 -160 121.5
t-64 195.5q0 128 65.5 216.5t178 135t252.5 46.5zM699 839q124 0 201.5 62t77.5 172q0 111 -78 175t-201 64q-122 0 -200 -64.5t-78 -174.5t78 -172t200 -62zM699 147q152 0 241.5 68.5t89.5 181.5q0 75 -40.5 133.5t-114.5 92t-176 33.5q-100 0 -174 -33.5t-114.5 -92
t-40.5 -133.5q0 -113 89.5 -181.5t239.5 -68.5z" />
    <glyph glyph-name="nine.tf" horiz-adv-x="1400" 
d="M664 -22q-124 0 -231 47.5t-177.5 134t-84.5 206.5h206q23 -95 97.5 -154t182.5 -59q121 0 209 62t131.5 193t32.5 338q-26 -70 -79 -122.5t-126 -82.5t-162 -30q-144 0 -254 56t-172 159.5t-62 247.5t62.5 255t177 174t271.5 63q172 0 298 -87t194 -248t68 -384
q0 -248 -68 -419.5t-198.5 -260.5t-315.5 -89zM691 689q75 0 143 34t111.5 90.5t43.5 121.5q1 108 -36.5 189t-105 126.5t-158.5 45.5q-82 0 -146 -39.5t-100.5 -110t-36.5 -162.5q0 -137 74 -216t211 -79z" />
    <glyph glyph-name="zero.subs" horiz-adv-x="771" 
d="M386 590q158 0 244.5 -123t86.5 -347q0 -221 -86 -342.5t-245 -121.5t-245.5 120.5t-86.5 342.5q0 224 87.5 347.5t244.5 123.5zM386 -225q95 0 139 83t44 262q0 182 -45 268t-139 86q-93 0 -138.5 -86.5t-45.5 -267.5q0 -178 45 -261.5t140 -83.5z" />
    <glyph glyph-name="one.subs" horiz-adv-x="488" 
d="M216 -331v708h-171v89q118 -1 164.5 26.5t50.5 86.5h100v-910h-144z" />
    <glyph glyph-name="two.subs" horiz-adv-x="747" 
d="M63 -331v79v39q0 82 34.5 138t89 96.5t115.5 72.5t115.5 63.5t89 72t34.5 96.5q0 65 -45 104.5t-122 39.5q-79 0 -132 -45t-61 -132h-136q0 82 38 149.5t112 108t184 40.5q142 0 225 -72.5t83 -191.5q0 -81 -34 -136.5t-87 -94t-113 -69t-113.5 -60.5t-87 -68.5
t-33.5 -94.5v-12h472v-123h-628z" />
    <glyph glyph-name="three.subs" horiz-adv-x="816" 
d="M74 305q0 89 42.5 152.5t116 97.5t165.5 34q97 0 171 -27t116.5 -80t42.5 -131q0 -67 -40.5 -119.5t-124.5 -83.5q82 -23 135.5 -79t53.5 -147q0 -85 -47.5 -145t-128.5 -91t-183 -30q-150 1 -238.5 78.5t-90.5 204.5h138q12 -82 65 -123.5t129 -41.5q95 0 150.5 42
t55.5 108q0 70 -56.5 112.5t-153.5 43.5l-84 2v117l79 2q55 2 98 21.5t68.5 51.5t25.5 72q0 54 -48.5 91.5t-133.5 37.5q-47 0 -89 -18t-69 -55t-28 -97h-137z" />
    <glyph glyph-name="four.subs" horiz-adv-x="795" 
d="M464 581h139v-566h147v-121h-147v-222h-136v222h-422v121zM179 15h287v385z" />
    <glyph glyph-name="five.subs" horiz-adv-x="809" 
d="M144 580h556l-4 -119h-436l-21 -260q45 31 94 47.5t112 16.5q84 0 154.5 -34t113 -100t42.5 -162q0 -143 -92 -227.5t-246 -84.5q-129 0 -227.5 64.5t-135.5 166.5l117 54q35 -75 93 -121.5t142 -46.5q93 0 147.5 52t54.5 138q0 83 -56 133t-137 50q-53 0 -95.5 -14.5
t-91.5 -67.5q-6 -1 -8 -0.5t-8 3.5l-110 39z" />
    <glyph glyph-name="six.subs" horiz-adv-x="787" 
d="M417 592q80 0 147 -30t110 -85t50 -132h-131q-17 64 -62.5 98t-110.5 34q-112 0 -167 -91t-46 -252q32 56 92 88.5t130 32.5q140 0 222 -78t82 -209q0 -91 -40.5 -161t-113.5 -108.5t-171 -38.5q-166 0 -260 121.5t-94 328.5q0 229 97 355.5t266 126.5zM405 143
q-48 0 -89.5 -21.5t-67 -56t-26.5 -72.5q-1 -102 50.5 -161.5t132.5 -59.5q77 0 128 52.5t51 137.5q0 91 -50 136t-129 45z" />
    <glyph glyph-name="seven.subs" horiz-adv-x="721" 
d="M45 579h651v-118q-58 -78 -115.5 -184t-105.5 -218.5t-79 -215t-37 -174.5h-151q11 80 50 209.5t110 281.5t176 300h-499v119z" />
    <glyph glyph-name="eight.subs" horiz-adv-x="837" 
d="M418 594q138 0 226.5 -66.5t88.5 -184.5q0 -69 -36 -117.5t-98 -76.5q45 -11 84.5 -45t64.5 -81.5t25 -98.5q0 -121 -97.5 -192t-257.5 -71q-159 0 -256.5 71t-97.5 192q0 51 25.5 98.5t65.5 81.5t83 45q-62 28 -98 76.5t-36 117.5q0 118 88.5 184.5t225.5 66.5zM418 206
q80 0 126 37t46 103q0 67 -47.5 107t-124.5 40q-76 0 -123.5 -40t-47.5 -107q0 -66 46.5 -103t124.5 -37zM418 -228q94 0 149 42t55 111q0 72 -55.5 116t-148.5 44q-92 0 -147.5 -44t-55.5 -116q0 -69 54.5 -111t148.5 -42z" />
    <glyph glyph-name="nine.subs" horiz-adv-x="789" 
d="M368 -344q-81 0 -149 31t-111.5 86.5t-51.5 129.5h135q14 -59 60.5 -95t111.5 -36q112 0 175 84.5t56 262.5q-29 -60 -88 -95.5t-139 -35.5q-138 0 -223 79.5t-85 212.5q0 93 40.5 162.5t113 108t168.5 38.5q166 0 259.5 -122.5t93.5 -328.5q0 -239 -97.5 -360.5
t-268.5 -121.5zM385 105q47 0 88.5 21.5t67.5 57t26 72.5q2 102 -49.5 161.5t-133.5 59.5q-76 0 -125 -52t-49 -138q0 -90 48 -136t127 -46z" />
    <glyph glyph-name="zero.dnom" horiz-adv-x="771" 
d="M386 920q158 0 244.5 -123t86.5 -347q0 -221 -86 -342.5t-245 -121.5t-245.5 120.5t-86.5 342.5q0 224 87.5 347.5t244.5 123.5zM386 105q95 0 139 83t44 262q0 182 -45 268t-139 86q-93 0 -138.5 -86.5t-45.5 -267.5q0 -178 45 -261.5t140 -83.5z" />
    <glyph glyph-name="one.dnom" horiz-adv-x="488" 
d="M216 -1v708h-171v89q118 -1 164.5 26.5t50.5 86.5h100v-910h-144z" />
    <glyph glyph-name="two.dnom" horiz-adv-x="747" 
d="M63 -1v79v39q0 82 34.5 138t89 96.5t115.5 72.5t115.5 63.5t89 72t34.5 96.5q0 65 -45 104.5t-122 39.5q-79 0 -132 -45t-61 -132h-136q0 82 38 149.5t112 108t184 40.5q142 0 225 -72.5t83 -191.5q0 -81 -34 -136.5t-87 -94t-113 -69t-113.5 -60.5t-87 -68.5
t-33.5 -94.5v-12h472v-123h-628z" />
    <glyph glyph-name="three.dnom" horiz-adv-x="816" 
d="M74 635q0 89 42.5 152.5t116 97.5t165.5 34q97 0 171 -27t116.5 -80t42.5 -131q0 -67 -40.5 -119.5t-124.5 -83.5q82 -23 135.5 -79t53.5 -147q0 -85 -47.5 -145t-128.5 -91t-183 -30q-150 1 -238.5 78.5t-90.5 204.5h138q12 -82 65 -123.5t129 -41.5q95 0 150.5 42
t55.5 108q0 70 -56.5 112.5t-153.5 43.5l-84 2v117l79 2q55 2 98 21.5t68.5 51.5t25.5 72q0 54 -48.5 91.5t-133.5 37.5q-47 0 -89 -18t-69 -55t-28 -97h-137z" />
    <glyph glyph-name="four.dnom" horiz-adv-x="795" 
d="M464 911h139v-566h147v-121h-147v-222h-136v222h-422v121zM179 345h287v385z" />
    <glyph glyph-name="five.dnom" horiz-adv-x="809" 
d="M144 910h556l-4 -119h-436l-21 -260q45 31 94 47.5t112 16.5q84 0 154.5 -34t113 -100t42.5 -162q0 -143 -92 -227.5t-246 -84.5q-129 0 -227.5 64.5t-135.5 166.5l117 54q35 -75 93 -121.5t142 -46.5q93 0 147.5 52t54.5 138q0 83 -56 133t-137 50q-53 0 -95.5 -14.5
t-91.5 -67.5q-6 -1 -8 -0.5t-8 3.5l-110 39z" />
    <glyph glyph-name="six.dnom" horiz-adv-x="787" 
d="M417 922q80 0 147 -30t110 -85t50 -132h-131q-17 64 -62.5 98t-110.5 34q-112 0 -167 -91t-46 -252q32 56 92 88.5t130 32.5q140 0 222 -78t82 -209q0 -91 -40.5 -161t-113.5 -108.5t-171 -38.5q-166 0 -260 121.5t-94 328.5q0 229 97 355.5t266 126.5zM405 473
q-48 0 -89.5 -21.5t-67 -56t-26.5 -72.5q-1 -102 50.5 -161.5t132.5 -59.5q77 0 128 52.5t51 137.5q0 91 -50 136t-129 45z" />
    <glyph glyph-name="seven.dnom" horiz-adv-x="721" 
d="M45 909h651v-118q-58 -78 -115.5 -184t-105.5 -218.5t-79 -215t-37 -174.5h-151q11 80 50 209.5t110 281.5t176 300h-499v119z" />
    <glyph glyph-name="eight.dnom" horiz-adv-x="837" 
d="M418 922q138 0 226.5 -66.5t88.5 -184.5q0 -69 -36 -117.5t-98 -76.5q45 -11 84.5 -45t64.5 -81.5t25 -98.5q0 -121 -97.5 -192t-257.5 -71q-159 0 -256.5 71t-97.5 192q0 51 25.5 98.5t65.5 81.5t83 45q-62 28 -98 76.5t-36 117.5q0 118 88.5 184.5t225.5 66.5zM418 534
q80 0 126 37t46 103q0 67 -47.5 107t-124.5 40q-76 0 -123.5 -40t-47.5 -107q0 -66 46.5 -103t124.5 -37zM418 100q94 0 149 42t55 111q0 72 -55.5 116t-148.5 44q-92 0 -147.5 -44t-55.5 -116q0 -69 54.5 -111t148.5 -42z" />
    <glyph glyph-name="nine.dnom" horiz-adv-x="789" 
d="M368 -14q-81 0 -149 31t-111.5 86.5t-51.5 129.5h135q14 -59 60.5 -95t111.5 -36q112 0 175 84.5t56 262.5q-29 -60 -88 -95.5t-139 -35.5q-138 0 -223 79.5t-85 212.5q0 93 40.5 162.5t113 108t168.5 38.5q166 0 259.5 -122.5t93.5 -328.5q0 -239 -97.5 -360.5
t-268.5 -121.5zM385 435q47 0 88.5 21.5t67.5 57t26 72.5q2 102 -49.5 161.5t-133.5 59.5q-76 0 -125 -52t-49 -138q0 -90 48 -136t127 -46z" />
    <glyph glyph-name="zero.numr" horiz-adv-x="771" 
d="M386 1458q158 0 244.5 -123t86.5 -347q0 -221 -86 -342.5t-245 -121.5t-245.5 120.5t-86.5 342.5q0 224 87.5 347.5t244.5 123.5zM386 643q95 0 139 83t44 262q0 182 -45 268t-139 86q-93 0 -138.5 -86.5t-45.5 -267.5q0 -178 45 -261.5t140 -83.5z" />
    <glyph glyph-name="one.numr" horiz-adv-x="488" 
d="M216 536v708h-171v89q118 -1 164.5 26.5t50.5 86.5h100v-910h-144z" />
    <glyph glyph-name="two.numr" horiz-adv-x="747" 
d="M63 537v79v39q0 82 34.5 138t89 96.5t115.5 72.5t115.5 63.5t89 72t34.5 96.5q0 65 -45 104.5t-122 39.5q-79 0 -132 -45t-61 -132h-136q0 82 38 149.5t112 108t184 40.5q142 0 225 -72.5t83 -191.5q0 -81 -34 -136.5t-87 -94t-113 -69t-113.5 -60.5t-87 -68.5
t-33.5 -94.5v-12h472v-123h-628z" />
    <glyph glyph-name="three.numr" horiz-adv-x="816" 
d="M74 1175q0 89 42.5 152.5t116 97.5t165.5 34q97 0 171 -27t116.5 -80t42.5 -131q0 -67 -40.5 -119.5t-124.5 -83.5q82 -23 135.5 -79t53.5 -147q0 -85 -47.5 -145t-128.5 -91t-183 -30q-150 1 -238.5 78.5t-90.5 204.5h138q12 -82 65 -123.5t129 -41.5q95 0 150.5 42
t55.5 108q0 70 -56.5 112.5t-153.5 43.5l-84 2v117l79 2q55 2 98 21.5t68.5 51.5t25.5 72q0 54 -48.5 91.5t-133.5 37.5q-47 0 -89 -18t-69 -55t-28 -97h-137z" />
    <glyph glyph-name="four.numr" horiz-adv-x="795" 
d="M464 1446h139v-566h147v-121h-147v-222h-136v222h-422v121zM179 880h287v385z" />
    <glyph glyph-name="five.numr" horiz-adv-x="809" 
d="M144 1446h556l-4 -119h-436l-21 -260q45 31 94 47.5t112 16.5q84 0 154.5 -34t113 -100t42.5 -162q0 -143 -92 -227.5t-246 -84.5q-129 0 -227.5 64.5t-135.5 166.5l117 54q35 -75 93 -121.5t142 -46.5q93 0 147.5 52t54.5 138q0 83 -56 133t-137 50q-53 0 -95.5 -14.5
t-91.5 -67.5q-6 -1 -8 -0.5t-8 3.5l-110 39z" />
    <glyph glyph-name="six.numr" horiz-adv-x="787" 
d="M417 1457q80 0 147 -30t110 -85t50 -132h-131q-17 64 -62.5 98t-110.5 34q-112 0 -167 -91t-46 -252q32 56 92 88.5t130 32.5q140 0 222 -78t82 -209q0 -91 -40.5 -161t-113.5 -108.5t-171 -38.5q-166 0 -260 121.5t-94 328.5q0 229 97 355.5t266 126.5zM405 1008
q-48 0 -89.5 -21.5t-67 -56t-26.5 -72.5q-1 -102 50.5 -161.5t132.5 -59.5q77 0 128 52.5t51 137.5q0 91 -50 136t-129 45z" />
    <glyph glyph-name="seven.numr" horiz-adv-x="721" 
d="M45 1447h651v-118q-58 -78 -115.5 -184t-105.5 -218.5t-79 -215t-37 -174.5h-151q11 80 50 209.5t110 281.5t176 300h-499v119z" />
    <glyph glyph-name="eight.numr" horiz-adv-x="837" 
d="M418 1457q138 0 226.5 -66.5t88.5 -184.5q0 -69 -36 -117.5t-98 -76.5q45 -11 84.5 -45t64.5 -81.5t25 -98.5q0 -121 -97.5 -192t-257.5 -71q-159 0 -256.5 71t-97.5 192q0 51 25.5 98.5t65.5 81.5t83 45q-62 28 -98 76.5t-36 117.5q0 118 88.5 184.5t225.5 66.5z
M418 1069q80 0 126 37t46 103q0 67 -47.5 107t-124.5 40q-76 0 -123.5 -40t-47.5 -107q0 -66 46.5 -103t124.5 -37zM418 635q94 0 149 42t55 111q0 72 -55.5 116t-148.5 44q-92 0 -147.5 -44t-55.5 -116q0 -69 54.5 -111t148.5 -42z" />
    <glyph glyph-name="nine.numr" horiz-adv-x="789" 
d="M368 524q-81 0 -149 31t-111.5 86.5t-51.5 129.5h135q14 -59 60.5 -95t111.5 -36q112 0 175 84.5t56 262.5q-29 -60 -88 -95.5t-139 -35.5q-138 0 -223 79.5t-85 212.5q0 93 40.5 162.5t113 108t168.5 38.5q166 0 259.5 -122.5t93.5 -328.5q0 -239 -97.5 -360.5
t-268.5 -121.5zM385 973q47 0 88.5 21.5t67.5 57t26 72.5q2 102 -49.5 161.5t-133.5 59.5q-76 0 -125 -52t-49 -138q0 -90 48 -136t127 -46z" />
    <glyph glyph-name="uni2070" unicode="&#x2070;" horiz-adv-x="771" 
d="M386 1666q158 0 244.5 -123t86.5 -347q0 -221 -86 -342.5t-245 -121.5t-245.5 120.5t-86.5 342.5q0 224 87.5 347.5t244.5 123.5zM386 851q95 0 139 83t44 262q0 182 -45 268t-139 86q-93 0 -138.5 -86.5t-45.5 -267.5q0 -178 45 -261.5t140 -83.5z" />
    <glyph glyph-name="uni00B9" unicode="&#xb9;" horiz-adv-x="488" 
d="M216 744v708h-171v89q118 -1 164.5 26.5t50.5 86.5h100v-910h-144z" />
    <glyph glyph-name="uni00B2" unicode="&#xb2;" horiz-adv-x="747" 
d="M63 747v79v39q0 82 34.5 138t89 96.5t115.5 72.5t115.5 63.5t89 72t34.5 96.5q0 65 -45 104.5t-122 39.5q-79 0 -132 -45t-61 -132h-136q0 82 38 149.5t112 108t184 40.5q142 0 225 -72.5t83 -191.5q0 -81 -34 -136.5t-87 -94t-113 -69t-113.5 -60.5t-87 -68.5
t-33.5 -94.5v-12h472v-123h-628z" />
    <glyph glyph-name="uni00B3" unicode="&#xb3;" horiz-adv-x="816" 
d="M74 1385q0 89 42.5 152.5t116 97.5t165.5 34q97 0 171 -27t116.5 -80t42.5 -131q0 -67 -40.5 -119.5t-124.5 -83.5q82 -23 135.5 -79t53.5 -147q0 -85 -47.5 -145t-128.5 -91t-183 -30q-150 1 -238.5 78.5t-90.5 204.5h138q12 -82 65 -123.5t129 -41.5q95 0 150.5 42
t55.5 108q0 70 -56.5 112.5t-153.5 43.5l-84 2v117l79 2q55 2 98 21.5t68.5 51.5t25.5 72q0 54 -48.5 91.5t-133.5 37.5q-47 0 -89 -18t-69 -55t-28 -97h-137z" />
    <glyph glyph-name="uni2074" unicode="&#x2074;" horiz-adv-x="795" 
d="M464 1654h139v-566h147v-121h-147v-222h-136v222h-422v121zM179 1088h287v385z" />
    <glyph glyph-name="uni2075" unicode="&#x2075;" horiz-adv-x="809" 
d="M144 1654h556l-4 -119h-436l-21 -260q45 31 94 47.5t112 16.5q84 0 154.5 -34t113 -100t42.5 -162q0 -143 -92 -227.5t-246 -84.5q-129 0 -227.5 64.5t-135.5 166.5l117 54q35 -75 93 -121.5t142 -46.5q93 0 147.5 52t54.5 138q0 83 -56 133t-137 50q-53 0 -95.5 -14.5
t-91.5 -67.5q-6 -1 -8 -0.5t-8 3.5l-110 39z" />
    <glyph glyph-name="uni2076" unicode="&#x2076;" horiz-adv-x="787" 
d="M417 1667q80 0 147 -30t110 -85t50 -132h-131q-17 64 -62.5 98t-110.5 34q-112 0 -167 -91t-46 -252q32 56 92 88.5t130 32.5q140 0 222 -78t82 -209q0 -91 -40.5 -161t-113.5 -108.5t-171 -38.5q-166 0 -260 121.5t-94 328.5q0 229 97 355.5t266 126.5zM405 1218
q-48 0 -89.5 -21.5t-67 -56t-26.5 -72.5q-1 -102 50.5 -161.5t132.5 -59.5q77 0 128 52.5t51 137.5q0 91 -50 136t-129 45z" />
    <glyph glyph-name="uni2077" unicode="&#x2077;" horiz-adv-x="721" 
d="M45 1657h651v-118q-58 -78 -115.5 -184t-105.5 -218.5t-79 -215t-37 -174.5h-151q11 80 50 209.5t110 281.5t176 300h-499v119z" />
    <glyph glyph-name="uni2078" unicode="&#x2078;" horiz-adv-x="837" 
d="M418 1667q138 0 226.5 -66.5t88.5 -184.5q0 -69 -36 -117.5t-98 -76.5q45 -11 84.5 -45t64.5 -81.5t25 -98.5q0 -121 -97.5 -192t-257.5 -71q-159 0 -256.5 71t-97.5 192q0 51 25.5 98.5t65.5 81.5t83 45q-62 28 -98 76.5t-36 117.5q0 118 88.5 184.5t225.5 66.5z
M418 1279q80 0 126 37t46 103q0 67 -47.5 107t-124.5 40q-76 0 -123.5 -40t-47.5 -107q0 -66 46.5 -103t124.5 -37zM418 845q94 0 149 42t55 111q0 72 -55.5 116t-148.5 44q-92 0 -147.5 -44t-55.5 -116q0 -69 54.5 -111t148.5 -42z" />
    <glyph glyph-name="uni2079" unicode="&#x2079;" horiz-adv-x="789" 
d="M368 734q-81 0 -149 31t-111.5 86.5t-51.5 129.5h135q14 -59 60.5 -95t111.5 -36q112 0 175 84.5t56 262.5q-29 -60 -88 -95.5t-139 -35.5q-138 0 -223 79.5t-85 212.5q0 93 40.5 162.5t113 108t168.5 38.5q166 0 259.5 -122.5t93.5 -328.5q0 -239 -97.5 -360.5
t-268.5 -121.5zM385 1183q47 0 88.5 21.5t67.5 57t26 72.5q2 102 -49.5 161.5t-133.5 59.5q-76 0 -125 -52t-49 -138q0 -90 48 -136t127 -46z" />
    <glyph glyph-name="fraction.alt" unicode="&#x2215;" horiz-adv-x="1352" 
d="M1231 1462l-972 -1470l-138 2l976 1468h134z" />
    <glyph glyph-name="fraction" unicode="&#x2044;" horiz-adv-x="467" 
d="M791 1462l-972 -1470l-138 2l976 1468h134z" />
    <glyph glyph-name="onehalf" unicode="&#xbd;" horiz-adv-x="1752" 
d="M216 536v708h-171v89q118 -1 164.5 26.5t50.5 86.5h100v-910h-144zM1324 1462l-972 -1470l-138 2l976 1468h134zM1068 -1v79v39q0 82 34.5 138t89 96.5t115.5 72.5t115.5 63.5t89 72t34.5 96.5q0 65 -45 104.5t-122 39.5q-79 0 -132 -45t-61 -132h-136q0 82 38 149.5
t112 108t184 40.5q142 0 225 -72.5t83 -191.5q0 -81 -34 -136.5t-87 -94t-113 -69t-113.5 -60.5t-87 -68.5t-33.5 -94.5v-12h472v-123h-628z" />
    <glyph glyph-name="uni2153" unicode="&#x2153;" horiz-adv-x="1781" 
d="M216 536v708h-171v89q118 -1 164.5 26.5t50.5 86.5h100v-910h-144zM1324 1462l-972 -1470l-138 2l976 1468h134zM1039 635q0 89 42.5 152.5t116 97.5t165.5 34q97 0 171 -27t116.5 -80t42.5 -131q0 -67 -40.5 -119.5t-124.5 -83.5q82 -23 135.5 -79t53.5 -147
q0 -85 -47.5 -145t-128.5 -91t-183 -30q-150 1 -238.5 78.5t-90.5 204.5h138q12 -82 65 -123.5t129 -41.5q95 0 150.5 42t55.5 108q0 70 -56.5 112.5t-153.5 43.5l-84 2v117l79 2q55 2 98 21.5t68.5 51.5t25.5 72q0 54 -48.5 91.5t-133.5 37.5q-47 0 -89 -18t-69 -55
t-28 -97h-137z" />
    <glyph glyph-name="uni2154" unicode="&#x2154;" horiz-adv-x="2090" 
d="M63 537v79v39q0 82 34.5 138t89 96.5t115.5 72.5t115.5 63.5t89 72t34.5 96.5q0 65 -45 104.5t-122 39.5q-79 0 -132 -45t-61 -132h-136q0 82 38 149.5t112 108t184 40.5q142 0 225 -72.5t83 -191.5q0 -81 -34 -136.5t-87 -94t-113 -69t-113.5 -60.5t-87 -68.5
t-33.5 -94.5v-12h472v-123h-628zM1633 1462l-972 -1470l-138 2l976 1468h134zM1348 635q0 89 42.5 152.5t116 97.5t165.5 34q97 0 171 -27t116.5 -80t42.5 -131q0 -67 -40.5 -119.5t-124.5 -83.5q82 -23 135.5 -79t53.5 -147q0 -85 -47.5 -145t-128.5 -91t-183 -30
q-150 1 -238.5 78.5t-90.5 204.5h138q12 -82 65 -123.5t129 -41.5q95 0 150.5 42t55.5 108q0 70 -56.5 112.5t-153.5 43.5l-84 2v117l79 2q55 2 98 21.5t68.5 51.5t25.5 72q0 54 -48.5 91.5t-133.5 37.5q-47 0 -89 -18t-69 -55t-28 -97h-137z" />
    <glyph glyph-name="onequarter" unicode="&#xbc;" horiz-adv-x="1605" 
d="M216 536v708h-171v89q118 -1 164.5 26.5t50.5 86.5h100v-910h-144zM1324 1462l-972 -1470l-138 2l976 1468h134zM1274 911h139v-566h147v-121h-147v-222h-136v222h-422v121zM989 345h287v385z" />
    <glyph glyph-name="threequarters" unicode="&#xbe;" horiz-adv-x="1859" 
d="M74 1175q0 89 42.5 152.5t116 97.5t165.5 34q97 0 171 -27t116.5 -80t42.5 -131q0 -67 -40.5 -119.5t-124.5 -83.5q82 -23 135.5 -79t53.5 -147q0 -85 -47.5 -145t-128.5 -91t-183 -30q-150 1 -238.5 78.5t-90.5 204.5h138q12 -82 65 -123.5t129 -41.5q95 0 150.5 42
t55.5 108q0 70 -56.5 112.5t-153.5 43.5l-84 2v117l79 2q55 2 98 21.5t68.5 51.5t25.5 72q0 54 -48.5 91.5t-133.5 37.5q-47 0 -89 -18t-69 -55t-28 -97h-137zM1578 1462l-972 -1470l-138 2l976 1468h134zM1529 911h139v-566h147v-121h-147v-222h-136v222h-422v121z
M1244 345h287v385z" />
    <glyph glyph-name="oneeighth" unicode="&#x215b;" horiz-adv-x="1802" 
d="M216 536v708h-171v89q118 -1 164.5 26.5t50.5 86.5h100v-910h-144zM1324 1462l-972 -1470l-138 2l976 1468h134zM1383 922q138 0 226.5 -66.5t88.5 -184.5q0 -69 -36 -117.5t-98 -76.5q45 -11 84.5 -45t64.5 -81.5t25 -98.5q0 -121 -97.5 -192t-257.5 -71
q-159 0 -256.5 71t-97.5 192q0 51 25.5 98.5t65.5 81.5t83 45q-62 28 -98 76.5t-36 117.5q0 118 88.5 184.5t225.5 66.5zM1383 534q80 0 126 37t46 103q0 67 -47.5 107t-124.5 40q-76 0 -123.5 -40t-47.5 -107q0 -66 46.5 -103t124.5 -37zM1383 100q94 0 149 42t55 111
q0 72 -55.5 116t-148.5 44q-92 0 -147.5 -44t-55.5 -116q0 -69 54.5 -111t148.5 -42z" />
    <glyph glyph-name="threeeighths" unicode="&#x215c;" horiz-adv-x="2056" 
d="M74 1175q0 89 42.5 152.5t116 97.5t165.5 34q97 0 171 -27t116.5 -80t42.5 -131q0 -67 -40.5 -119.5t-124.5 -83.5q82 -23 135.5 -79t53.5 -147q0 -85 -47.5 -145t-128.5 -91t-183 -30q-150 1 -238.5 78.5t-90.5 204.5h138q12 -82 65 -123.5t129 -41.5q95 0 150.5 42
t55.5 108q0 70 -56.5 112.5t-153.5 43.5l-84 2v117l79 2q55 2 98 21.5t68.5 51.5t25.5 72q0 54 -48.5 91.5t-133.5 37.5q-47 0 -89 -18t-69 -55t-28 -97h-137zM1578 1462l-972 -1470l-138 2l976 1468h134zM1638 922q138 0 226.5 -66.5t88.5 -184.5q0 -69 -36 -117.5
t-98 -76.5q45 -11 84.5 -45t64.5 -81.5t25 -98.5q0 -121 -97.5 -192t-257.5 -71q-159 0 -256.5 71t-97.5 192q0 51 25.5 98.5t65.5 81.5t83 45q-62 28 -98 76.5t-36 117.5q0 118 88.5 184.5t225.5 66.5zM1638 534q80 0 126 37t46 103q0 67 -47.5 107t-124.5 40
q-76 0 -123.5 -40t-47.5 -107q0 -66 46.5 -103t124.5 -37zM1638 100q94 0 149 42t55 111q0 72 -55.5 116t-148.5 44q-92 0 -147.5 -44t-55.5 -116q0 -69 54.5 -111t148.5 -42z" />
    <glyph glyph-name="fiveeighths" unicode="&#x215d;" horiz-adv-x="2049" 
d="M144 1446h556l-4 -119h-436l-21 -260q45 31 94 47.5t112 16.5q84 0 154.5 -34t113 -100t42.5 -162q0 -143 -92 -227.5t-246 -84.5q-129 0 -227.5 64.5t-135.5 166.5l117 54q35 -75 93 -121.5t142 -46.5q93 0 147.5 52t54.5 138q0 83 -56 133t-137 50q-53 0 -95.5 -14.5
t-91.5 -67.5q-6 -1 -8 -0.5t-8 3.5l-110 39zM1571 1462l-972 -1470l-138 2l976 1468h134zM1631 922q138 0 226.5 -66.5t88.5 -184.5q0 -69 -36 -117.5t-98 -76.5q45 -11 84.5 -45t64.5 -81.5t25 -98.5q0 -121 -97.5 -192t-257.5 -71q-159 0 -256.5 71t-97.5 192
q0 51 25.5 98.5t65.5 81.5t83 45q-62 28 -98 76.5t-36 117.5q0 118 88.5 184.5t225.5 66.5zM1631 534q80 0 126 37t46 103q0 67 -47.5 107t-124.5 40q-76 0 -123.5 -40t-47.5 -107q0 -66 46.5 -103t124.5 -37zM1631 100q94 0 149 42t55 111q0 72 -55.5 116t-148.5 44
q-92 0 -147.5 -44t-55.5 -116q0 -69 54.5 -111t148.5 -42z" />
    <glyph glyph-name="seveneighths" unicode="&#x215e;" horiz-adv-x="1875" 
d="M45 1447h651v-118q-58 -78 -115.5 -184t-105.5 -218.5t-79 -215t-37 -174.5h-151q11 80 50 209.5t110 281.5t176 300h-499v119zM1397 1462l-972 -1470l-138 2l976 1468h134zM1456 922q138 0 226.5 -66.5t88.5 -184.5q0 -69 -36 -117.5t-98 -76.5q45 -11 84.5 -45
t64.5 -81.5t25 -98.5q0 -121 -97.5 -192t-257.5 -71q-159 0 -256.5 71t-97.5 192q0 51 25.5 98.5t65.5 81.5t83 45q-62 28 -98 76.5t-36 117.5q0 118 88.5 184.5t225.5 66.5zM1456 534q80 0 126 37t46 103q0 67 -47.5 107t-124.5 40q-76 0 -123.5 -40t-47.5 -107
q0 -66 46.5 -103t124.5 -37zM1456 100q94 0 149 42t55 111q0 72 -55.5 116t-148.5 44q-92 0 -147.5 -44t-55.5 -116q0 -69 54.5 -111t148.5 -42z" />
    <glyph glyph-name="period" unicode="." horiz-adv-x="475" 
d="M107 0v258h247v-258h-247z" />
    <glyph glyph-name="comma" unicode="," horiz-adv-x="502" 
d="M89 -259l113 254l-91 6v238h248v-208l-178 -290h-92z" />
    <glyph glyph-name="colon" unicode=":" horiz-adv-x="475" 
d="M355 997v-256h-248v256h248zM355 261v-255h-248v255h248z" />
    <glyph glyph-name="semicolon" unicode=";" horiz-adv-x="501" 
d="M107 -292l119 292h-93v256h248v-227l-183 -321h-91zM128 735v259h248v-259h-248z" />
    <glyph glyph-name="ellipsis" unicode="&#x2026;" horiz-adv-x="1597" 
d="M1263 0v258h247v-258h-247zM133 0v258h247v-258h-247zM698 0v258h247v-258h-247z" />
    <glyph glyph-name="exclam" unicode="!" horiz-adv-x="519" 
d="M376 255v-255h-247v255h247zM381 1446l-56 -1057h-140l-59 1057h255z" />
    <glyph glyph-name="exclamdown" unicode="&#xa1;" horiz-adv-x="515" 
d="M376 779h-247v255h247v-255zM381 -322h-255l59 965h139z" />
    <glyph glyph-name="question" unicode="?" horiz-adv-x="1041" 
d="M615 255v-255h-247v255h247zM39 1166q64 143 191.5 221.5t293.5 78.5q137 0 239 -45t158 -123t56 -177q0 -101 -40 -174t-99 -133t-118 -119.5t-99 -131t-40 -169.5h-179q0 113 36 195.5t89.5 147.5t106.5 122t89.5 117t36.5 135q0 92 -66 145t-171 53
q-62 0 -121.5 -25.5t-106 -69.5t-68.5 -100z" />
    <glyph glyph-name="questiondown" unicode="&#xbf;" horiz-adv-x="1050" 
d="M426 779v255h248v-255h-248zM1002 -41q-64 -142 -190.5 -221.5t-294.5 -79.5q-146 0 -247 45.5t-153.5 124t-52.5 177.5q0 83 29 141t73.5 102.5t95 84t95.5 83t73.5 99.5t28.5 133h180q0 -90 -26 -156t-66.5 -115.5t-86.5 -90.5t-86.5 -80.5t-66.5 -85t-26 -105.5
q0 -88 66 -141.5t171 -53.5q62 0 122 25t106 68t68 98z" />
    <glyph glyph-name="periodcentered" unicode="&#xb7;" horiz-adv-x="476" 
d="M355 848v-239h-248v239h248z" />
    <glyph glyph-name="bullet" unicode="&#x2022;" horiz-adv-x="653" 
d="M319 524q-58 0 -105.5 28.5t-76 77t-28.5 106.5t28.5 105.5t76 76t105.5 28.5q59 0 107 -28.5t76 -76t28 -105.5t-28 -106.5t-76 -77t-107 -28.5z" />
    <glyph glyph-name="asterisk" unicode="*" horiz-adv-x="831" 
d="M576 739l-159 259l-162 -265l-123 85l194 238l-272 76l48 132l258 -107l-19 289h151l-21 -290l262 114l42 -131l-265 -82l189 -230z" />
    <glyph glyph-name="numbersign" unicode="#" horiz-adv-x="1213" 
d="M572 1435l-216 -1439l-124 18l217 1435zM987 1435l-216 -1439l-125 18l217 1435zM1072 587v-123h-1004v123h1004zM1136 997v-123h-1004v123h1004z" />
    <glyph glyph-name="slash" unicode="/" horiz-adv-x="718" 
d="M26 -66l502 1512h160l-502 -1512h-160z" />
    <glyph glyph-name="backslash" unicode="\" horiz-adv-x="718" 
d="M522 -66l-501 1512h160l503 -1512h-162z" />
    <glyph glyph-name="period.tf" horiz-adv-x="600" 
d="M176 0v258h247v-258h-247z" />
    <glyph glyph-name="comma.tf" horiz-adv-x="600" 
d="M165 -259l113 254l-91 6v238h248v-208l-178 -290h-92z" />
    <glyph glyph-name="parenleft" unicode="(" horiz-adv-x="622" 
d="M568 1510q-103 -194 -168 -424t-65 -468q0 -225 56 -438t163 -438h-148q-82 141 -143.5 277.5t-95 283.5t-33.5 317q0 248 79.5 476.5t205.5 413.5h149z" />
    <glyph glyph-name="parenright" unicode=")" horiz-adv-x="633" 
d="M34 1510q103 -194 168 -424t65 -468q0 -225 -56 -438t-163 -438h148q82 141 143.5 277.5t95 283.5t33.5 317q0 248 -79.5 476.5t-205.5 413.5h-149z" />
    <glyph glyph-name="braceleft" unicode="{" horiz-adv-x="686" 
d="M245 1233q0 68 37 115.5t98.5 72.5t135.5 25h113v-131h-76q-53 0 -79.5 -12.5t-35.5 -36t-9 -54.5v-418q-2 -73 -31.5 -120t-75 -71t-94.5 -29q-12 -1 -12.5 -6t12.5 -7q48 -4 93.5 -25.5t75.5 -69.5t32 -129v-421q0 -55 26 -80.5t99 -25.5h75v-132h-109q-79 0 -141 26
t-98 74.5t-36 117.5v425q0 47 -24 89.5t-74.5 69.5t-127.5 27v121q118 1 172 54t54 140v411z" />
    <glyph glyph-name="braceright" unicode="}" horiz-adv-x="692" 
d="M420 1233q0 68 -37 115.5t-98.5 72.5t-135.5 25h-113v-131h76q53 0 79.5 -12.5t35.5 -36t9 -54.5v-418q2 -73 31.5 -120t75 -71t94.5 -29q12 -1 12.5 -6t-12.5 -7q-48 -4 -93.5 -25.5t-75.5 -69.5t-32 -129v-421q0 -55 -26 -80.5t-99 -25.5h-75v-132h109q79 0 141 26
t98 74.5t36 117.5v425q0 47 24 89.5t74.5 69.5t127.5 27v121q-118 1 -172 54t-54 140v411z" />
    <glyph glyph-name="bracketleft" unicode="[" horiz-adv-x="625" 
d="M171 1446h396v-131h-212l-1 -1505h212v-132h-394z" />
    <glyph glyph-name="bracketright" unicode="]" horiz-adv-x="648" 
d="M434 1446h-396v-131h212l1 -1505h-212v-132h394z" />
    <glyph glyph-name="hyphen" unicode="-" horiz-adv-x="763" 
d="M641 598v-163l-518 -2v164z" />
    <glyph glyph-name="uni00AD" unicode="&#xad;" horiz-adv-x="763" 
d="M641 598v-163l-518 -2v164z" />
    <glyph glyph-name="endash" unicode="&#x2013;" horiz-adv-x="1131" 
d="M1008 583v-164l-885 -1v164z" />
    <glyph glyph-name="emdash" unicode="&#x2014;" horiz-adv-x="2251" 
d="M1884 583v-164l-1516 -1v164z" />
    <glyph glyph-name="underscore" unicode="_" horiz-adv-x="1054" 
d="M929 -84v-163l-808 -1v163z" />
    <glyph glyph-name="emdash.alt" horiz-adv-x="1515" 
d="M1516 583v-164l-1516 -1v164z" />
    <glyph glyph-name="quotesinglbase" unicode="&#x201a;" horiz-adv-x="502" 
d="M89 -257l112 254l-90 6v238h248v-208l-178 -290h-92z" />
    <glyph glyph-name="quotedblbase" unicode="&#x201e;" horiz-adv-x="890" 
d="M477 -257l112 254l-90 6v238h248v-208l-178 -290h-92zM89 -257l112 254l-90 6v238h248v-208l-178 -290h-92z" />
    <glyph glyph-name="quotedblleft" unicode="&#x201c;" horiz-adv-x="871" 
d="M478 949v208l178 289h92l-113 -253l91 -7v-237h-248zM98 949v208l180 289h92l-113 -253l90 -7v-237h-249z" />
    <glyph glyph-name="quotedblright" unicode="&#x201d;" horiz-adv-x="858" 
d="M478 949l114 255l-91 6v236h248v-207l-178 -290h-93zM100 949l112 255l-90 6v236h248v-207l-178 -290h-92z" />
    <glyph glyph-name="quoteleft" unicode="&#x2018;" horiz-adv-x="492" 
d="M369 1509l-112 -255l90 -6v-236h-248v207l178 290h92z" />
    <glyph glyph-name="quoteright" unicode="&#x2019;" horiz-adv-x="479" 
d="M100 949l112 255l-90 6v236h248v-207l-178 -290h-92z" />
    <glyph glyph-name="guillemotleft" unicode="&#xab;" horiz-adv-x="934" 
d="M631 502l189 -365h-118l-256 365l256 381h120zM270 502l189 -365h-118l-255 365l255 381h120z" />
    <glyph glyph-name="guillemotright" unicode="&#xbb;" horiz-adv-x="975" 
d="M315 502l-191 381h119l254 -381l-253 -365h-118zM676 502l-192 381h120l254 -381l-254 -365h-118z" />
    <glyph glyph-name="guilsinglleft" unicode="&#x2039;" horiz-adv-x="573" 
d="M270 502l189 -365h-118l-255 365l255 381h120z" />
    <glyph glyph-name="guilsinglright" unicode="&#x203a;" horiz-adv-x="572" 
d="M294 502l-191 381h119l255 -381l-255 -365h-117z" />
    <glyph glyph-name="quotedbl" unicode="&#x22;" horiz-adv-x="880" 
d="M751 1446l-65 -492h-117l-63 492h245zM374 1446l-65 -492h-117l-63 492h245z" />
    <glyph glyph-name="quotesingle" unicode="'" horiz-adv-x="503" 
d="M374 1446l-65 -492h-117l-63 492h245z" />
    <glyph glyph-name="space" unicode=" " horiz-adv-x="451" 
 />
    <glyph glyph-name="uni00A0" unicode="&#xa0;" horiz-adv-x="451" 
 />
    <glyph glyph-name="CR" unicode="&#xd;" horiz-adv-x="469" 
 />
    <glyph glyph-name="cent" unicode="&#xa2;" horiz-adv-x="1096" 
d="M660 0h-152v300h152v-300zM660 1146h-152v300h152v-300zM583 1276q117 0 207 -45.5t146.5 -126.5t68.5 -189h-186q-8 51 -37.5 95t-79 70.5t-117.5 26.5q-125 0 -202.5 -91t-77.5 -279q0 -172 72.5 -274t210.5 -102q68 0 117 28t78.5 72t37.5 91h182q-12 -104 -68.5 -183
t-146.5 -123t-205 -44q-140 0 -249 61.5t-171 181t-62 290.5q0 161 57.5 283t165.5 190t259 68z" />
    <glyph glyph-name="colonmonetary" unicode="&#x20a1;" horiz-adv-x="1393" 
d="M733 1560h109l-320 -1682h-109zM954 1560h109l-320 -1682h-109zM730 1466q156 0 277 -64t194.5 -172t87.5 -239h-228q-15 82 -57.5 148.5t-112.5 105t-166 38.5q-123 0 -209 -58t-130.5 -181t-44.5 -317q0 -293 99 -428.5t285 -135.5q96 0 166 41.5t112.5 111t57.5 151.5
h228q-12 -95 -50 -182.5t-105.5 -156.5t-167.5 -108.5t-236 -39.5q-196 0 -336 90.5t-214.5 258t-74.5 401.5q0 233 74 397.5t214 251.5t337 87z" />
    <glyph glyph-name="currency" unicode="&#xa4;" horiz-adv-x="1100" 
d="M546 332q-118 0 -214 61q-16 11 -28 -3l-111 -112l-98 103l123 121q-35 51 -52 105.5t-17 119.5q0 118 60 209q9 17 -3 29l-110 111l99 101l124 -126q48 34 106 52.5t117 18.5q119 0 214 -63q14 -8 24 2l108 109l98 -101l-119 -118q34 -49 52.5 -105t18.5 -118
q0 -57 -15.5 -112.5t-47.5 -99.5q-7 -12 1 -20l112 -108l-98 -101l-119 118q-49 -34 -106 -53.5t-119 -19.5zM546 486q69 0 123.5 33.5t86 88.5t31.5 120q0 64 -31.5 119t-86 89t-123.5 34t-124 -34t-86.5 -89t-31.5 -119q0 -65 31.5 -120t86.5 -88.5t124 -33.5z" />
    <glyph glyph-name="dollar" unicode="$" horiz-adv-x="1329" 
d="M686 -20q-238 0 -391.5 100t-180.5 300l224 11q29 -116 121 -174.5t226 -58.5q80 0 149 27.5t111 76.5t42 114q0 92 -55.5 144t-173.5 82l-246 62q-162 39 -257.5 129.5t-96.5 243.5q-1 128 67.5 224t189.5 149.5t276 53.5q153 0 263.5 -57t171 -151.5t63.5 -206.5
l-217 -9q-20 120 -86.5 183.5t-193.5 63.5q-61 0 -116 -15t-97 -44t-66.5 -71.5t-24.5 -97.5q0 -74 51.5 -117t187.5 -83l239 -65q187 -50 268 -159t81 -256q0 -118 -66 -208t-185.5 -140.5t-277.5 -50.5zM595 1660h194v-259h-194v259zM585 55h193v-259h-193v259z" />
    <glyph glyph-name="dong" unicode="&#x20ab;" horiz-adv-x="1032" 
d="M697 264v114q-23 -26 -56.5 -56.5t-84.5 -52t-126 -21.5q-98 0 -177 48t-125.5 143.5t-46.5 237.5q0 136 48 237.5t131 157.5t187 56q77 0 127.5 -24.5t92.5 -63.5q14 -11 20 -8.5t6 19.5v394h182v-1181h-178zM689 907q-42 43 -86.5 66.5t-101.5 23.5q-99 0 -162.5 -77.5
t-63.5 -238.5q0 -108 29.5 -176t80 -99t112.5 -31q56 0 99.5 24.5t68 62.5t24.5 78v367zM998 1324v-106h-559v106h559zM881 114v-114h-751v114h751z" />
    <glyph glyph-name="Euro" unicode="&#x20ac;" horiz-adv-x="1227" 
d="M758 -20q-140 0 -252.5 52.5t-192.5 150.5t-122.5 236t-42.5 310q0 229 74.5 394t210.5 254t320 89q117 0 219 -43.5t175 -119.5l-148 -125q-47 45 -101.5 77.5t-126.5 32.5q-118 0 -202 -60.5t-127.5 -185t-43.5 -316.5q0 -189 46 -312.5t132.5 -185t208.5 -61.5
q73 0 138.5 33t109.5 75l117 -131q-71 -71 -172.5 -117.5t-219.5 -46.5zM794 950v-127l-808 -1v127zM794 630v-128l-808 -1v128z" />
    <glyph glyph-name="florin" unicode="&#x192;" horiz-adv-x="946" 
d="M814 1034l-28 -154h-242l-167 -951q-21 -123 -99 -193t-207 -70h-186l22 149l117 1q66 1 98.5 33.5t46.5 117.5l160 913h-167l27 154h167l27 157q23 124 102.5 189.5t202.5 65.5h206l-24 -148h-143q-50 0 -88.5 -38t-49.5 -98l-23 -128h248z" />
    <glyph glyph-name="franc" unicode="&#x20a3;" horiz-adv-x="1225" 
d="M724 388v-129l-745 -1v128zM162 1446h969v-183h-725v-465h589v-179h-589v-619h-244v1446z" />
    <glyph glyph-name="lira" unicode="&#x20a4;" horiz-adv-x="1245" 
d="M1153 301q-45 -148 -154 -224.5t-264 -76.5h-702v182h73q70 -1 119 55t56 176q2 15 2 32t-1 40q-1 12 -17 12h-212v128h211l-27 165h-184v129h164l-7 65q-24 174 30 280t158.5 154t231.5 48q89 0 174.5 -30.5t152.5 -86.5t99 -134l-190 -63q-28 60 -75.5 98t-130.5 38
q-61 0 -110 -24.5t-78 -71t-29 -112.5q0 -22 5.5 -59.5t12.5 -82.5q3 -19 22 -19l302 1v-129l-301 -1l25 -165l276 1v-128h-275q-1 -54 -14 -111.5t-39 -110.5t-66 -92h330q97 0 157 36t92 126z" />
    <glyph glyph-name="uni20BA" unicode="&#x20ba;" horiz-adv-x="1183" 
d="M504 0h-259v1446h245v-1262h89q126 2 222 83.5t158 251.5l195 -43q-35 -105 -91.5 -192t-136 -151t-184.5 -98.5t-238 -34.5zM752 1096l48 -127l-724 -264l-46 129zM769 777l46 -128l-722 -263l-45 129z" />
    <glyph glyph-name="uni20A6" unicode="&#x20a6;" horiz-adv-x="1493" 
d="M1470 995v-118l-1456 -1v118zM1470 615v-118l-1456 -2v119zM1166 1446h215v-1446h-192l-752 1101v-1101h-214v1446h207l736 -1078v1078z" />
    <glyph glyph-name="uni20B9" unicode="&#x20b9;" horiz-adv-x="1201" 
d="M26 825h396q164 0 242 60t78 197q0 121 -72.5 179t-214.5 58h-429v127h460q241 0 375.5 -95t134.5 -274q0 -106 -40.5 -180.5t-104 -121.5t-134.5 -71q-14 -4 -7 -24l267 -680h-265l-239 662h-447v163zM1158 1447v-118l-1129 -2v119zM1158 1143v-119l-1129 -1v119z" />
    <glyph glyph-name="sterling" unicode="&#xa3;" horiz-adv-x="1245" 
d="M33 0v182h73q76 0 127 60.5t51 194.5q0 50 -5 106.5t-17 141.5h-203v130h178l-27 169q-21 115 5.5 204t88 151t146.5 94.5t180 32.5q99 0 184 -32t147.5 -88.5t93.5 -130.5l-189 -63q-33 69 -80 102.5t-126 33.5q-61 0 -110 -24.5t-78 -71t-29 -112.5q0 -53 11.5 -121.5
t31.5 -142.5h314v-130h-296q9 -70 11 -120.5t-4 -103.5q-5 -78 -23.5 -131.5t-43.5 -88t-49 -58.5h326q101 0 158 36t91 126l183 -45q-47 -150 -151.5 -225.5t-266.5 -75.5h-702z" />
    <glyph glyph-name="uni20A9" unicode="&#x20a9;" horiz-adv-x="2106" 
d="M2072 1107v-128l-2046 -1v127zM2072 795v-128l-2046 -1v127zM1954 1446l-423 -1446h-188l-305 1073l-308 -1073h-184l-419 1446h214l306 -1098l310 1098h164l310 -1098l310 1098h213z" />
    <glyph glyph-name="yen" unicode="&#xa5;" horiz-adv-x="1249" 
d="M1245 1446l-493 -808v-638h-244v604l-504 842h278l367 -639l368 639h228zM1056 683v-129l-851 -1v128zM1056 383v-127l-851 -1v127z" />
    <glyph glyph-name="cent.tf" horiz-adv-x="1400" 
d="M807 0h-152v300h152v-300zM807 1146h-152v300h152v-300zM730 1276q117 0 207 -45.5t146.5 -126.5t68.5 -189h-186q-8 51 -37.5 95t-79 70.5t-117.5 26.5q-125 0 -202.5 -91t-77.5 -279q0 -172 72.5 -274t210.5 -102q68 0 117 28t78.5 72t37.5 91h182q-12 -104 -68.5 -183
t-146.5 -123t-205 -44q-140 0 -249 61.5t-171 181t-62 290.5q0 161 57.5 283t165.5 190t259 68z" />
    <glyph glyph-name="colonmonetary.tf" horiz-adv-x="1400" 
d="M726 1560h109l-320 -1682h-109zM947 1560h109l-320 -1682h-109zM723 1466q156 0 277 -64t194.5 -172t87.5 -239h-228q-15 82 -57.5 148.5t-112.5 105t-166 38.5q-123 0 -209 -58t-130.5 -181t-44.5 -317q0 -293 99 -428.5t285 -135.5q96 0 166 41.5t112.5 111t57.5 151.5
h228q-12 -95 -50 -182.5t-105.5 -156.5t-167.5 -108.5t-236 -39.5q-196 0 -336 90.5t-214.5 258t-74.5 401.5q0 233 74 397.5t214 251.5t337 87z" />
    <glyph glyph-name="dollar.tf" horiz-adv-x="1400" 
d="M722 -20q-238 0 -391.5 100t-180.5 300l224 11q29 -116 121 -174.5t226 -58.5q80 0 149 27.5t111 76.5t42 114q0 92 -55.5 144t-173.5 82l-246 62q-162 39 -257.5 129.5t-96.5 243.5q-1 128 67.5 224t189.5 149.5t276 53.5q153 0 263.5 -57t171 -151.5t63.5 -206.5
l-217 -9q-20 120 -86.5 183.5t-193.5 63.5q-61 0 -116 -15t-97 -44t-66.5 -71.5t-24.5 -97.5q0 -74 51.5 -117t187.5 -83l239 -65q187 -50 268 -159t81 -256q0 -118 -66 -208t-185.5 -140.5t-277.5 -50.5zM631 1660h194v-259h-194v259zM621 55h193v-259h-193v259z" />
    <glyph glyph-name="dong.tf" horiz-adv-x="1400" 
d="M858 264v114q-23 -26 -56.5 -56.5t-84.5 -52t-126 -21.5q-98 0 -177 48t-125.5 143.5t-46.5 237.5q0 136 48 237.5t131 157.5t187 56q77 0 127.5 -24.5t92.5 -63.5q14 -11 20 -8.5t6 19.5v394h182v-1181h-178zM850 907q-42 43 -86.5 66.5t-101.5 23.5q-99 0 -162.5 -77.5
t-63.5 -238.5q0 -108 29.5 -176t80 -99t112.5 -31q56 0 99.5 24.5t68 62.5t24.5 78v367zM1159 1324v-106h-559v106h559zM1042 114v-114h-751v114h751z" />
    <glyph glyph-name="Euro.tf" horiz-adv-x="1400" 
d="M880 -20q-140 0 -252.5 52.5t-192.5 150.5t-122.5 236t-42.5 310q0 229 74.5 394t210.5 254t320 89q117 0 219 -43.5t175 -119.5l-148 -125q-47 45 -101.5 77.5t-126.5 32.5q-118 0 -202 -60.5t-127.5 -185t-43.5 -316.5q0 -189 46 -312.5t132.5 -185t208.5 -61.5
q73 0 138.5 33t109.5 75l117 -131q-71 -71 -172.5 -117.5t-219.5 -46.5zM916 950v-127l-808 -1v127zM916 630v-128l-808 -1v128z" />
    <glyph glyph-name="florin.tf" horiz-adv-x="1400" 
d="M1095 1034l-28 -154h-242l-167 -951q-21 -123 -99 -193t-207 -70h-186l22 149l117 1q66 1 98.5 33.5t46.5 117.5l160 913h-167l27 154h167l27 157q23 124 102.5 189.5t202.5 65.5h206l-24 -148h-143q-50 0 -88.5 -38t-49.5 -98l-23 -128h248z" />
    <glyph glyph-name="franc.tf" horiz-adv-x="1400" 
d="M869 388v-129l-745 -1v128zM307 1446h969v-183h-725v-465h589v-179h-589v-619h-244v1446z" />
    <glyph glyph-name="lira.tf" horiz-adv-x="1400" 
d="M1260 301q-45 -148 -154 -224.5t-264 -76.5h-702v182h73q70 -1 119 55t56 176q2 15 2 32t-1 40q-1 12 -17 12h-212v128h211l-27 165h-184v129h164l-7 65q-24 174 30 280t158.5 154t231.5 48q89 0 174.5 -30.5t152.5 -86.5t99 -134l-190 -63q-28 60 -75.5 98t-130.5 38
q-61 0 -110 -24.5t-78 -71t-29 -112.5q0 -22 5.5 -59.5t12.5 -82.5q3 -19 22 -19l302 1v-129l-301 -1l25 -165l276 1v-128h-275q-1 -54 -14 -111.5t-39 -110.5t-66 -92h330q97 0 157 36t92 126z" />
    <glyph glyph-name="uni20BA.tf" horiz-adv-x="1400" 
d="M623 0h-259v1446h245v-1262h89q126 2 222 83.5t158 251.5l195 -43q-35 -105 -91.5 -192t-136 -151t-184.5 -98.5t-238 -34.5zM871 1096l48 -127l-724 -264l-46 129zM888 777l46 -128l-722 -263l-45 129z" />
    <glyph glyph-name="uni20B9.tf" horiz-adv-x="1400" 
d="M134 825h396q164 0 242 60t78 197q0 121 -72.5 179t-214.5 58h-429v127h460q241 0 375.5 -95t134.5 -274q0 -106 -40.5 -180.5t-104 -121.5t-134.5 -71q-14 -4 -7 -24l267 -680h-265l-239 662h-447v163zM1266 1447v-118l-1129 -2v119zM1266 1143v-119l-1129 -1v119z" />
    <glyph glyph-name="sterling.tf" horiz-adv-x="1400" 
d="M140 0v182h73q76 0 127 60.5t51 194.5q0 50 -5 106.5t-17 141.5h-203v130h178l-27 169q-21 115 5.5 204t88 151t146.5 94.5t180 32.5q99 0 184 -32t147.5 -88.5t93.5 -130.5l-189 -63q-33 69 -80 102.5t-126 33.5q-61 0 -110 -24.5t-78 -71t-29 -112.5q0 -53 11.5 -121.5
t31.5 -142.5h314v-130h-296q9 -70 11 -120.5t-4 -103.5q-5 -78 -23.5 -131.5t-43.5 -88t-49 -58.5h326q101 0 158 36t91 126l183 -45q-47 -150 -151.5 -225.5t-266.5 -75.5h-702z" />
    <glyph glyph-name="yen.tf" horiz-adv-x="1400" 
d="M1321 1446l-493 -808v-638h-244v604l-504 842h278l367 -639l368 639h228zM1132 683v-129l-851 -1v128zM1132 383v-127l-851 -1v127z" />
    <glyph glyph-name="uni2219" unicode="&#x2219;" horiz-adv-x="656" 
d="M321 602q-54 0 -92.5 39t-38.5 93q0 55 38.5 93.5t92.5 38.5q55 0 93.5 -38.5t38.5 -93.5q0 -54 -38.5 -93t-93.5 -39z" />
    <glyph glyph-name="plus" unicode="+" horiz-adv-x="1128" 
d="M1007 809v-163l-886 -1v163zM647 285h-163l-1 886h163z" />
    <glyph glyph-name="minus" unicode="&#x2212;" horiz-adv-x="1128" 
d="M1007 809v-163l-886 -1v163z" />
    <glyph glyph-name="multiply" unicode="&#xd7;" horiz-adv-x="1100" 
d="M977 416l-116 -116l-740 739l115 115zM238 300l-115 116l738 740l116 -115z" />
    <glyph glyph-name="divide" unicode="&#xf7;" horiz-adv-x="1128" 
d="M691 485v-242h-252v242h252zM1007 809v-163l-886 -1v163zM691 1212v-242h-252v242h252z" />
    <glyph glyph-name="equal" unicode="=" horiz-adv-x="1128" 
d="M1007 1001v-162l-886 -1v162zM1007 554v-163l-886 -1v163z" />
    <glyph glyph-name="notequal" unicode="&#x2260;" horiz-adv-x="1128" 
d="M855 1271l-514 -1167h-120l519 1167h115zM1007 1001v-162l-886 -1v162zM1007 554v-163l-886 -1v163z" />
    <glyph glyph-name="greater" unicode="&#x3e;" horiz-adv-x="1108" 
d="M122 451l618 238l-619 242v195l866 -342v-188l-865 -337v192z" />
    <glyph glyph-name="less" unicode="&#x3c;" horiz-adv-x="1109" 
d="M986 451v-192l-865 337v188l866 342v-195l-618 -242z" />
    <glyph glyph-name="greaterequal" unicode="&#x2265;" horiz-adv-x="1128" 
d="M132 634l618 239l-619 241v195l866 -341v-188l-865 -339v193zM121 260l886 1v-162l-886 -1v162z" />
    <glyph glyph-name="lessequal" unicode="&#x2264;" horiz-adv-x="1128" 
d="M995 634v-193l-864 339v188l865 341v-195l-617 -241zM1007 260v-162l-886 1v162z" />
    <glyph glyph-name="plusminus" unicode="&#xb1;" horiz-adv-x="1128" 
d="M1007 267v-162l-886 -1v162zM1007 967v-163l-886 -1v162zM646 443h-162l-1 885h163v-885z" />
    </font>
</defs>
</svg>
