<?xml version="1.0" standalone="no"?>
<!DOCTYPE svg PUBLIC "-//W3C//DTD SVG 1.1//EN" "http://www.w3.org/Graphics/SVG/1.1/DTD/svg11.dtd" >
<svg xmlns="http://www.w3.org/2000/svg" xmlns:xlink="http://www.w3.org/1999/xlink" version="1.1">
<metadata>
Created by FontForge 20190801 at Wed Oct 23 08:29:17 2019
 By Jimmy Wärting
Copyright (c) 2015, Impallari Type (www.impallari.com)
</metadata>
<defs>
<font id="PublicSans-Bold" horiz-adv-x="0" >
  <font-face 
    font-family="Public Sans"
    font-weight="700"
    font-stretch="normal"
    units-per-em="2000"
    panose-1="0 0 0 0 0 0 0 0 0 0"
    ascent="1600"
    descent="-400"
    x-height="1034"
    cap-height="1446"
    bbox="-334 -480 2598 2239.36"
    underline-thickness="140"
    underline-position="-440"
    unicode-range="U+000D-FB02"
  />
<missing-glyph horiz-adv-x="1315" 
d="M1153 -266q0 -56 -65 -56h-873q-31 0 -42 12t-11 36v1880q0 46 38 46h918q35 0 35 -42v-1876zM1051 -178v1698q0 34 -29 34h-727q-31 0 -31 -36v-1702q0 -19 9.5 -29.5t34.5 -10.5h689q54 0 54 46zM997 -268l-793 1840l101 52l809 -1882z" />
    <glyph glyph-name="fi" unicode="fi" horiz-adv-x="1362" 
d="M756 1034v-203h-218v-831h-292v831h-191v203h191v149q0 125 73.5 194t208.5 69h237l1 -194h-136q-56 0 -76.5 -27.5t-20.5 -90.5v-100h223zM1221 1034v-1034h-279v1034h279zM1224 1445v-263h-284v263h284z" />
    <glyph glyph-name="fl" unicode="fl" horiz-adv-x="1452" 
d="M756 1034v-203h-218v-831h-292v831h-191v203h191v149q0 125 73.5 194t208.5 69h237l1 -194h-136q-56 0 -76.5 -27.5t-20.5 -90.5v-100h223zM1257 -18q-114 0 -181 27t-99 71.5t-41 99t-9 110.5v1196h286v-1160q0 -57 24.5 -92.5t92.5 -43.5l49 -3v-180q-30 -10 -61 -17.5
t-61 -7.5z" />
    <glyph glyph-name="colon_one_eight_F_colon.liga" unicode="&#x3a;&#x31;&#x38;F&#x3a;" horiz-adv-x="1561" 
d="M755 742q44 0 73 -29t29 -73q0 -42 -29 -72t-73 -30q-42 0 -72 30t-30 72q0 44 30 73t72 29zM43 1522h1476q22 0 22 -24v-1472q0 -26 -22 -26h-1476q-22 0 -22 26v1472q0 24 22 24zM499 486v544q0 10 -8 10h-136q-6 0 -6 -10v-52q0 -8 6 -8h74v-484q0 -8 6 -8h56q8 0 8 8
zM755 468q71 0 121.5 51t50.5 121q0 90 -74 140q52 50 52 116q0 62 -44 106t-106 44q-66 0 -109 -44t-43 -106t54 -116q-74 -49 -74 -140q0 -70 50 -121t122 -51zM1237 978v52q0 10 -8 10h-210q-8 0 -8 -10v-544q0 -8 8 -8h52q12 0 12 8v248h122q6 0 6 8v50q0 10 -6 10h-122
v168h146q8 0 8 8zM755 816q-34 0 -59 22t-25 58q0 35 25 58.5t59 23.5q35 0 58.5 -23.5t23.5 -58.5q0 -36 -23.5 -58t-58.5 -22z" />
    <glyph glyph-name="colon_f_l_a_g_two_colon.liga" unicode="&#x3a;flag&#x32;&#x3a;" horiz-adv-x="2334" 
d="M217 1396l8 -1270h1884v1270h-1892zM101 1522h2132v-1520h-2132v1520zM121 354h2084v-124h-2084v124zM121 588h2084v-124h-2084v124zM1037 822h1168v-124h-1168v124zM1037 1056h1168v-124h-1168v124zM1037 1290h1168v-124h-1168v124zM289 1288v-118h126v118h-126z
M761 1288v-118h122v118h-122zM527 1170v-116h122v116h-122zM293 1054v-118h122v118h-122zM761 1054v-118h122v118h-122zM527 936v-116h122v116h-122zM293 820v-118h122v118h-122zM761 820v-118h122v118h-122zM201 1446h838v-860h-844z" />
    <glyph glyph-name="colon_f_l_a_g_colon.liga" unicode="&#x3a;flag&#x3a;" horiz-adv-x="2334" 
d="M217 1404v-1286h1900v1286h-1900zM101 1522h2132v-1520h-2132v1520zM121 352h2084v-118h-2084v118zM121 586h2084v-118h-2084v118zM1037 820h1168v-118h-1168v118zM1037 1054h1168v-118h-1168v118zM1037 1288h1168v-118h-1168v118zM335 1288h116v-118h-116v118zM569 1170
h116v-116h-116v116zM803 1288h116v-118h-116v118zM569 1170h116v-116h-116v116zM335 1054h116v-118h-116v118zM569 936h116v-116h-116v116zM803 1054h116v-118h-116v118zM569 936h116v-116h-116v116zM335 820h116v-118h-116v118zM803 820h116v-118h-116v118z" />
    <glyph glyph-name=".notdef" horiz-adv-x="1315" 
d="M1153 -266q0 -56 -65 -56h-873q-31 0 -42 12t-11 36v1880q0 46 38 46h918q35 0 35 -42v-1876zM1051 -178v1698q0 34 -29 34h-727q-31 0 -31 -36v-1702q0 -19 9.5 -29.5t34.5 -10.5h689q54 0 54 46zM997 -268l-793 1840l101 52l809 -1882z" />
    <glyph glyph-name="A" unicode="A" horiz-adv-x="1453" 
d="M55 0l518 1446h308l517 -1446h-291l-118 335h-520l-121 -335h-293zM534 590h385l-191 574z" />
    <glyph glyph-name="Aacute" unicode="&#xc1;" horiz-adv-x="1453" 
d="M55 0l518 1446h308l517 -1446h-291l-118 335h-520l-121 -335h-293zM534 590h385l-191 574zM827 1858h301l-297 -291h-210z" />
    <glyph glyph-name="Abreve" unicode="&#x102;" horiz-adv-x="1453" 
d="M55 0l518 1446h308l517 -1446h-291l-118 335h-520l-121 -335h-293zM534 590h385l-191 574zM1078 1822q-17 -84 -68 -140.5t-124.5 -85.5t-158.5 -29q-84 0 -157.5 28.5t-124.5 85.5t-68 141h184q15 -50 58 -81.5t108 -31.5q64 0 107.5 31.5t60.5 81.5h183z" />
    <glyph glyph-name="uni1EAE" unicode="&#x1eae;" horiz-adv-x="1453" 
d="M55 0l518 1446h308l517 -1446h-291l-118 335h-520l-121 -335h-293zM534 590h385l-191 574zM1079 1822q-17 -84 -68 -140.5t-124.5 -85.5t-158.5 -29q-84 0 -157.5 28.5t-124.5 85.5t-68 141h184q15 -50 58 -81.5t108 -31.5q64 0 107.5 31.5t60.5 81.5h183zM801 2141h225
l-225 -261h-152z" />
    <glyph glyph-name="uni1EB6" unicode="&#x1eb6;" horiz-adv-x="1453" 
d="M55 0l518 1446h308l517 -1446h-291l-118 335h-520l-121 -335h-293zM534 590h385l-191 574zM588 -398v238h279v-238h-279zM1078 1822q-17 -84 -68 -140.5t-124.5 -85.5t-158.5 -29q-84 0 -157.5 28.5t-124.5 85.5t-68 141h184q15 -50 58 -81.5t108 -31.5q64 0 107.5 31.5
t60.5 81.5h183z" />
    <glyph glyph-name="uni1EB0" unicode="&#x1eb0;" horiz-adv-x="1453" 
d="M55 0l518 1446h308l517 -1446h-291l-118 335h-520l-121 -335h-293zM534 590h385l-191 574zM1079 1822q-17 -84 -68 -140.5t-124.5 -85.5t-158.5 -29q-84 0 -157.5 28.5t-124.5 85.5t-68 141h184q15 -50 58 -81.5t108 -31.5q64 0 107.5 31.5t60.5 81.5h183zM661 2141
l157 -261h-156l-227 261h226z" />
    <glyph glyph-name="uni1EB2" unicode="&#x1eb2;" horiz-adv-x="1453" 
d="M55 0l518 1446h308l517 -1446h-291l-118 335h-520l-121 -335h-293zM534 590h385l-191 574zM1079 1822q-17 -84 -68 -140.5t-124.5 -85.5t-158.5 -29q-84 0 -157.5 28.5t-124.5 85.5t-68 141h184q15 -50 58 -81.5t108 -31.5q64 0 107.5 31.5t60.5 81.5h183zM602 2192
l68 -106q36 24 75 22t57 -32q21 -33 7.5 -66.5t-53.5 -58.5l69 -108q102 60 124.5 141.5t-32.5 166.5q-45 71 -134.5 85.5t-180.5 -44.5z" />
    <glyph glyph-name="uni1EB4" unicode="&#x1eb4;" horiz-adv-x="1453" 
d="M55 0l518 1446h308l517 -1446h-291l-118 335h-520l-121 -335h-293zM534 590h385l-191 574zM1079 1822q-17 -84 -68 -140.5t-124.5 -85.5t-158.5 -29q-84 0 -157.5 28.5t-124.5 85.5t-68 141h184q15 -50 58 -81.5t108 -31.5q64 0 107.5 31.5t60.5 81.5h183zM1070 1997
q-31 -25 -83 -47.5t-119 -22.5q-56 0 -101.5 14t-89.5 27.5t-95 13.5t-84.5 -15.5t-72.5 -48.5l-45 153q36 37 80 64t112 27q56 0 106.5 -15t97 -30.5t91.5 -15.5q53 0 94 22.5t73 46.5z" />
    <glyph glyph-name="Acircumflex" unicode="&#xc2;" horiz-adv-x="1453" 
d="M55 0l518 1446h308l517 -1446h-291l-118 335h-520l-121 -335h-293zM534 590h385l-191 574zM856 1567l-132 140l-146 -140h-217l264 259h202l257 -259h-228z" />
    <glyph glyph-name="uni1EA4" unicode="&#x1ea4;" horiz-adv-x="1453" 
d="M55 0l518 1446h308l517 -1446h-291l-118 335h-520l-121 -335h-293zM534 590h385l-191 574zM858 1567l-132 140l-146 -140h-217l264 259h202l257 -259h-228zM1106 2071h225l-225 -261h-152z" />
    <glyph glyph-name="uni1EAC" unicode="&#x1eac;" horiz-adv-x="1453" 
d="M55 0l518 1446h308l517 -1446h-291l-118 335h-520l-121 -335h-293zM534 590h385l-191 574zM588 -398v238h279v-238h-279zM858 1567l-132 140l-146 -140h-217l264 259h202l257 -259h-228z" />
    <glyph glyph-name="uni1EA6" unicode="&#x1ea6;" horiz-adv-x="1453" 
d="M55 0l518 1446h308l517 -1446h-291l-118 335h-520l-121 -335h-293zM534 590h385l-191 574zM858 1567l-132 140l-146 -140h-217l264 259h202l257 -259h-228zM1040 2071l157 -261h-156l-227 261h226z" />
    <glyph glyph-name="uni1EA8" unicode="&#x1ea8;" horiz-adv-x="1453" 
d="M55 0l518 1446h308l517 -1446h-291l-118 335h-520l-121 -335h-293zM534 590h385l-191 574zM864 1567l-132 140l-146 -140h-217l264 259h202l257 -259h-228zM802 2115l68 -106q36 24 75 22t57 -32q21 -33 7.5 -66.5t-53.5 -58.5l69 -108q102 60 124.5 141.5t-32.5 166.5
q-45 71 -134.5 85.5t-180.5 -44.5z" />
    <glyph glyph-name="uni1EAA" unicode="&#x1eaa;" horiz-adv-x="1453" 
d="M55 0l518 1446h308l517 -1446h-291l-118 335h-520l-121 -335h-293zM534 590h385l-191 574zM860 1567l-132 140l-146 -140h-217l264 259h202l257 -259h-228zM1071 1998q-31 -25 -83 -47.5t-119 -22.5q-56 0 -101.5 14t-89.5 27.5t-95 13.5t-84.5 -15.5t-72.5 -48.5
l-45 153q36 37 80 64t112 27q56 0 106.5 -15t97 -30.5t91.5 -15.5q53 0 94 22.5t73 46.5z" />
    <glyph glyph-name="uni0200" unicode="&#x200;" horiz-adv-x="1453" 
d="M55 0l518 1446h308l517 -1446h-291l-118 335h-520l-121 -335h-293zM534 590h385l-191 574zM804 1858l201 -291h-211l-257 291h267zM405 1858l247 -291h-210l-312 291h275z" />
    <glyph glyph-name="Adieresis" unicode="&#xc4;" horiz-adv-x="1453" 
d="M55 0l518 1446h308l517 -1446h-291l-118 335h-520l-121 -335h-293zM534 590h385l-191 574zM822 1596l3 238h273l-2 -238h-274zM356 1596l3 238h273l-2 -238h-274z" />
    <glyph glyph-name="uni1EA0" unicode="&#x1ea0;" horiz-adv-x="1453" 
d="M55 0l518 1446h308l517 -1446h-291l-118 335h-520l-121 -335h-293zM534 590h385l-191 574zM588 -398v238h279v-238h-279z" />
    <glyph glyph-name="Agrave" unicode="&#xc0;" horiz-adv-x="1453" 
d="M55 0l518 1446h308l517 -1446h-291l-118 335h-520l-121 -335h-293zM534 590h385l-191 574zM621 1858h-301l297 -291h210z" />
    <glyph glyph-name="uni1EA2" unicode="&#x1ea2;" horiz-adv-x="1453" 
d="M55 0l518 1446h308l517 -1446h-291l-118 335h-520l-121 -335h-293zM534 590h385l-191 574zM587 1915l68 -106q36 24 75 22t57 -32q21 -33 7.5 -66.5t-53.5 -58.5l69 -108q102 60 124.5 141.5t-32.5 166.5q-45 71 -134.5 85.5t-180.5 -44.5z" />
    <glyph glyph-name="uni0202" unicode="&#x202;" horiz-adv-x="1453" 
d="M55 0l518 1446h308l517 -1446h-291l-118 335h-520l-121 -335h-293zM534 590h385l-191 574zM1075 1592q-17 84 -68 140.5t-124.5 85.5t-158.5 29q-84 0 -157.5 -28.5t-124.5 -85.5t-68 -141h184q15 50 58 81.5t108 31.5q64 0 107.5 -31.5t60.5 -81.5h183z" />
    <glyph glyph-name="Amacron" unicode="&#x100;" horiz-adv-x="1453" 
d="M55 0l518 1446h308l517 -1446h-291l-118 335h-520l-121 -335h-293zM534 590h385l-191 574zM1079 1804v-187h-703v187h703z" />
    <glyph glyph-name="Aogonek" unicode="&#x104;" horiz-adv-x="1453" 
d="M55 0l518 1446h308l517 -1446h-291l-118 335h-520l-121 -335h-293zM534 590h385l-191 574zM1003 -179q0 55 37.5 101.5t154.5 85.5l204 -5q-106 -39 -145.5 -72t-39.5 -74q0 -32 17 -48t55 -16q46 0 81 13.5t64 30.5v-132q-28 -17 -85.5 -32.5t-125.5 -15.5
q-102 0 -159.5 42t-57.5 122z" />
    <glyph glyph-name="Aring" unicode="&#xc5;" horiz-adv-x="1453" 
d="M55 0l518 1446h308l517 -1446h-291l-118 335h-520l-121 -335h-293zM534 590h385l-191 574zM945 1764q0 -91 -63.5 -154t-154.5 -63t-154 64t-63 157q0 88 64 149t153 61q60 0 109.5 -28.5t79 -77t29.5 -108.5zM824 1763q0 43 -28.5 71t-70.5 28q-41 0 -71.5 -28
t-30.5 -71q0 -40 30.5 -71t71.5 -31q42 0 70.5 31t28.5 71z" />
    <glyph glyph-name="Aringacute" unicode="&#x1fa;" horiz-adv-x="1453" 
d="M55 0l518 1446h308l517 -1446h-291l-118 335h-520l-121 -335h-293zM534 590h385l-191 574zM727 1357q-88 0 -148 57t-60 146q0 84 61 139.5t147 55.5q87 0 147.5 -56.5t60.5 -142.5q0 -88 -60.5 -143.5t-147.5 -55.5zM725 1452q41 0 70.5 31t29.5 71q0 43 -29.5 71
t-70.5 28q-40 0 -71 -28t-31 -71q0 -40 31 -71t71 -31zM659 1706l41 174h171l-73 -174h-139z" />
    <glyph glyph-name="Atilde" unicode="&#xc3;" horiz-adv-x="1453" 
d="M55 0l518 1446h308l517 -1446h-291l-118 335h-520l-121 -335h-293zM534 590h385l-191 574zM1077 1682q-31 -25 -83 -47.5t-119 -22.5q-56 0 -101.5 14t-89.5 27.5t-95 13.5t-84.5 -15.5t-72.5 -48.5l-45 153q36 37 80 64t112 27q56 0 106.5 -15t97 -30.5t91.5 -15.5
q53 0 94 22.5t73 46.5z" />
    <glyph glyph-name="AE" unicode="&#xc6;" horiz-adv-x="2080" 
d="M1976 244v-244h-1039v338h-466l-178 -338h-293l774 1446h1181l-1 -243h-685v-355h593v-240h-593v-364h707zM937 590v665l-356 -665h356z" />
    <glyph glyph-name="AEacute" unicode="&#x1fc;" horiz-adv-x="2080" 
d="M1976 244v-244h-1039v338h-466l-178 -338h-293l774 1446h1181l-1 -243h-685v-355h593v-240h-593v-364h707zM937 590v665l-356 -665h356zM1436 1858h301l-297 -291h-210z" />
    <glyph glyph-name="B" unicode="B" horiz-adv-x="1369" 
d="M162 0v1446h524q284 0 421.5 -97.5t137.5 -281.5q0 -108 -55 -187.5t-196 -138.5q91 -23 147 -62t86 -86.5t41 -99t11 -101.5q0 -200 -136 -296t-433 -96h-548zM453 226h263q132 0 199.5 53t67.5 142q0 64 -33 107.5t-89.5 65.5t-128.5 22h-279v-390zM453 848h279
q45 0 86.5 10.5t74 32.5t51.5 56.5t19 81.5q0 94 -70.5 142.5t-180.5 48.5h-259v-372z" />
    <glyph glyph-name="C" unicode="C" horiz-adv-x="1436" 
d="M751 1466q163 0 290.5 -65.5t206 -178.5t92.5 -255h-306q-14 75 -51 133.5t-97 92t-144 33.5q-101 0 -174 -49t-112 -158t-39 -288q0 -270 86.5 -390.5t238.5 -120.5q84 0 144 38.5t97 102t51 139.5h306q-13 -103 -50 -196.5t-105 -166.5t-175 -115t-259 -42
q-202 0 -349 94t-226.5 264t-79.5 397q0 228 79 391.5t226 251.5t350 88z" />
    <glyph glyph-name="Cacute" unicode="&#x106;" horiz-adv-x="1436" 
d="M751 1466q163 0 290.5 -65.5t206 -178.5t92.5 -255h-306q-14 75 -51 133.5t-97 92t-144 33.5q-101 0 -174 -49t-112 -158t-39 -288q0 -270 86.5 -390.5t238.5 -120.5q84 0 144 38.5t97 102t51 139.5h306q-13 -103 -50 -196.5t-105 -166.5t-175 -115t-259 -42
q-202 0 -349 94t-226.5 264t-79.5 397q0 228 79 391.5t226 251.5t350 88zM848 1858h301l-297 -291h-210z" />
    <glyph glyph-name="Ccaron" unicode="&#x10c;" horiz-adv-x="1436" 
d="M751 1466q163 0 290.5 -65.5t206 -178.5t92.5 -255h-306q-14 75 -51 133.5t-97 92t-144 33.5q-101 0 -174 -49t-112 -158t-39 -288q0 -270 86.5 -390.5t238.5 -120.5q84 0 144 38.5t97 102t51 139.5h306q-13 -103 -50 -196.5t-105 -166.5t-175 -115t-259 -42
q-202 0 -349 94t-226.5 264t-79.5 397q0 228 79 391.5t226 251.5t350 88zM647 1567l-263 261h217l146 -150l132 150h228l-257 -261h-203z" />
    <glyph glyph-name="Ccedilla" unicode="&#xc7;" horiz-adv-x="1436" 
d="M751 1466q163 0 290.5 -65.5t206 -178.5t92.5 -255h-306q-14 75 -51 133.5t-97 92t-144 33.5q-101 0 -174 -49t-112 -158t-39 -288q0 -270 86.5 -390.5t238.5 -120.5q84 0 144 38.5t97 102t51 139.5h306q-13 -103 -50 -196.5t-105 -166.5t-175 -115t-259 -42
q-202 0 -349 94t-226.5 264t-79.5 397q0 228 79 391.5t226 251.5t350 88zM983 -263q0 -51 -33 -87.5t-87.5 -55.5t-118.5 -19q-63 0 -121.5 12t-108.5 42l40 98q31 -19 70.5 -34t83.5 -15q48 0 74 16.5t26 45.5q0 39 -38 60t-132 22q-12 0 -16.5 3.5t0.5 15.5l73 169h130
l-45 -117q76 -2 120 -26t63.5 -59.5t19.5 -70.5z" />
    <glyph glyph-name="Ccircumflex" unicode="&#x108;" horiz-adv-x="1436" 
d="M751 1466q163 0 290.5 -65.5t206 -178.5t92.5 -255h-306q-14 75 -51 133.5t-97 92t-144 33.5q-101 0 -174 -49t-112 -158t-39 -288q0 -270 86.5 -390.5t238.5 -120.5q84 0 144 38.5t97 102t51 139.5h306q-13 -103 -50 -196.5t-105 -166.5t-175 -115t-259 -42
q-202 0 -349 94t-226.5 264t-79.5 397q0 228 79 391.5t226 251.5t350 88zM879 1567l-132 140l-146 -140h-217l264 259h202l257 -259h-228z" />
    <glyph glyph-name="Cdotaccent" unicode="&#x10a;" horiz-adv-x="1436" 
d="M751 1466q163 0 290.5 -65.5t206 -178.5t92.5 -255h-306q-14 75 -51 133.5t-97 92t-144 33.5q-101 0 -174 -49t-112 -158t-39 -288q0 -270 86.5 -390.5t238.5 -120.5q84 0 144 38.5t97 102t51 139.5h306q-13 -103 -50 -196.5t-105 -166.5t-175 -115t-259 -42
q-202 0 -349 94t-226.5 264t-79.5 397q0 228 79 391.5t226 251.5t350 88zM608 1596v238h279v-238h-279z" />
    <glyph glyph-name="D" unicode="D" horiz-adv-x="1440" 
d="M162 1446h61.5h119t137 -0.5t114.5 -1.5q263 -6 429 -94t243.5 -246t77.5 -374q0 -225 -82 -388.5t-250.5 -252.5t-427.5 -89h-422v1446zM456 1210v-974h134q124 0 225.5 48t162.5 157t61 291q0 169 -54 274.5t-154 154.5t-237 49h-138z" />
    <glyph glyph-name="Eth" unicode="&#xd0;" horiz-adv-x="1498" 
d="M804 825v-213h-734v213h734zM219 1446h62.5h119t137 -0.5t114.5 -1.5q263 -6 428.5 -94t243.5 -246t78 -374q0 -225 -82 -388.5t-250.5 -252.5t-427.5 -89h-423v1446zM514 1210v-974h134q124 0 225.5 48t162 157t60.5 291q0 169 -53.5 274.5t-153.5 154.5t-237 49h-138z
" />
    <glyph glyph-name="Dcaron" unicode="&#x10e;" horiz-adv-x="1440" 
d="M162 1446h61.5h119t137 -0.5t114.5 -1.5q263 -6 429 -94t243.5 -246t77.5 -374q0 -225 -82 -388.5t-250.5 -252.5t-427.5 -89h-422v1446zM456 1210v-974h134q124 0 225.5 48t162.5 157t61 291q0 169 -54 274.5t-154 154.5t-237 49h-138zM613 1567l-263 261h217l146 -150
l132 150h228l-257 -261h-203z" />
    <glyph glyph-name="Dcroat" unicode="&#x110;" horiz-adv-x="1498" 
d="M804 825v-213h-734v213h734zM219 1446h62.5h119t137 -0.5t114.5 -1.5q263 -6 428.5 -94t243.5 -246t78 -374q0 -225 -82 -388.5t-250.5 -252.5t-427.5 -89h-423v1446zM514 1210v-974h134q124 0 225.5 48t162 157t60.5 291q0 169 -53.5 274.5t-153.5 154.5t-237 49h-138z
" />
    <glyph glyph-name="uni1E0C" unicode="&#x1e0c;" horiz-adv-x="1440" 
d="M162 1446h61.5h119t137 -0.5t114.5 -1.5q263 -6 429 -94t243.5 -246t77.5 -374q0 -225 -82 -388.5t-250.5 -252.5t-427.5 -89h-422v1446zM456 1210v-974h134q124 0 225.5 48t162.5 157t61 291q0 169 -54 274.5t-154 154.5t-237 49h-138zM569 -398v238h279v-238h-279z" />
    <glyph glyph-name="E" unicode="E" horiz-adv-x="1269" 
d="M162 0v1446h993l-1 -246h-699v-351h607v-241h-609v-359l712 -1v-248h-1003z" />
    <glyph glyph-name="Eacute" unicode="&#xc9;" horiz-adv-x="1269" 
d="M162 0v1446h993l-1 -246h-699v-351h607v-241h-609v-359l712 -1v-248h-1003zM760 1858h301l-297 -291h-210z" />
    <glyph glyph-name="Ebreve" unicode="&#x114;" horiz-adv-x="1269" 
d="M162 0v1446h993l-1 -246h-699v-351h607v-241h-609v-359l712 -1v-248h-1003zM1010 1822q-17 -84 -68 -140.5t-124.5 -85.5t-158.5 -29q-84 0 -157.5 28.5t-124.5 85.5t-68 141h184q15 -50 58 -81.5t108 -31.5q64 0 107.5 31.5t60.5 81.5h183z" />
    <glyph glyph-name="Ecaron" unicode="&#x11a;" horiz-adv-x="1269" 
d="M162 0v1446h993l-1 -246h-699v-351h607v-241h-609v-359l712 -1v-248h-1003zM559 1567l-263 261h217l146 -150l132 150h228l-257 -261h-203z" />
    <glyph glyph-name="Ecircumflex" unicode="&#xca;" horiz-adv-x="1269" 
d="M162 0v1446h993l-1 -246h-699v-351h607v-241h-609v-359l712 -1v-248h-1003zM791 1567l-132 140l-146 -140h-217l264 259h202l257 -259h-228z" />
    <glyph glyph-name="uni1EBE" unicode="&#x1ebe;" horiz-adv-x="1269" 
d="M162 0v1446h993l-1 -246h-699v-351h607v-241h-609v-359l712 -1v-248h-1003zM791 1567l-132 140l-146 -140h-217l264 259h202l257 -259h-228zM1039 2071h225l-225 -261h-152z" />
    <glyph glyph-name="uni1EC6" unicode="&#x1ec6;" horiz-adv-x="1269" 
d="M162 0v1446h993l-1 -246h-699v-351h607v-241h-609v-359l712 -1v-248h-1003zM538 -398v238h279v-238h-279zM791 1567l-132 140l-146 -140h-217l264 259h202l257 -259h-228z" />
    <glyph glyph-name="uni1EC0" unicode="&#x1ec0;" horiz-adv-x="1269" 
d="M162 0v1446h993l-1 -246h-699v-351h607v-241h-609v-359l712 -1v-248h-1003zM791 1567l-132 140l-146 -140h-217l264 259h202l257 -259h-228zM973 2071l157 -261h-156l-227 261h226z" />
    <glyph glyph-name="uni1EC2" unicode="&#x1ec2;" horiz-adv-x="1269" 
d="M162 0v1446h993l-1 -246h-699v-351h607v-241h-609v-359l712 -1v-248h-1003zM797 1567l-132 140l-146 -140h-217l264 259h202l257 -259h-228zM735 2115l68 -106q36 24 75 22t57 -32q21 -33 7.5 -66.5t-53.5 -58.5l69 -108q102 60 124.5 141.5t-32.5 166.5
q-45 71 -134.5 85.5t-180.5 -44.5z" />
    <glyph glyph-name="uni1EC4" unicode="&#x1ec4;" horiz-adv-x="1269" 
d="M162 0v1446h993l-1 -246h-699v-351h607v-241h-609v-359l712 -1v-248h-1003zM793 1567l-132 140l-146 -140h-217l264 259h202l257 -259h-228zM1004 1998q-31 -25 -83 -47.5t-119 -22.5q-56 0 -101.5 14t-89.5 27.5t-95 13.5t-84.5 -15.5t-72.5 -48.5l-45 153q36 37 80 64
t112 27q56 0 106.5 -15t97 -30.5t91.5 -15.5q53 0 94 22.5t73 46.5z" />
    <glyph glyph-name="uni0204" unicode="&#x204;" horiz-adv-x="1269" 
d="M162 0v1446h993l-1 -246h-699v-351h607v-241h-609v-359l712 -1v-248h-1003zM737 1858l201 -291h-211l-257 291h267zM338 1858l247 -291h-210l-312 291h275z" />
    <glyph glyph-name="Edieresis" unicode="&#xcb;" horiz-adv-x="1269" 
d="M162 0v1446h993l-1 -246h-699v-351h607v-241h-609v-359l712 -1v-248h-1003zM755 1596l3 238h273l-2 -238h-274zM289 1596l3 238h273l-2 -238h-274z" />
    <glyph glyph-name="Edotaccent" unicode="&#x116;" horiz-adv-x="1269" 
d="M162 0v1446h993l-1 -246h-699v-351h607v-241h-609v-359l712 -1v-248h-1003zM520 1596v238h279v-238h-279z" />
    <glyph glyph-name="uni1EB8" unicode="&#x1eb8;" horiz-adv-x="1269" 
d="M162 0v1446h993l-1 -246h-699v-351h607v-241h-609v-359l712 -1v-248h-1003zM538 -398v238h279v-238h-279z" />
    <glyph glyph-name="Egrave" unicode="&#xc8;" horiz-adv-x="1269" 
d="M162 0v1446h993l-1 -246h-699v-351h607v-241h-609v-359l712 -1v-248h-1003zM554 1858h-301l297 -291h210z" />
    <glyph glyph-name="uni1EBA" unicode="&#x1eba;" horiz-adv-x="1269" 
d="M162 0v1446h993l-1 -246h-699v-351h607v-241h-609v-359l712 -1v-248h-1003zM520 1915l68 -106q36 24 75 22t57 -32q21 -33 7.5 -66.5t-53.5 -58.5l69 -108q102 60 124.5 141.5t-32.5 166.5q-45 71 -134.5 85.5t-180.5 -44.5z" />
    <glyph glyph-name="uni0206" unicode="&#x206;" horiz-adv-x="1269" 
d="M162 0v1446h993l-1 -246h-699v-351h607v-241h-609v-359l712 -1v-248h-1003zM1008 1592q-17 84 -68 140.5t-124.5 85.5t-158.5 29q-84 0 -157.5 -28.5t-124.5 -85.5t-68 -141h184q15 50 58 81.5t108 31.5q64 0 107.5 -31.5t60.5 -81.5h183z" />
    <glyph glyph-name="Emacron" unicode="&#x112;" horiz-adv-x="1269" 
d="M162 0v1446h993l-1 -246h-699v-351h607v-241h-609v-359l712 -1v-248h-1003zM1012 1804v-187h-703v187h703z" />
    <glyph glyph-name="Eogonek" unicode="&#x118;" horiz-adv-x="1269" 
d="M162 0v1446h993l-1 -246h-699v-351h607v-241h-609v-359l712 -1v-248h-1003zM799 -173q0 55 37.5 101.5t154.5 85.5l204 -5q-106 -39 -145.5 -72t-39.5 -74q0 -32 17 -48t55 -16q46 0 81 13.5t64 30.5v-132q-28 -17 -85.5 -32.5t-125.5 -15.5q-102 0 -159.5 42t-57.5 122z
" />
    <glyph glyph-name="uni1EBC" unicode="&#x1ebc;" horiz-adv-x="1269" 
d="M162 0v1446h993l-1 -246h-699v-351h607v-241h-609v-359l712 -1v-248h-1003zM1010 1682q-31 -25 -83 -47.5t-119 -22.5q-56 0 -101.5 14t-89.5 27.5t-95 13.5t-84.5 -15.5t-72.5 -48.5l-45 153q36 37 80 64t112 27q56 0 106.5 -15t97 -30.5t91.5 -15.5q53 0 94 22.5
t73 46.5z" />
    <glyph glyph-name="F" unicode="F" horiz-adv-x="1227" 
d="M162 1446h984l-1 -244h-689v-363h597v-239h-597v-600h-294v1446z" />
    <glyph glyph-name="G" unicode="G" horiz-adv-x="1518" 
d="M747 -20q-199 0 -345.5 90.5t-226 256.5t-79.5 392q0 230 83.5 397.5t233.5 258.5t350 91q129 0 235 -41t184.5 -112t123 -160.5t48.5 -185.5h-308q-13 69 -51.5 126t-98.5 91.5t-140 34.5q-96 0 -174 -49.5t-123 -157.5t-45 -285q0 -143 29.5 -238t79.5 -150.5
t114 -78.5t131 -23q64 0 114.5 21.5t86.5 55.5t57 74.5t27 79.5l11 88h-299v202l605 -3v-755h-199v189q-37 -49 -91.5 -97.5t-135 -80t-197.5 -31.5z" />
    <glyph glyph-name="Gbreve" unicode="&#x11e;" horiz-adv-x="1518" 
d="M747 -20q-199 0 -345.5 90.5t-226 256.5t-79.5 392q0 230 83.5 397.5t233.5 258.5t350 91q129 0 235 -41t184.5 -112t123 -160.5t48.5 -185.5h-308q-13 69 -51.5 126t-98.5 91.5t-140 34.5q-96 0 -174 -49.5t-123 -157.5t-45 -285q0 -143 29.5 -238t79.5 -150.5
t114 -78.5t131 -23q64 0 114.5 21.5t86.5 55.5t57 74.5t27 79.5l11 88h-299v202l605 -3v-755h-199v189q-37 -49 -91.5 -97.5t-135 -80t-197.5 -31.5zM1106 1822q-17 -84 -68 -140.5t-124.5 -85.5t-158.5 -29q-84 0 -157.5 28.5t-124.5 85.5t-68 141h184q15 -50 58 -81.5
t108 -31.5q64 0 107.5 31.5t60.5 81.5h183z" />
    <glyph glyph-name="Gcircumflex" unicode="&#x11c;" horiz-adv-x="1518" 
d="M747 -20q-199 0 -345.5 90.5t-226 256.5t-79.5 392q0 230 83.5 397.5t233.5 258.5t350 91q129 0 235 -41t184.5 -112t123 -160.5t48.5 -185.5h-308q-13 69 -51.5 126t-98.5 91.5t-140 34.5q-96 0 -174 -49.5t-123 -157.5t-45 -285q0 -143 29.5 -238t79.5 -150.5
t114 -78.5t131 -23q64 0 114.5 21.5t86.5 55.5t57 74.5t27 79.5l11 88h-299v202l605 -3v-755h-199v189q-37 -49 -91.5 -97.5t-135 -80t-197.5 -31.5zM886 1567l-132 140l-146 -140h-217l264 259h202l257 -259h-228z" />
    <glyph glyph-name="uni0122" unicode="&#x122;" horiz-adv-x="1518" 
d="M747 -20q-199 0 -345.5 90.5t-226 256.5t-79.5 392q0 230 83.5 397.5t233.5 258.5t350 91q129 0 235 -41t184.5 -112t123 -160.5t48.5 -185.5h-308q-13 69 -51.5 126t-98.5 91.5t-140 34.5q-96 0 -174 -49.5t-123 -157.5t-45 -285q0 -143 29.5 -238t79.5 -150.5
t114 -78.5t131 -23q64 0 114.5 21.5t86.5 55.5t57 74.5t27 79.5l11 88h-299v202l605 -3v-755h-199v189q-37 -49 -91.5 -97.5t-135 -80t-197.5 -31.5zM613 -440l92 149l-80 10v187h248v-156l-156 -190h-104z" />
    <glyph glyph-name="Gdotaccent" unicode="&#x120;" horiz-adv-x="1518" 
d="M747 -20q-199 0 -345.5 90.5t-226 256.5t-79.5 392q0 230 83.5 397.5t233.5 258.5t350 91q129 0 235 -41t184.5 -112t123 -160.5t48.5 -185.5h-308q-13 69 -51.5 126t-98.5 91.5t-140 34.5q-96 0 -174 -49.5t-123 -157.5t-45 -285q0 -143 29.5 -238t79.5 -150.5
t114 -78.5t131 -23q64 0 114.5 21.5t86.5 55.5t57 74.5t27 79.5l11 88h-299v202l605 -3v-755h-199v189q-37 -49 -91.5 -97.5t-135 -80t-197.5 -31.5zM615 1596v238h279v-238h-279z" />
    <glyph glyph-name="H" unicode="H" horiz-adv-x="1540" 
d="M1086 621h-633v-621h-291v1446h291v-580h633v580h292v-1446h-292v621z" />
    <glyph glyph-name="Hbar" unicode="&#x126;" horiz-adv-x="1649" 
d="M1615 1260v-164h-1581v164h1581zM1149 621h-633v-621h-292v1446h292v-580h633v580h292v-1446h-292v621z" />
    <glyph glyph-name="Hcircumflex" unicode="&#x124;" horiz-adv-x="1540" 
d="M1086 621h-633v-621h-291v1446h291v-580h633v580h292v-1446h-292v621zM901 1571l-132 140l-146 -140h-217l264 259h202l257 -259h-228z" />
    <glyph glyph-name="uni1E24" unicode="&#x1e24;" horiz-adv-x="1540" 
d="M1086 621h-633v-621h-291v1446h291v-580h633v580h292v-1446h-292v621zM639 -398v238h279v-238h-279z" />
    <glyph glyph-name="I" unicode="I" horiz-adv-x="615" 
d="M162 1446h291v-1446h-291v1446z" />
    <glyph glyph-name="Iacute" unicode="&#xcd;" horiz-adv-x="615" 
d="M162 1446h291v-1446h-291v1446zM409 1858h301l-297 -291h-210z" />
    <glyph glyph-name="Ibreve" unicode="&#x12c;" horiz-adv-x="615" 
d="M162 1446h291v-1446h-291v1446zM659 1822q-17 -84 -68 -140.5t-124.5 -85.5t-158.5 -29q-84 0 -157.5 28.5t-124.5 85.5t-68 141h184q15 -50 58 -81.5t108 -31.5q64 0 107.5 31.5t60.5 81.5h183z" />
    <glyph glyph-name="Icircumflex" unicode="&#xce;" horiz-adv-x="615" 
d="M162 1446h291v-1446h-291v1446zM439 1567l-132 140l-146 -140h-217l264 259h202l257 -259h-228z" />
    <glyph glyph-name="uni0208" unicode="&#x208;" horiz-adv-x="615" 
d="M162 1446h291v-1446h-291v1446zM386 1858l201 -291h-211l-257 291h267zM-13 1858l247 -291h-210l-312 291h275z" />
    <glyph glyph-name="Idieresis" unicode="&#xcf;" horiz-adv-x="615" 
d="M162 1446h291v-1446h-291v1446zM404 1596l3 238h273l-2 -238h-274zM-62 1596l3 238h273l-2 -238h-274z" />
    <glyph glyph-name="Idotaccent" unicode="&#x130;" horiz-adv-x="615" 
d="M162 1446h291v-1446h-291v1446zM169 1596v238h279v-238h-279z" />
    <glyph glyph-name="uni1ECA" unicode="&#x1eca;" horiz-adv-x="615" 
d="M162 1446h291v-1446h-291v1446zM184 -398v238h279v-238h-279z" />
    <glyph glyph-name="Igrave" unicode="&#xcc;" horiz-adv-x="615" 
d="M162 1446h291v-1446h-291v1446zM202 1858h-301l297 -291h210z" />
    <glyph glyph-name="uni1EC8" unicode="&#x1ec8;" horiz-adv-x="615" 
d="M162 1446h291v-1446h-291v1446zM168 1915l68 -106q36 24 75 22t57 -32q21 -33 7.5 -66.5t-53.5 -58.5l69 -108q102 60 124.5 141.5t-32.5 166.5q-45 71 -134.5 85.5t-180.5 -44.5z" />
    <glyph glyph-name="uni020A" unicode="&#x20a;" horiz-adv-x="615" 
d="M162 1446h291v-1446h-291v1446zM657 1592q-17 84 -68 140.5t-124.5 85.5t-158.5 29q-84 0 -157.5 -28.5t-124.5 -85.5t-68 -141h184q15 50 58 81.5t108 31.5q64 0 107.5 -31.5t60.5 -81.5h183z" />
    <glyph glyph-name="Imacron" unicode="&#x12a;" horiz-adv-x="615" 
d="M162 1446h291v-1446h-291v1446zM660 1804v-187h-703v187h703z" />
    <glyph glyph-name="Iogonek" unicode="&#x12e;" horiz-adv-x="615" 
d="M162 1446h291v-1446h-291v1446zM56 -183q0 55 37.5 101.5t154.5 85.5l204 -5q-106 -39 -145.5 -72t-39.5 -74q0 -32 17 -48t55 -16q46 0 81 13.5t64 30.5v-132q-28 -17 -85.5 -32.5t-125.5 -15.5q-102 0 -159.5 42t-57.5 122z" />
    <glyph glyph-name="Itilde" unicode="&#x128;" horiz-adv-x="615" 
d="M162 1446h291v-1446h-291v1446zM659 1682q-31 -25 -83 -47.5t-119 -22.5q-56 0 -101.5 14t-89.5 27.5t-95 13.5t-84.5 -15.5t-72.5 -48.5l-45 153q36 37 80 64t112 27q56 0 106.5 -15t97 -30.5t91.5 -15.5q53 0 94 22.5t73 46.5z" />
    <glyph glyph-name="J" unicode="J" horiz-adv-x="804" 
d="M674 402q0 -138 -30 -232t-110 -142t-230 -48q-69 0 -142 11.5t-107 20.5l6 267q29 -6 66.5 -16t83.5 -10q101 0 136 53.5t35 173.5v966h292v-1044z" />
    <glyph glyph-name="Jcircumflex" unicode="&#x134;" horiz-adv-x="804" 
d="M674 402q0 -138 -30 -232t-110 -142t-230 -48q-69 0 -142 11.5t-107 20.5l6 267q29 -6 66.5 -16t83.5 -10q101 0 136 53.5t35 173.5v966h292v-1044zM652 1567l-132 140l-146 -140h-217l264 259h202l257 -259h-228z" />
    <glyph glyph-name="K" unicode="K" horiz-adv-x="1434" 
d="M1380 0h-318l-383 673l-214 -258v-415h-303v1446h303v-662l527 662h335l-439 -560z" />
    <glyph glyph-name="uni0136" unicode="&#x136;" horiz-adv-x="1434" 
d="M1380 0h-318l-383 673l-214 -258v-415h-303v1446h303v-662l527 662h335l-439 -560zM566 -440l92 149l-80 10v187h248v-156l-156 -190h-104z" />
    <glyph glyph-name="L" unicode="L" horiz-adv-x="1155" 
d="M162 1446h294v-1199h628v-247h-922v1446z" />
    <glyph glyph-name="Lacute" unicode="&#x139;" horiz-adv-x="1155" 
d="M162 1446h294v-1199h628v-247h-922v1446zM404 1858h301l-297 -291h-210z" />
    <glyph glyph-name="Lcaron" unicode="&#x13d;" horiz-adv-x="1155" 
d="M162 1446h294v-1199h628v-247h-922v1446zM863 1014l82 202l-71 12v222h199v-233l-86 -203h-124z" />
    <glyph glyph-name="uni013B" unicode="&#x13b;" horiz-adv-x="1155" 
d="M162 1446h294v-1199h628v-247h-922v1446zM479 -440l92 149l-80 10v187h248v-156l-156 -190h-104z" />
    <glyph glyph-name="Ldot" unicode="&#x13f;" horiz-adv-x="1155" 
d="M162 1446h294v-1199h628v-247h-922v1446zM1075 946v-287h-299v287h299z" />
    <glyph glyph-name="Lslash" unicode="&#x141;" horiz-adv-x="1180" 
d="M799 1016v-231l-780 -217v242zM187 1446h293v-1199h628v-247h-922z" />
    <glyph glyph-name="M" unicode="M" horiz-adv-x="1835" 
d="M162 0v1446h424l331 -1031l334 1031h423v-1446h-295v1106l-348 -1106h-229l-346 1101v-1101h-294z" />
    <glyph glyph-name="N" unicode="N" horiz-adv-x="1564" 
d="M1111 1446h292v-1446h-263l-687 995v-995h-291v1446h289l660 -957v957z" />
    <glyph glyph-name="Nacute" unicode="&#x143;" horiz-adv-x="1564" 
d="M1111 1446h292v-1446h-263l-687 995v-995h-291v1446h289l660 -957v957zM881 1858h301l-297 -291h-210z" />
    <glyph glyph-name="Ncaron" unicode="&#x147;" horiz-adv-x="1564" 
d="M1111 1446h292v-1446h-263l-687 995v-995h-291v1446h289l660 -957v957zM680 1567l-263 261h217l146 -150l132 150h228l-257 -261h-203z" />
    <glyph glyph-name="uni0145" unicode="&#x145;" horiz-adv-x="1564" 
d="M1111 1446h292v-1446h-263l-687 995v-995h-291v1446h289l660 -957v957zM631 -440l92 149l-80 10v187h248v-156l-156 -190h-104z" />
    <glyph glyph-name="uni1E44" unicode="&#x1e44;" horiz-adv-x="1564" 
d="M1111 1446h292v-1446h-263l-687 995v-995h-291v1446h289l660 -957v957zM642 1596v238h279v-238h-279z" />
    <glyph glyph-name="Eng" unicode="&#x14a;" horiz-adv-x="1567" 
d="M1111 1446h292v-1446h-263l-687 995v-995h-291v1446h289l660 -957v957zM1403 -58q0 -138 -30 -232t-110.5 -142t-229.5 -48q-69 0 -142 11.5t-107 20.5l6 267q29 -6 66.5 -16t82.5 -10q101 0 136.5 53.5t35.5 173.5v105h292v-183z" />
    <glyph glyph-name="Ntilde" unicode="&#xd1;" horiz-adv-x="1564" 
d="M1111 1446h292v-1446h-263l-687 995v-995h-291v1446h289l660 -957v957zM1132 1682q-31 -25 -83 -47.5t-119 -22.5q-56 0 -101.5 14t-89.5 27.5t-95 13.5t-84.5 -15.5t-72.5 -48.5l-45 153q36 37 80 64t112 27q56 0 106.5 -15t97 -30.5t91.5 -15.5q53 0 94 22.5t73 46.5z
" />
    <glyph glyph-name="O" unicode="O" horiz-adv-x="1521" 
d="M763 -20q-205 0 -354.5 89.5t-231 255t-81.5 395.5q0 231 82.5 398t232.5 257.5t352 90.5q201 0 350 -90t230.5 -257t81.5 -399q0 -229 -80.5 -395t-229.5 -255.5t-352 -89.5zM763 220q106 0 183.5 50.5t119.5 160t42 285.5q0 181 -42.5 293t-120 164.5t-182.5 52.5
t-183 -52.5t-121 -165t-43 -292.5q0 -177 43 -286t121 -159.5t183 -50.5z" />
    <glyph glyph-name="Oacute" unicode="&#xd3;" horiz-adv-x="1521" 
d="M763 -20q-205 0 -354.5 89.5t-231 255t-81.5 395.5q0 231 82.5 398t232.5 257.5t352 90.5q201 0 350 -90t230.5 -257t81.5 -399q0 -229 -80.5 -395t-229.5 -255.5t-352 -89.5zM763 220q106 0 183.5 50.5t119.5 160t42 285.5q0 181 -42.5 293t-120 164.5t-182.5 52.5
t-183 -52.5t-121 -165t-43 -292.5q0 -177 43 -286t121 -159.5t183 -50.5zM862 1858h301l-297 -291h-210z" />
    <glyph glyph-name="Obreve" unicode="&#x14e;" horiz-adv-x="1521" 
d="M763 -20q-205 0 -354.5 89.5t-231 255t-81.5 395.5q0 231 82.5 398t232.5 257.5t352 90.5q201 0 350 -90t230.5 -257t81.5 -399q0 -229 -80.5 -395t-229.5 -255.5t-352 -89.5zM763 220q106 0 183.5 50.5t119.5 160t42 285.5q0 181 -42.5 293t-120 164.5t-182.5 52.5
t-183 -52.5t-121 -165t-43 -292.5q0 -177 43 -286t121 -159.5t183 -50.5zM1113 1822q-17 -84 -68 -140.5t-124.5 -85.5t-158.5 -29q-84 0 -157.5 28.5t-124.5 85.5t-68 141h184q15 -50 58 -81.5t108 -31.5q64 0 107.5 31.5t60.5 81.5h183z" />
    <glyph glyph-name="Ocircumflex" unicode="&#xd4;" horiz-adv-x="1521" 
d="M763 -20q-205 0 -354.5 89.5t-231 255t-81.5 395.5q0 231 82.5 398t232.5 257.5t352 90.5q201 0 350 -90t230.5 -257t81.5 -399q0 -229 -80.5 -395t-229.5 -255.5t-352 -89.5zM763 220q106 0 183.5 50.5t119.5 160t42 285.5q0 181 -42.5 293t-120 164.5t-182.5 52.5
t-183 -52.5t-121 -165t-43 -292.5q0 -177 43 -286t121 -159.5t183 -50.5zM893 1567l-132 140l-146 -140h-217l264 259h202l257 -259h-228z" />
    <glyph glyph-name="uni1ED0" unicode="&#x1ed0;" horiz-adv-x="1521" 
d="M763 -20q-205 0 -354.5 89.5t-231 255t-81.5 395.5q0 231 82.5 398t232.5 257.5t352 90.5q201 0 350 -90t230.5 -257t81.5 -399q0 -229 -80.5 -395t-229.5 -255.5t-352 -89.5zM763 220q106 0 183.5 50.5t119.5 160t42 285.5q0 181 -42.5 293t-120 164.5t-182.5 52.5
t-183 -52.5t-121 -165t-43 -292.5q0 -177 43 -286t121 -159.5t183 -50.5zM893 1567l-132 140l-146 -140h-217l264 259h202l257 -259h-228zM1141 2071h225l-225 -261h-152z" />
    <glyph glyph-name="uni1ED8" unicode="&#x1ed8;" horiz-adv-x="1521" 
d="M763 -20q-205 0 -354.5 89.5t-231 255t-81.5 395.5q0 231 82.5 398t232.5 257.5t352 90.5q201 0 350 -90t230.5 -257t81.5 -399q0 -229 -80.5 -395t-229.5 -255.5t-352 -89.5zM763 220q106 0 183.5 50.5t119.5 160t42 285.5q0 181 -42.5 293t-120 164.5t-182.5 52.5
t-183 -52.5t-121 -165t-43 -292.5q0 -177 43 -286t121 -159.5t183 -50.5zM626 -398v238h279v-238h-279zM893 1567l-132 140l-146 -140h-217l264 259h202l257 -259h-228z" />
    <glyph glyph-name="uni1ED2" unicode="&#x1ed2;" horiz-adv-x="1521" 
d="M763 -20q-205 0 -354.5 89.5t-231 255t-81.5 395.5q0 231 82.5 398t232.5 257.5t352 90.5q201 0 350 -90t230.5 -257t81.5 -399q0 -229 -80.5 -395t-229.5 -255.5t-352 -89.5zM763 220q106 0 183.5 50.5t119.5 160t42 285.5q0 181 -42.5 293t-120 164.5t-182.5 52.5
t-183 -52.5t-121 -165t-43 -292.5q0 -177 43 -286t121 -159.5t183 -50.5zM893 1567l-132 140l-146 -140h-217l264 259h202l257 -259h-228zM1075 2071l157 -261h-156l-227 261h226z" />
    <glyph glyph-name="uni1ED4" unicode="&#x1ed4;" horiz-adv-x="1521" 
d="M763 -20q-205 0 -354.5 89.5t-231 255t-81.5 395.5q0 231 82.5 398t232.5 257.5t352 90.5q201 0 350 -90t230.5 -257t81.5 -399q0 -229 -80.5 -395t-229.5 -255.5t-352 -89.5zM763 220q106 0 183.5 50.5t119.5 160t42 285.5q0 181 -42.5 293t-120 164.5t-182.5 52.5
t-183 -52.5t-121 -165t-43 -292.5q0 -177 43 -286t121 -159.5t183 -50.5zM900 1567l-132 140l-146 -140h-217l264 259h202l257 -259h-228zM838 2115l68 -106q36 24 75 22t57 -32q21 -33 7.5 -66.5t-53.5 -58.5l69 -108q102 60 124.5 141.5t-32.5 166.5q-45 71 -134.5 85.5
t-180.5 -44.5z" />
    <glyph glyph-name="uni1ED6" unicode="&#x1ed6;" horiz-adv-x="1521" 
d="M763 -20q-205 0 -354.5 89.5t-231 255t-81.5 395.5q0 231 82.5 398t232.5 257.5t352 90.5q201 0 350 -90t230.5 -257t81.5 -399q0 -229 -80.5 -395t-229.5 -255.5t-352 -89.5zM763 220q106 0 183.5 50.5t119.5 160t42 285.5q0 181 -42.5 293t-120 164.5t-182.5 52.5
t-183 -52.5t-121 -165t-43 -292.5q0 -177 43 -286t121 -159.5t183 -50.5zM896 1567l-132 140l-146 -140h-217l264 259h202l257 -259h-228zM1107 1998q-31 -25 -83 -47.5t-119 -22.5q-56 0 -101.5 14t-89.5 27.5t-95 13.5t-84.5 -15.5t-72.5 -48.5l-45 153q36 37 80 64
t112 27q56 0 106.5 -15t97 -30.5t91.5 -15.5q53 0 94 22.5t73 46.5z" />
    <glyph glyph-name="uni020C" unicode="&#x20c;" horiz-adv-x="1521" 
d="M763 -20q-205 0 -354.5 89.5t-231 255t-81.5 395.5q0 231 82.5 398t232.5 257.5t352 90.5q201 0 350 -90t230.5 -257t81.5 -399q0 -229 -80.5 -395t-229.5 -255.5t-352 -89.5zM763 220q106 0 183.5 50.5t119.5 160t42 285.5q0 181 -42.5 293t-120 164.5t-182.5 52.5
t-183 -52.5t-121 -165t-43 -292.5q0 -177 43 -286t121 -159.5t183 -50.5zM840 1858l201 -291h-211l-257 291h267zM441 1858l247 -291h-210l-312 291h275z" />
    <glyph glyph-name="Odieresis" unicode="&#xd6;" horiz-adv-x="1521" 
d="M763 -20q-205 0 -354.5 89.5t-231 255t-81.5 395.5q0 231 82.5 398t232.5 257.5t352 90.5q201 0 350 -90t230.5 -257t81.5 -399q0 -229 -80.5 -395t-229.5 -255.5t-352 -89.5zM763 220q106 0 183.5 50.5t119.5 160t42 285.5q0 181 -42.5 293t-120 164.5t-182.5 52.5
t-183 -52.5t-121 -165t-43 -292.5q0 -177 43 -286t121 -159.5t183 -50.5zM857 1596l3 238h273l-2 -238h-274zM391 1596l3 238h273l-2 -238h-274z" />
    <glyph glyph-name="uni1ECC" unicode="&#x1ecc;" horiz-adv-x="1521" 
d="M763 -20q-205 0 -354.5 89.5t-231 255t-81.5 395.5q0 231 82.5 398t232.5 257.5t352 90.5q201 0 350 -90t230.5 -257t81.5 -399q0 -229 -80.5 -395t-229.5 -255.5t-352 -89.5zM763 220q106 0 183.5 50.5t119.5 160t42 285.5q0 181 -42.5 293t-120 164.5t-182.5 52.5
t-183 -52.5t-121 -165t-43 -292.5q0 -177 43 -286t121 -159.5t183 -50.5zM626 -398v238h279v-238h-279z" />
    <glyph glyph-name="Ograve" unicode="&#xd2;" horiz-adv-x="1521" 
d="M763 -20q-205 0 -354.5 89.5t-231 255t-81.5 395.5q0 231 82.5 398t232.5 257.5t352 90.5q201 0 350 -90t230.5 -257t81.5 -399q0 -229 -80.5 -395t-229.5 -255.5t-352 -89.5zM763 220q106 0 183.5 50.5t119.5 160t42 285.5q0 181 -42.5 293t-120 164.5t-182.5 52.5
t-183 -52.5t-121 -165t-43 -292.5q0 -177 43 -286t121 -159.5t183 -50.5zM656 1858h-301l297 -291h210z" />
    <glyph glyph-name="uni1ECE" unicode="&#x1ece;" horiz-adv-x="1521" 
d="M763 -20q-205 0 -354.5 89.5t-231 255t-81.5 395.5q0 231 82.5 398t232.5 257.5t352 90.5q201 0 350 -90t230.5 -257t81.5 -399q0 -229 -80.5 -395t-229.5 -255.5t-352 -89.5zM763 220q106 0 183.5 50.5t119.5 160t42 285.5q0 181 -42.5 293t-120 164.5t-182.5 52.5
t-183 -52.5t-121 -165t-43 -292.5q0 -177 43 -286t121 -159.5t183 -50.5zM622 1915l68 -106q36 24 75 22t57 -32q21 -33 7.5 -66.5t-53.5 -58.5l69 -108q102 60 124.5 141.5t-32.5 166.5q-45 71 -134.5 85.5t-180.5 -44.5z" />
    <glyph glyph-name="Ohorn" unicode="&#x1a0;" horiz-adv-x="1670" 
d="M763 -20q-205 0 -354.5 89.5t-231 255t-81.5 395.5q0 231 82.5 398t232.5 257.5t352 90.5q201 0 350 -90t230.5 -257t81.5 -399q0 -229 -80.5 -395t-229.5 -255.5t-352 -89.5zM763 220q106 0 183.5 50.5t119.5 160t42 285.5q0 181 -42.5 293t-120 164.5t-182.5 52.5
t-183 -52.5t-121 -165t-43 -292.5q0 -177 43 -286t121 -159.5t183 -50.5zM1615 1486q-1 -142 -36 -225.5t-119 -114.5t-234 -15v144q50 -1 85 3t57.5 23t36 62.5t18.5 122.5h192z" />
    <glyph glyph-name="uni1EDA" unicode="&#x1eda;" horiz-adv-x="1670" 
d="M763 -20q-205 0 -354.5 89.5t-231 255t-81.5 395.5q0 231 82.5 398t232.5 257.5t352 90.5q201 0 350 -90t230.5 -257t81.5 -399q0 -229 -80.5 -395t-229.5 -255.5t-352 -89.5zM763 220q106 0 183.5 50.5t119.5 160t42 285.5q0 181 -42.5 293t-120 164.5t-182.5 52.5
t-183 -52.5t-121 -165t-43 -292.5q0 -177 43 -286t121 -159.5t183 -50.5zM1615 1486q-1 -142 -36 -225.5t-119 -114.5t-234 -15v144q50 -1 85 3t57.5 23t36 62.5t18.5 122.5h192zM862 1858h301l-297 -291h-210z" />
    <glyph glyph-name="uni1EE2" unicode="&#x1ee2;" horiz-adv-x="1670" 
d="M763 -20q-205 0 -354.5 89.5t-231 255t-81.5 395.5q0 231 82.5 398t232.5 257.5t352 90.5q201 0 350 -90t230.5 -257t81.5 -399q0 -229 -80.5 -395t-229.5 -255.5t-352 -89.5zM763 220q106 0 183.5 50.5t119.5 160t42 285.5q0 181 -42.5 293t-120 164.5t-182.5 52.5
t-183 -52.5t-121 -165t-43 -292.5q0 -177 43 -286t121 -159.5t183 -50.5zM1615 1486q-1 -142 -36 -225.5t-119 -114.5t-234 -15v144q50 -1 85 3t57.5 23t36 62.5t18.5 122.5h192zM626 -398v238h279v-238h-279z" />
    <glyph glyph-name="uni1EDC" unicode="&#x1edc;" horiz-adv-x="1670" 
d="M763 -20q-205 0 -354.5 89.5t-231 255t-81.5 395.5q0 231 82.5 398t232.5 257.5t352 90.5q201 0 350 -90t230.5 -257t81.5 -399q0 -229 -80.5 -395t-229.5 -255.5t-352 -89.5zM763 220q106 0 183.5 50.5t119.5 160t42 285.5q0 181 -42.5 293t-120 164.5t-182.5 52.5
t-183 -52.5t-121 -165t-43 -292.5q0 -177 43 -286t121 -159.5t183 -50.5zM1615 1486q-1 -142 -36 -225.5t-119 -114.5t-234 -15v144q50 -1 85 3t57.5 23t36 62.5t18.5 122.5h192zM656 1858h-301l297 -291h210z" />
    <glyph glyph-name="uni1EDE" unicode="&#x1ede;" horiz-adv-x="1670" 
d="M763 -20q-205 0 -354.5 89.5t-231 255t-81.5 395.5q0 231 82.5 398t232.5 257.5t352 90.5q201 0 350 -90t230.5 -257t81.5 -399q0 -229 -80.5 -395t-229.5 -255.5t-352 -89.5zM763 220q106 0 183.5 50.5t119.5 160t42 285.5q0 181 -42.5 293t-120 164.5t-182.5 52.5
t-183 -52.5t-121 -165t-43 -292.5q0 -177 43 -286t121 -159.5t183 -50.5zM1615 1486q-1 -142 -36 -225.5t-119 -114.5t-234 -15v144q50 -1 85 3t57.5 23t36 62.5t18.5 122.5h192zM622 1915l68 -106q36 24 75 22t57 -32q21 -33 7.5 -66.5t-53.5 -58.5l69 -108
q102 60 124.5 141.5t-32.5 166.5q-45 71 -134.5 85.5t-180.5 -44.5z" />
    <glyph glyph-name="uni1EE0" unicode="&#x1ee0;" horiz-adv-x="1670" 
d="M763 -20q-205 0 -354.5 89.5t-231 255t-81.5 395.5q0 231 82.5 398t232.5 257.5t352 90.5q201 0 350 -90t230.5 -257t81.5 -399q0 -229 -80.5 -395t-229.5 -255.5t-352 -89.5zM763 220q106 0 183.5 50.5t119.5 160t42 285.5q0 181 -42.5 293t-120 164.5t-182.5 52.5
t-183 -52.5t-121 -165t-43 -292.5q0 -177 43 -286t121 -159.5t183 -50.5zM1615 1486q-1 -142 -36 -225.5t-119 -114.5t-234 -15v144q50 -1 85 3t57.5 23t36 62.5t18.5 122.5h192zM1112 1682q-31 -25 -83 -47.5t-119 -22.5q-56 0 -101.5 14t-89.5 27.5t-95 13.5t-84.5 -15.5
t-72.5 -48.5l-45 153q36 37 80 64t112 27q56 0 106.5 -15t97 -30.5t91.5 -15.5q53 0 94 22.5t73 46.5z" />
    <glyph glyph-name="Ohungarumlaut" unicode="&#x150;" horiz-adv-x="1521" 
d="M763 -20q-205 0 -354.5 89.5t-231 255t-81.5 395.5q0 231 82.5 398t232.5 257.5t352 90.5q201 0 350 -90t230.5 -257t81.5 -399q0 -229 -80.5 -395t-229.5 -255.5t-352 -89.5zM763 220q106 0 183.5 50.5t119.5 160t42 285.5q0 181 -42.5 293t-120 164.5t-182.5 52.5
t-183 -52.5t-121 -165t-43 -292.5q0 -177 43 -286t121 -159.5t183 -50.5zM682 1858l-201 -291h211l257 291h-267zM1081 1858l-247 -291h210l312 291h-275z" />
    <glyph glyph-name="uni020E" unicode="&#x20e;" horiz-adv-x="1521" 
d="M763 -20q-205 0 -354.5 89.5t-231 255t-81.5 395.5q0 231 82.5 398t232.5 257.5t352 90.5q201 0 350 -90t230.5 -257t81.5 -399q0 -229 -80.5 -395t-229.5 -255.5t-352 -89.5zM763 220q106 0 183.5 50.5t119.5 160t42 285.5q0 181 -42.5 293t-120 164.5t-182.5 52.5
t-183 -52.5t-121 -165t-43 -292.5q0 -177 43 -286t121 -159.5t183 -50.5zM1110 1592q-17 84 -68 140.5t-124.5 85.5t-158.5 29q-84 0 -157.5 -28.5t-124.5 -85.5t-68 -141h184q15 50 58 81.5t108 31.5q64 0 107.5 -31.5t60.5 -81.5h183z" />
    <glyph glyph-name="Omacron" unicode="&#x14c;" horiz-adv-x="1521" 
d="M763 -20q-205 0 -354.5 89.5t-231 255t-81.5 395.5q0 231 82.5 398t232.5 257.5t352 90.5q201 0 350 -90t230.5 -257t81.5 -399q0 -229 -80.5 -395t-229.5 -255.5t-352 -89.5zM763 220q106 0 183.5 50.5t119.5 160t42 285.5q0 181 -42.5 293t-120 164.5t-182.5 52.5
t-183 -52.5t-121 -165t-43 -292.5q0 -177 43 -286t121 -159.5t183 -50.5zM1114 1804v-187h-703v187h703z" />
    <glyph glyph-name="uni01EA" unicode="&#x1ea;" horiz-adv-x="1521" 
d="M763 -20q-205 0 -354.5 89.5t-231 255t-81.5 395.5q0 231 82.5 398t232.5 257.5t352 90.5q201 0 350 -90t230.5 -257t81.5 -399q0 -229 -80.5 -395t-229.5 -255.5t-352 -89.5zM763 220q106 0 183.5 50.5t119.5 160t42 285.5q0 181 -42.5 293t-120 164.5t-182.5 52.5
t-183 -52.5t-121 -165t-43 -292.5q0 -177 43 -286t121 -159.5t183 -50.5zM568 -174q0 55 37.5 101.5t154.5 85.5l204 -5q-106 -39 -145.5 -72t-39.5 -74q0 -32 17 -48t55 -16q46 0 81 13.5t64 30.5v-132q-28 -17 -85.5 -32.5t-125.5 -15.5q-102 0 -159.5 42t-57.5 122z" />
    <glyph glyph-name="Oslash" unicode="&#xd8;" horiz-adv-x="1552" 
d="M172 -27l-129 131l167 172q-52 87 -79 198.5t-27 244.5q0 231 82 398.5t231.5 258t352.5 90.5q136 0 247.5 -41t195.5 -120l162 166l127 -129l-174 -182q51 -87 78 -198t27 -242q0 -229 -81 -395t-230 -255.5t-353 -89.5q-135 0 -246 40t-193 113zM771 215q134 0 208 86
t89 269q8 79 6 159.5t-14 167.5l-531 -564q77 -118 242 -118zM476 538l534 566q-39 67 -98.5 98.5t-141.5 31.5q-139 0 -215 -96t-91 -298q-6 -75 -2.5 -150.5t14.5 -151.5z" />
    <glyph glyph-name="Oslashacute" unicode="&#x1fe;" horiz-adv-x="1552" 
d="M172 -27l-129 131l167 172q-52 87 -79 198.5t-27 244.5q0 231 82 398.5t231.5 258t352.5 90.5q136 0 247.5 -41t195.5 -120l162 166l127 -129l-174 -182q51 -87 78 -198t27 -242q0 -229 -81 -395t-230 -255.5t-353 -89.5q-135 0 -246 40t-193 113zM771 215q134 0 208 86
t89 269q8 79 6 159.5t-14 167.5l-531 -564q77 -118 242 -118zM476 538l534 566q-39 67 -98.5 98.5t-141.5 31.5q-139 0 -215 -96t-91 -298q-6 -75 -2.5 -150.5t14.5 -151.5zM868 1858h301l-297 -291h-210z" />
    <glyph glyph-name="Otilde" unicode="&#xd5;" horiz-adv-x="1521" 
d="M763 -20q-205 0 -354.5 89.5t-231 255t-81.5 395.5q0 231 82.5 398t232.5 257.5t352 90.5q201 0 350 -90t230.5 -257t81.5 -399q0 -229 -80.5 -395t-229.5 -255.5t-352 -89.5zM763 220q106 0 183.5 50.5t119.5 160t42 285.5q0 181 -42.5 293t-120 164.5t-182.5 52.5
t-183 -52.5t-121 -165t-43 -292.5q0 -177 43 -286t121 -159.5t183 -50.5zM1112 1682q-31 -25 -83 -47.5t-119 -22.5q-56 0 -101.5 14t-89.5 27.5t-95 13.5t-84.5 -15.5t-72.5 -48.5l-45 153q36 37 80 64t112 27q56 0 106.5 -15t97 -30.5t91.5 -15.5q53 0 94 22.5t73 46.5z
" />
    <glyph glyph-name="OE" unicode="&#x152;" horiz-adv-x="2234" 
d="M2130 244v-244h-940l-68 86q-60 -53 -147 -79.5t-196 -26.5q-214 0 -366.5 89t-234.5 254.5t-82 395.5q0 231 84 398.5t240.5 258t374.5 90.5q105 0 187.5 -26.5t139.5 -79.5l84 86h903l-1 -243h-698v-355h475v-240h-475v-364h720zM764 215q163 0 237.5 118t74.5 383
q0 271 -76 394.5t-237 123.5q-163 0 -240.5 -124t-77.5 -394q0 -264 77 -382.5t242 -118.5z" />
    <glyph glyph-name="P" unicode="P" horiz-adv-x="1305" 
d="M162 0v1446h532q158 0 283 -54.5t197.5 -160.5t72.5 -259q0 -144 -64 -246t-179.5 -156t-271.5 -54h-276v-516h-294zM453 742h271q110 0 180 70.5t70 174.5q0 108 -74 171.5t-180 63.5h-267v-480z" />
    <glyph glyph-name="Thorn" unicode="&#xde;" horiz-adv-x="1361" 
d="M1303 737q0 -143 -71 -240t-195 -147t-283 -50h-298v-300h-294v1446h294v-277h294q161 0 286 -47.5t196 -143t71 -241.5zM998 737q0 65 -35.5 107.5t-92.5 63t-121 20.5l-293 1v-388h298q61 0 117 20.5t91.5 64t35.5 111.5z" />
    <glyph glyph-name="Q" unicode="Q" horiz-adv-x="1546" 
d="M96 720q0 232 82.5 399t232 257t351.5 90q203 0 352 -90t231 -257t82 -399q0 -198 -59.5 -348t-181.5 -251q24 -60 89.5 -96t145.5 -37v-234q-94 0 -178.5 16t-162.5 67.5t-153 156.5q-50 -7 -87.5 -10.5t-77.5 -3.5q-203 0 -352.5 88.5t-231.5 254t-82 397.5zM417 716
q0 -265 91 -380.5t254 -115.5q164 0 255 115.5t91 381.5q0 269 -91 389t-255 120q-163 0 -254 -120.5t-91 -389.5z" />
    <glyph glyph-name="R" unicode="R" horiz-adv-x="1392" 
d="M1284 0h-303l-235 557h-293v-557h-291v1446h610q173 0 283 -55t162 -152.5t52 -224.5q0 -114 -35.5 -192.5t-93 -130.5t-125.5 -85zM720 782q117 0 185.5 63t68.5 162q0 100 -66 158t-167 58h-288v-441h267z" />
    <glyph glyph-name="Racute" unicode="&#x154;" horiz-adv-x="1392" 
d="M1284 0h-303l-235 557h-293v-557h-291v1446h610q173 0 283 -55t162 -152.5t52 -224.5q0 -114 -35.5 -192.5t-93 -130.5t-125.5 -85zM720 782q117 0 185.5 63t68.5 162q0 100 -66 158t-167 58h-288v-441h267zM780 1858h301l-297 -291h-210z" />
    <glyph glyph-name="Rcaron" unicode="&#x158;" horiz-adv-x="1392" 
d="M1284 0h-303l-235 557h-293v-557h-291v1446h610q173 0 283 -55t162 -152.5t52 -224.5q0 -114 -35.5 -192.5t-93 -130.5t-125.5 -85zM720 782q117 0 185.5 63t68.5 162q0 100 -66 158t-167 58h-288v-441h267zM579 1567l-263 261h217l146 -150l132 150h228l-257 -261h-203z
" />
    <glyph glyph-name="uni0156" unicode="&#x156;" horiz-adv-x="1392" 
d="M1284 0h-303l-235 557h-293v-557h-291v1446h610q173 0 283 -55t162 -152.5t52 -224.5q0 -114 -35.5 -192.5t-93 -130.5t-125.5 -85zM720 782q117 0 185.5 63t68.5 162q0 100 -66 158t-167 58h-288v-441h267zM562 -440l92 149l-80 10v187h248v-156l-156 -190h-104z" />
    <glyph glyph-name="uni0210" unicode="&#x210;" horiz-adv-x="1392" 
d="M1284 0h-303l-235 557h-293v-557h-291v1446h610q173 0 283 -55t162 -152.5t52 -224.5q0 -114 -35.5 -192.5t-93 -130.5t-125.5 -85zM720 782q117 0 185.5 63t68.5 162q0 100 -66 158t-167 58h-288v-441h267zM757 1858l201 -291h-211l-257 291h267zM358 1858l247 -291
h-210l-312 291h275z" />
    <glyph glyph-name="uni1E5A" unicode="&#x1e5a;" horiz-adv-x="1392" 
d="M1284 0h-303l-235 557h-293v-557h-291v1446h610q173 0 283 -55t162 -152.5t52 -224.5q0 -114 -35.5 -192.5t-93 -130.5t-125.5 -85zM720 782q117 0 185.5 63t68.5 162q0 100 -66 158t-167 58h-288v-441h267zM559 -398v238h279v-238h-279z" />
    <glyph glyph-name="uni0212" unicode="&#x212;" horiz-adv-x="1392" 
d="M1284 0h-303l-235 557h-293v-557h-291v1446h610q173 0 283 -55t162 -152.5t52 -224.5q0 -114 -35.5 -192.5t-93 -130.5t-125.5 -85zM720 782q117 0 185.5 63t68.5 162q0 100 -66 158t-167 58h-288v-441h267zM1028 1592q-17 84 -68 140.5t-124.5 85.5t-158.5 29
q-84 0 -157.5 -28.5t-124.5 -85.5t-68 -141h184q15 50 58 81.5t108 31.5q64 0 107.5 -31.5t60.5 -81.5h183z" />
    <glyph glyph-name="S" unicode="S" horiz-adv-x="1387" 
d="M705 -20q-107 0 -210 27t-188 81t-140.5 135t-66.5 190h299q15 -66 57 -111t106 -69t142 -24q80 0 146 20t106 60.5t40 101.5q0 55 -32.5 90t-87.5 57t-125 36l-250 51q-164 31 -260 130.5t-99 265.5q-1 136 72.5 235.5t200 153.5t283.5 54q187 0 314.5 -58.5t194 -158
t68.5 -221.5h-293q-8 76 -46 121t-97.5 65t-135.5 20q-58 0 -105.5 -13t-80.5 -36.5t-51 -55.5t-18 -72q0 -63 42 -102t157 -64l248 -51q133 -26 211.5 -77t118 -115t52 -130.5t12.5 -122.5q0 -117 -73.5 -210.5t-204.5 -148t-306 -54.5z" />
    <glyph glyph-name="Sacute" unicode="&#x15a;" horiz-adv-x="1387" 
d="M705 -20q-107 0 -210 27t-188 81t-140.5 135t-66.5 190h299q15 -66 57 -111t106 -69t142 -24q80 0 146 20t106 60.5t40 101.5q0 55 -32.5 90t-87.5 57t-125 36l-250 51q-164 31 -260 130.5t-99 265.5q-1 136 72.5 235.5t200 153.5t283.5 54q187 0 314.5 -58.5t194 -158
t68.5 -221.5h-293q-8 76 -46 121t-97.5 65t-135.5 20q-58 0 -105.5 -13t-80.5 -36.5t-51 -55.5t-18 -72q0 -63 42 -102t157 -64l248 -51q133 -26 211.5 -77t118 -115t52 -130.5t12.5 -122.5q0 -117 -73.5 -210.5t-204.5 -148t-306 -54.5zM797 1858h301l-297 -291h-210z" />
    <glyph glyph-name="Scaron" unicode="&#x160;" horiz-adv-x="1387" 
d="M705 -20q-107 0 -210 27t-188 81t-140.5 135t-66.5 190h299q15 -66 57 -111t106 -69t142 -24q80 0 146 20t106 60.5t40 101.5q0 55 -32.5 90t-87.5 57t-125 36l-250 51q-164 31 -260 130.5t-99 265.5q-1 136 72.5 235.5t200 153.5t283.5 54q187 0 314.5 -58.5t194 -158
t68.5 -221.5h-293q-8 76 -46 121t-97.5 65t-135.5 20q-58 0 -105.5 -13t-80.5 -36.5t-51 -55.5t-18 -72q0 -63 42 -102t157 -64l248 -51q133 -26 211.5 -77t118 -115t52 -130.5t12.5 -122.5q0 -117 -73.5 -210.5t-204.5 -148t-306 -54.5zM596 1567l-263 261h217l146 -150
l132 150h228l-257 -261h-203z" />
    <glyph glyph-name="Scedilla" unicode="&#x15e;" horiz-adv-x="1387" 
d="M705 -20q-107 0 -210 27t-188 81t-140.5 135t-66.5 190h299q15 -66 57 -111t106 -69t142 -24q80 0 146 20t106 60.5t40 101.5q0 55 -32.5 90t-87.5 57t-125 36l-250 51q-164 31 -260 130.5t-99 265.5q-1 136 72.5 235.5t200 153.5t283.5 54q187 0 314.5 -58.5t194 -158
t68.5 -221.5h-293q-8 76 -46 121t-97.5 65t-135.5 20q-58 0 -105.5 -13t-80.5 -36.5t-51 -55.5t-18 -72q0 -63 42 -102t157 -64l248 -51q133 -26 211.5 -77t118 -115t52 -130.5t12.5 -122.5q0 -117 -73.5 -210.5t-204.5 -148t-306 -54.5zM924 -263q0 -51 -33 -87.5
t-87.5 -55.5t-118.5 -19q-63 0 -121.5 12t-108.5 42l40 98q31 -19 70.5 -34t83.5 -15q48 0 74 16.5t26 45.5q0 39 -38 60t-132 22q-12 0 -16.5 3.5t0.5 15.5l73 169h130l-45 -117q76 -2 120 -26t63.5 -59.5t19.5 -70.5z" />
    <glyph glyph-name="Scircumflex" unicode="&#x15c;" horiz-adv-x="1387" 
d="M705 -20q-107 0 -210 27t-188 81t-140.5 135t-66.5 190h299q15 -66 57 -111t106 -69t142 -24q80 0 146 20t106 60.5t40 101.5q0 55 -32.5 90t-87.5 57t-125 36l-250 51q-164 31 -260 130.5t-99 265.5q-1 136 72.5 235.5t200 153.5t283.5 54q187 0 314.5 -58.5t194 -158
t68.5 -221.5h-293q-8 76 -46 121t-97.5 65t-135.5 20q-58 0 -105.5 -13t-80.5 -36.5t-51 -55.5t-18 -72q0 -63 42 -102t157 -64l248 -51q133 -26 211.5 -77t118 -115t52 -130.5t12.5 -122.5q0 -117 -73.5 -210.5t-204.5 -148t-306 -54.5zM828 1567l-132 140l-146 -140h-217
l264 259h202l257 -259h-228z" />
    <glyph glyph-name="uni0218" unicode="&#x218;" horiz-adv-x="1387" 
d="M705 -20q-107 0 -210 27t-188 81t-140.5 135t-66.5 190h299q15 -66 57 -111t106 -69t142 -24q80 0 146 20t106 60.5t40 101.5q0 55 -32.5 90t-87.5 57t-125 36l-250 51q-164 31 -260 130.5t-99 265.5q-1 136 72.5 235.5t200 153.5t283.5 54q187 0 314.5 -58.5t194 -158
t68.5 -221.5h-293q-8 76 -46 121t-97.5 65t-135.5 20q-58 0 -105.5 -13t-80.5 -36.5t-51 -55.5t-18 -72q0 -63 42 -102t157 -64l248 -51q133 -26 211.5 -77t118 -115t52 -130.5t12.5 -122.5q0 -117 -73.5 -210.5t-204.5 -148t-306 -54.5zM557 -440l92 149l-80 10v187h248
v-156l-156 -190h-104z" />
    <glyph glyph-name="uni1E62" unicode="&#x1e62;" horiz-adv-x="1387" 
d="M705 -20q-107 0 -210 27t-188 81t-140.5 135t-66.5 190h299q15 -66 57 -111t106 -69t142 -24q80 0 146 20t106 60.5t40 101.5q0 55 -32.5 90t-87.5 57t-125 36l-250 51q-164 31 -260 130.5t-99 265.5q-1 136 72.5 235.5t200 153.5t283.5 54q187 0 314.5 -58.5t194 -158
t68.5 -221.5h-293q-8 76 -46 121t-97.5 65t-135.5 20q-58 0 -105.5 -13t-80.5 -36.5t-51 -55.5t-18 -72q0 -63 42 -102t157 -64l248 -51q133 -26 211.5 -77t118 -115t52 -130.5t12.5 -122.5q0 -117 -73.5 -210.5t-204.5 -148t-306 -54.5zM555 -398v238h279v-238h-279z" />
    <glyph glyph-name="uni018F" unicode="&#x18f;" horiz-adv-x="1518" 
d="M757 -20q-194 0 -343 85.5t-233 267t-84 468.5h977q0 188 -84.5 290.5t-238.5 102.5q-77 0 -137.5 -23t-102.5 -60t-64.5 -81t-22.5 -85h-328q0 86 46 177.5t132.5 169.5t208.5 126t274 48q208 0 357 -85.5t228.5 -249t79.5 -396.5q0 -255 -85 -422.5t-235 -250
t-345 -82.5zM757 236q103 0 172.5 45t105 124t36.5 182l-618 2q0 -104 35 -184t103 -124.5t166 -44.5z" />
    <glyph glyph-name="T" unicode="T" horiz-adv-x="1232" 
d="M38 1186v260h1157v-260h-427v-1186h-293v1186h-437z" />
    <glyph glyph-name="Tbar" unicode="&#x166;" horiz-adv-x="1232" 
d="M1020 810v-214h-810v214h810zM38 1186v260h1157v-260h-427v-1186h-293v1186h-437z" />
    <glyph glyph-name="Tcaron" unicode="&#x164;" horiz-adv-x="1232" 
d="M38 1186v260h1157v-260h-427v-1186h-293v1186h-437zM534 1567l-263 261h217l146 -150l132 150h228l-257 -261h-203z" />
    <glyph glyph-name="uni0162" unicode="&#x162;" horiz-adv-x="1232" 
d="M38 1186v260h1157v-260h-427v-1186h-293v1186h-437zM865 -262q0 -51 -33 -87.5t-87.5 -55.5t-118.5 -19q-63 0 -121.5 12t-108.5 42l40 98q31 -19 70.5 -34t83.5 -15q48 0 74 16.5t26 45.5q0 39 -38 60t-132 22q-12 0 -16.5 3.5t0.5 15.5l73 169h130l-45 -117
q76 -2 120 -26t63.5 -59.5t19.5 -70.5z" />
    <glyph glyph-name="uni021A" unicode="&#x21a;" horiz-adv-x="1232" 
d="M38 1186v260h1157v-260h-427v-1186h-293v1186h-437zM499 -439l92 149l-80 10v187h248v-156l-156 -190h-104z" />
    <glyph glyph-name="uni1E6C" unicode="&#x1e6c;" horiz-adv-x="1232" 
d="M38 1186v260h1157v-260h-427v-1186h-293v1186h-437zM496 -397v238h279v-238h-279z" />
    <glyph glyph-name="U" unicode="U" horiz-adv-x="1448" 
d="M1319 551q0 -175 -57 -303.5t-184.5 -198t-337.5 -69.5q-211 0 -338 70.5t-183.5 200.5t-56.5 310v885h297v-907q0 -162 78 -236.5t203 -74.5q83 0 147 32.5t100.5 101t36.5 177.5v907h295v-895z" />
    <glyph glyph-name="Uacute" unicode="&#xda;" horiz-adv-x="1448" 
d="M1319 551q0 -175 -57 -303.5t-184.5 -198t-337.5 -69.5q-211 0 -338 70.5t-183.5 200.5t-56.5 310v885h297v-907q0 -162 78 -236.5t203 -74.5q83 0 147 32.5t100.5 101t36.5 177.5v907h295v-895zM841 1858h301l-297 -291h-210z" />
    <glyph glyph-name="Ubreve" unicode="&#x16c;" horiz-adv-x="1448" 
d="M1319 551q0 -175 -57 -303.5t-184.5 -198t-337.5 -69.5q-211 0 -338 70.5t-183.5 200.5t-56.5 310v885h297v-907q0 -162 78 -236.5t203 -74.5q83 0 147 32.5t100.5 101t36.5 177.5v907h295v-895zM1092 1822q-17 -84 -68 -140.5t-124.5 -85.5t-158.5 -29
q-84 0 -157.5 28.5t-124.5 85.5t-68 141h184q15 -50 58 -81.5t108 -31.5q64 0 107.5 31.5t60.5 81.5h183z" />
    <glyph glyph-name="Ucircumflex" unicode="&#xdb;" horiz-adv-x="1448" 
d="M1319 551q0 -175 -57 -303.5t-184.5 -198t-337.5 -69.5q-211 0 -338 70.5t-183.5 200.5t-56.5 310v885h297v-907q0 -162 78 -236.5t203 -74.5q83 0 147 32.5t100.5 101t36.5 177.5v907h295v-895zM872 1567l-132 140l-146 -140h-217l264 259h202l257 -259h-228z" />
    <glyph glyph-name="uni0214" unicode="&#x214;" horiz-adv-x="1448" 
d="M1319 551q0 -175 -57 -303.5t-184.5 -198t-337.5 -69.5q-211 0 -338 70.5t-183.5 200.5t-56.5 310v885h297v-907q0 -162 78 -236.5t203 -74.5q83 0 147 32.5t100.5 101t36.5 177.5v907h295v-895zM819 1858l201 -291h-211l-257 291h267zM420 1858l247 -291h-210l-312 291
h275z" />
    <glyph glyph-name="Udieresis" unicode="&#xdc;" horiz-adv-x="1448" 
d="M1319 551q0 -175 -57 -303.5t-184.5 -198t-337.5 -69.5q-211 0 -338 70.5t-183.5 200.5t-56.5 310v885h297v-907q0 -162 78 -236.5t203 -74.5q83 0 147 32.5t100.5 101t36.5 177.5v907h295v-895zM836 1596l3 238h273l-2 -238h-274zM370 1596l3 238h273l-2 -238h-274z" />
    <glyph glyph-name="uni1EE4" unicode="&#x1ee4;" horiz-adv-x="1448" 
d="M1319 551q0 -175 -57 -303.5t-184.5 -198t-337.5 -69.5q-211 0 -338 70.5t-183.5 200.5t-56.5 310v885h297v-907q0 -162 78 -236.5t203 -74.5q83 0 147 32.5t100.5 101t36.5 177.5v907h295v-895zM601 -397v238h279v-238h-279z" />
    <glyph glyph-name="Ugrave" unicode="&#xd9;" horiz-adv-x="1448" 
d="M1319 551q0 -175 -57 -303.5t-184.5 -198t-337.5 -69.5q-211 0 -338 70.5t-183.5 200.5t-56.5 310v885h297v-907q0 -162 78 -236.5t203 -74.5q83 0 147 32.5t100.5 101t36.5 177.5v907h295v-895zM635 1858h-301l297 -291h210z" />
    <glyph glyph-name="uni1EE6" unicode="&#x1ee6;" horiz-adv-x="1448" 
d="M1319 551q0 -175 -57 -303.5t-184.5 -198t-337.5 -69.5q-211 0 -338 70.5t-183.5 200.5t-56.5 310v885h297v-907q0 -162 78 -236.5t203 -74.5q83 0 147 32.5t100.5 101t36.5 177.5v907h295v-895zM601 1915l68 -106q36 24 75 22t57 -32q21 -33 7.5 -66.5t-53.5 -58.5
l69 -108q102 60 124.5 141.5t-32.5 166.5q-45 71 -134.5 85.5t-180.5 -44.5z" />
    <glyph glyph-name="Uhorn" unicode="&#x1af;" horiz-adv-x="1721" 
d="M1319 551q0 -175 -57 -303.5t-184.5 -198t-337.5 -69.5q-211 0 -338 70.5t-183.5 200.5t-56.5 310v885h297v-907q0 -162 78 -236.5t203 -74.5q83 0 147 32.5t100.5 101t36.5 177.5v907h295v-895zM1651 1486q-1 -142 -36 -225.5t-119 -114.5t-234 -15v144q50 -1 85 3
t57.5 23t36 62.5t18.5 122.5h192z" />
    <glyph glyph-name="uni1EE8" unicode="&#x1ee8;" horiz-adv-x="1721" 
d="M1319 551q0 -175 -57 -303.5t-184.5 -198t-337.5 -69.5q-211 0 -338 70.5t-183.5 200.5t-56.5 310v885h297v-907q0 -162 78 -236.5t203 -74.5q83 0 147 32.5t100.5 101t36.5 177.5v907h295v-895zM1651 1486q-1 -142 -36 -225.5t-119 -114.5t-234 -15v144q50 -1 85 3
t57.5 23t36 62.5t18.5 122.5h192zM841 1858h301l-297 -291h-210z" />
    <glyph glyph-name="uni1EF0" unicode="&#x1ef0;" horiz-adv-x="1721" 
d="M1319 551q0 -175 -57 -303.5t-184.5 -198t-337.5 -69.5q-211 0 -338 70.5t-183.5 200.5t-56.5 310v885h297v-907q0 -162 78 -236.5t203 -74.5q83 0 147 32.5t100.5 101t36.5 177.5v907h295v-895zM1651 1486q-1 -142 -36 -225.5t-119 -114.5t-234 -15v144q50 -1 85 3
t57.5 23t36 62.5t18.5 122.5h192zM601 -397v238h279v-238h-279z" />
    <glyph glyph-name="uni1EEA" unicode="&#x1eea;" horiz-adv-x="1721" 
d="M1319 551q0 -175 -57 -303.5t-184.5 -198t-337.5 -69.5q-211 0 -338 70.5t-183.5 200.5t-56.5 310v885h297v-907q0 -162 78 -236.5t203 -74.5q83 0 147 32.5t100.5 101t36.5 177.5v907h295v-895zM1651 1486q-1 -142 -36 -225.5t-119 -114.5t-234 -15v144q50 -1 85 3
t57.5 23t36 62.5t18.5 122.5h192zM635 1858h-301l297 -291h210z" />
    <glyph glyph-name="uni1EEC" unicode="&#x1eec;" horiz-adv-x="1721" 
d="M1319 551q0 -175 -57 -303.5t-184.5 -198t-337.5 -69.5q-211 0 -338 70.5t-183.5 200.5t-56.5 310v885h297v-907q0 -162 78 -236.5t203 -74.5q83 0 147 32.5t100.5 101t36.5 177.5v907h295v-895zM1651 1486q-1 -142 -36 -225.5t-119 -114.5t-234 -15v144q50 -1 85 3
t57.5 23t36 62.5t18.5 122.5h192zM601 1915l68 -106q36 24 75 22t57 -32q21 -33 7.5 -66.5t-53.5 -58.5l69 -108q102 60 124.5 141.5t-32.5 166.5q-45 71 -134.5 85.5t-180.5 -44.5z" />
    <glyph glyph-name="uni1EEE" unicode="&#x1eee;" horiz-adv-x="1713" 
d="M1319 551q0 -175 -57 -303.5t-184.5 -198t-337.5 -69.5q-211 0 -338 70.5t-183.5 200.5t-56.5 310v885h297v-907q0 -162 78 -236.5t203 -74.5q83 0 147 32.5t100.5 101t36.5 177.5v907h295v-895zM1651 1486q-1 -142 -36 -225.5t-119 -114.5t-234 -15v144q50 -1 85 3
t57.5 23t36 62.5t18.5 122.5h192zM1091 1682q-31 -25 -83 -47.5t-119 -22.5q-56 0 -101.5 14t-89.5 27.5t-95 13.5t-84.5 -15.5t-72.5 -48.5l-45 153q36 37 80 64t112 27q56 0 106.5 -15t97 -30.5t91.5 -15.5q53 0 94 22.5t73 46.5z" />
    <glyph glyph-name="Uhungarumlaut" unicode="&#x170;" horiz-adv-x="1448" 
d="M1319 551q0 -175 -57 -303.5t-184.5 -198t-337.5 -69.5q-211 0 -338 70.5t-183.5 200.5t-56.5 310v885h297v-907q0 -162 78 -236.5t203 -74.5q83 0 147 32.5t100.5 101t36.5 177.5v907h295v-895zM661 1858l-201 -291h211l257 291h-267zM1060 1858l-247 -291h210l312 291
h-275z" />
    <glyph glyph-name="uni0216" unicode="&#x216;" horiz-adv-x="1448" 
d="M1319 551q0 -175 -57 -303.5t-184.5 -198t-337.5 -69.5q-211 0 -338 70.5t-183.5 200.5t-56.5 310v885h297v-907q0 -162 78 -236.5t203 -74.5q83 0 147 32.5t100.5 101t36.5 177.5v907h295v-895zM1089 1592q-17 84 -68 140.5t-124.5 85.5t-158.5 29q-84 0 -157.5 -28.5
t-124.5 -85.5t-68 -141h184q15 50 58 81.5t108 31.5q64 0 107.5 -31.5t60.5 -81.5h183z" />
    <glyph glyph-name="Umacron" unicode="&#x16a;" horiz-adv-x="1448" 
d="M1319 551q0 -175 -57 -303.5t-184.5 -198t-337.5 -69.5q-211 0 -338 70.5t-183.5 200.5t-56.5 310v885h297v-907q0 -162 78 -236.5t203 -74.5q83 0 147 32.5t100.5 101t36.5 177.5v907h295v-895zM1093 1804v-187h-703v187h703z" />
    <glyph glyph-name="Uogonek" unicode="&#x172;" horiz-adv-x="1448" 
d="M1319 551q0 -175 -57 -303.5t-184.5 -198t-337.5 -69.5q-211 0 -338 70.5t-183.5 200.5t-56.5 310v885h297v-907q0 -162 78 -236.5t203 -74.5q83 0 147 32.5t100.5 101t36.5 177.5v907h295v-895zM530 -171q0 55 37.5 101.5t154.5 85.5l204 -5q-106 -39 -145.5 -72
t-39.5 -74q0 -32 17 -48t55 -16q46 0 81 13.5t64 30.5v-132q-28 -17 -85.5 -32.5t-125.5 -15.5q-102 0 -159.5 42t-57.5 122z" />
    <glyph glyph-name="Uring" unicode="&#x16e;" horiz-adv-x="1448" 
d="M1319 551q0 -175 -57 -303.5t-184.5 -198t-337.5 -69.5q-211 0 -338 70.5t-183.5 200.5t-56.5 310v885h297v-907q0 -162 78 -236.5t203 -74.5q83 0 147 32.5t100.5 101t36.5 177.5v907h295v-895zM959 1764q0 -91 -63.5 -154t-154.5 -63t-154 64t-63 157q0 88 64 149
t153 61q60 0 109.5 -28.5t79 -77t29.5 -108.5zM838 1763q0 43 -28.5 71t-70.5 28q-41 0 -71.5 -28t-30.5 -71q0 -40 30.5 -71t71.5 -31q42 0 70.5 31t28.5 71z" />
    <glyph glyph-name="Utilde" unicode="&#x168;" horiz-adv-x="1448" 
d="M1319 551q0 -175 -57 -303.5t-184.5 -198t-337.5 -69.5q-211 0 -338 70.5t-183.5 200.5t-56.5 310v885h297v-907q0 -162 78 -236.5t203 -74.5q83 0 147 32.5t100.5 101t36.5 177.5v907h295v-895zM1091 1682q-31 -25 -83 -47.5t-119 -22.5q-56 0 -101.5 14t-89.5 27.5
t-95 13.5t-84.5 -15.5t-72.5 -48.5l-45 153q36 37 80 64t112 27q56 0 106.5 -15t97 -30.5t91.5 -15.5q53 0 94 22.5t73 46.5z" />
    <glyph glyph-name="V" unicode="V" horiz-adv-x="1401" 
d="M1363 1446l-499 -1446h-331l-495 1446h279l382 -1107l385 1107h279z" />
    <glyph glyph-name="W" unicode="W" horiz-adv-x="1937" 
d="M1899 1446l-427 -1446h-233l-272 945l-274 -945h-229l-426 1446h286l269 -955l269 955h211l272 -955l269 955h285z" />
    <glyph glyph-name="Wacute" unicode="&#x1e82;" horiz-adv-x="1937" 
d="M1899 1446l-427 -1446h-233l-272 945l-274 -945h-229l-426 1446h286l269 -955l269 955h211l272 -955l269 955h285zM1067 1858h301l-297 -291h-210z" />
    <glyph glyph-name="Wcircumflex" unicode="&#x174;" horiz-adv-x="1937" 
d="M1899 1446l-427 -1446h-233l-272 945l-274 -945h-229l-426 1446h286l269 -955l269 955h211l272 -955l269 955h285zM1098 1567l-132 140l-146 -140h-217l264 259h202l257 -259h-228z" />
    <glyph glyph-name="Wdieresis" unicode="&#x1e84;" horiz-adv-x="1937" 
d="M1899 1446l-427 -1446h-233l-272 945l-274 -945h-229l-426 1446h286l269 -955l269 955h211l272 -955l269 955h285zM1062 1596l3 238h273l-2 -238h-274zM596 1596l3 238h273l-2 -238h-274z" />
    <glyph glyph-name="Wgrave" unicode="&#x1e80;" horiz-adv-x="1937" 
d="M1899 1446l-427 -1446h-233l-272 945l-274 -945h-229l-426 1446h286l269 -955l269 955h211l272 -955l269 955h285zM861 1858h-301l297 -291h210z" />
    <glyph glyph-name="X" unicode="X" horiz-adv-x="1434" 
d="M1379 0h-364l-326 522l-320 -522h-314l481 734l-466 712h361l289 -468l286 468h310l-446 -674z" />
    <glyph glyph-name="Y" unicode="Y" horiz-adv-x="1335" 
d="M1316 1446l-503 -838v-608h-292v609l-502 837h316l333 -586l329 586h319z" />
    <glyph glyph-name="Yacute" unicode="&#xdd;" horiz-adv-x="1335" 
d="M1316 1446l-503 -838v-608h-292v609l-502 837h316l333 -586l329 586h319zM801 1859h301l-297 -291h-210z" />
    <glyph glyph-name="Ycircumflex" unicode="&#x176;" horiz-adv-x="1335" 
d="M1316 1446l-503 -838v-608h-292v609l-502 837h316l333 -586l329 586h319zM832 1568l-132 140l-146 -140h-217l264 259h202l257 -259h-228z" />
    <glyph glyph-name="Ydieresis" unicode="&#x178;" horiz-adv-x="1335" 
d="M1316 1446l-503 -838v-608h-292v609l-502 837h316l333 -586l329 586h319zM796 1597l3 238h273l-2 -238h-274zM330 1597l3 238h273l-2 -238h-274z" />
    <glyph glyph-name="uni1EF4" unicode="&#x1ef4;" horiz-adv-x="1335" 
d="M1316 1446l-503 -838v-608h-292v609l-502 837h316l333 -586l329 586h319zM529 -398v238h279v-238h-279z" />
    <glyph glyph-name="Ygrave" unicode="&#x1ef2;" horiz-adv-x="1335" 
d="M1316 1446l-503 -838v-608h-292v609l-502 837h316l333 -586l329 586h319zM595 1859h-301l297 -291h210z" />
    <glyph glyph-name="uni1EF6" unicode="&#x1ef6;" horiz-adv-x="1335" 
d="M1316 1446l-503 -838v-608h-292v609l-502 837h316l333 -586l329 586h319zM561 1916l68 -106q36 24 75 22t57 -32q21 -33 7.5 -66.5t-53.5 -58.5l69 -108q102 60 124.5 141.5t-32.5 166.5q-45 71 -134.5 85.5t-180.5 -44.5z" />
    <glyph glyph-name="uni1EF8" unicode="&#x1ef8;" horiz-adv-x="1335" 
d="M1316 1446l-503 -838v-608h-292v609l-502 837h316l333 -586l329 586h319zM1052 1683q-31 -25 -83 -47.5t-119 -22.5q-56 0 -101.5 14t-89.5 27.5t-95 13.5t-84.5 -15.5t-72.5 -48.5l-45 153q36 37 80 64t112 27q56 0 106.5 -15t97 -30.5t91.5 -15.5q53 0 94 22.5t73 46.5
z" />
    <glyph glyph-name="Z" unicode="Z" horiz-adv-x="1339" 
d="M108 0v142l734 1060h-685v244h1101v-136l-744 -1063h736v-247h-1142z" />
    <glyph glyph-name="Zacute" unicode="&#x179;" horiz-adv-x="1339" 
d="M108 0v142l734 1060h-685v244h1101v-136l-744 -1063h736v-247h-1142zM821 1858h301l-297 -291h-210z" />
    <glyph glyph-name="Zcaron" unicode="&#x17d;" horiz-adv-x="1339" 
d="M108 0v142l734 1060h-685v244h1101v-136l-744 -1063h736v-247h-1142zM620 1567l-263 261h217l146 -150l132 150h228l-257 -261h-203z" />
    <glyph glyph-name="Zdotaccent" unicode="&#x17b;" horiz-adv-x="1339" 
d="M108 0v142l734 1060h-685v244h1101v-136l-744 -1063h736v-247h-1142zM582 1596v238h279v-238h-279z" />
    <glyph glyph-name="uni1E92" unicode="&#x1e92;" horiz-adv-x="1339" 
d="M108 0v142l734 1060h-685v244h1101v-136l-744 -1063h736v-247h-1142zM556 -398v238h279v-238h-279z" />
    <glyph glyph-name="a" unicode="a" horiz-adv-x="1147" 
d="M425 -20q-99 0 -178 37t-125 107.5t-46 171.5q0 170 127 258.5t401 91.5l129 2v62q0 71 -41.5 109.5t-128.5 37.5q-64 -1 -121.5 -30t-78.5 -101h-243q6 112 65 184.5t160.5 108t230.5 35.5q159 0 255 -39.5t139 -113t43 -174.5v-727h-244l-24 178q-53 -112 -132.5 -155
t-187.5 -43zM523 172q40 0 77.5 14.5t67 39t47.5 55.5t18 64v153l-105 -2q-73 -1 -136 -17.5t-101.5 -53.5t-38.5 -100q0 -72 50 -112.5t121 -40.5z" />
    <glyph glyph-name="aacute" unicode="&#xe1;" horiz-adv-x="1147" 
d="M425 -20q-99 0 -178 37t-125 107.5t-46 171.5q0 170 127 258.5t401 91.5l129 2v62q0 71 -41.5 109.5t-128.5 37.5q-64 -1 -121.5 -30t-78.5 -101h-243q6 112 65 184.5t160.5 108t230.5 35.5q159 0 255 -39.5t139 -113t43 -174.5v-727h-244l-24 178q-53 -112 -132.5 -155
t-187.5 -43zM523 172q40 0 77.5 14.5t67 39t47.5 55.5t18 64v153l-105 -2q-73 -1 -136 -17.5t-101.5 -53.5t-38.5 -100q0 -72 50 -112.5t121 -40.5zM679 1446h301l-297 -291h-210z" />
    <glyph glyph-name="abreve" unicode="&#x103;" horiz-adv-x="1147" 
d="M425 -20q-99 0 -178 37t-125 107.5t-46 171.5q0 170 127 258.5t401 91.5l129 2v62q0 71 -41.5 109.5t-128.5 37.5q-64 -1 -121.5 -30t-78.5 -101h-243q6 112 65 184.5t160.5 108t230.5 35.5q159 0 255 -39.5t139 -113t43 -174.5v-727h-244l-24 178q-53 -112 -132.5 -155
t-187.5 -43zM523 172q40 0 77.5 14.5t67 39t47.5 55.5t18 64v153l-105 -2q-73 -1 -136 -17.5t-101.5 -53.5t-38.5 -100q0 -72 50 -112.5t121 -40.5zM930 1410q-17 -84 -68 -140.5t-124.5 -85.5t-158.5 -29q-84 0 -157.5 28.5t-124.5 85.5t-68 141h184q15 -50 58 -81.5
t108 -31.5q64 0 107.5 31.5t60.5 81.5h183z" />
    <glyph glyph-name="uni1EAF" unicode="&#x1eaf;" horiz-adv-x="1147" 
d="M425 -20q-99 0 -178 37t-125 107.5t-46 171.5q0 170 127 258.5t401 91.5l129 2v62q0 71 -41.5 109.5t-128.5 37.5q-64 -1 -121.5 -30t-78.5 -101h-243q6 112 65 184.5t160.5 108t230.5 35.5q159 0 255 -39.5t139 -113t43 -174.5v-727h-244l-24 178q-53 -112 -132.5 -155
t-187.5 -43zM523 172q40 0 77.5 14.5t67 39t47.5 55.5t18 64v153l-105 -2q-73 -1 -136 -17.5t-101.5 -53.5t-38.5 -100q0 -72 50 -112.5t121 -40.5zM932 1410q-17 -84 -68 -140.5t-124.5 -85.5t-158.5 -29q-84 0 -157.5 28.5t-124.5 85.5t-68 141h184q15 -50 58 -81.5
t108 -31.5q64 0 107.5 31.5t60.5 81.5h183zM654 1729h225l-225 -261h-152z" />
    <glyph glyph-name="uni1EB7" unicode="&#x1eb7;" horiz-adv-x="1147" 
d="M425 -20q-99 0 -178 37t-125 107.5t-46 171.5q0 170 127 258.5t401 91.5l129 2v62q0 71 -41.5 109.5t-128.5 37.5q-64 -1 -121.5 -30t-78.5 -101h-243q6 112 65 184.5t160.5 108t230.5 35.5q159 0 255 -39.5t139 -113t43 -174.5v-727h-244l-24 178q-53 -112 -132.5 -155
t-187.5 -43zM523 172q40 0 77.5 14.5t67 39t47.5 55.5t18 64v153l-105 -2q-73 -1 -136 -17.5t-101.5 -53.5t-38.5 -100q0 -72 50 -112.5t121 -40.5zM435 -398v238h279v-238h-279zM930 1410q-17 -84 -68 -140.5t-124.5 -85.5t-158.5 -29q-84 0 -157.5 28.5t-124.5 85.5
t-68 141h184q15 -50 58 -81.5t108 -31.5q64 0 107.5 31.5t60.5 81.5h183z" />
    <glyph glyph-name="uni1EB1" unicode="&#x1eb1;" horiz-adv-x="1147" 
d="M425 -20q-99 0 -178 37t-125 107.5t-46 171.5q0 170 127 258.5t401 91.5l129 2v62q0 71 -41.5 109.5t-128.5 37.5q-64 -1 -121.5 -30t-78.5 -101h-243q6 112 65 184.5t160.5 108t230.5 35.5q159 0 255 -39.5t139 -113t43 -174.5v-727h-244l-24 178q-53 -112 -132.5 -155
t-187.5 -43zM523 172q40 0 77.5 14.5t67 39t47.5 55.5t18 64v153l-105 -2q-73 -1 -136 -17.5t-101.5 -53.5t-38.5 -100q0 -72 50 -112.5t121 -40.5zM932 1410q-17 -84 -68 -140.5t-124.5 -85.5t-158.5 -29q-84 0 -157.5 28.5t-124.5 85.5t-68 141h184q15 -50 58 -81.5
t108 -31.5q64 0 107.5 31.5t60.5 81.5h183zM514 1729l157 -261h-156l-227 261h226z" />
    <glyph glyph-name="uni1EB3" unicode="&#x1eb3;" horiz-adv-x="1147" 
d="M425 -20q-99 0 -178 37t-125 107.5t-46 171.5q0 170 127 258.5t401 91.5l129 2v62q0 71 -41.5 109.5t-128.5 37.5q-64 -1 -121.5 -30t-78.5 -101h-243q6 112 65 184.5t160.5 108t230.5 35.5q159 0 255 -39.5t139 -113t43 -174.5v-727h-244l-24 178q-53 -112 -132.5 -155
t-187.5 -43zM523 172q40 0 77.5 14.5t67 39t47.5 55.5t18 64v153l-105 -2q-73 -1 -136 -17.5t-101.5 -53.5t-38.5 -100q0 -72 50 -112.5t121 -40.5zM932 1410q-17 -84 -68 -140.5t-124.5 -85.5t-158.5 -29q-84 0 -157.5 28.5t-124.5 85.5t-68 141h184q15 -50 58 -81.5
t108 -31.5q64 0 107.5 31.5t60.5 81.5h183zM455 1780l68 -106q36 24 75 22t57 -32q21 -33 7.5 -66.5t-53.5 -58.5l69 -108q102 60 124.5 141.5t-32.5 166.5q-45 71 -134.5 85.5t-180.5 -44.5z" />
    <glyph glyph-name="uni1EB5" unicode="&#x1eb5;" horiz-adv-x="1147" 
d="M425 -20q-99 0 -178 37t-125 107.5t-46 171.5q0 170 127 258.5t401 91.5l129 2v62q0 71 -41.5 109.5t-128.5 37.5q-64 -1 -121.5 -30t-78.5 -101h-243q6 112 65 184.5t160.5 108t230.5 35.5q159 0 255 -39.5t139 -113t43 -174.5v-727h-244l-24 178q-53 -112 -132.5 -155
t-187.5 -43zM523 172q40 0 77.5 14.5t67 39t47.5 55.5t18 64v153l-105 -2q-73 -1 -136 -17.5t-101.5 -53.5t-38.5 -100q0 -72 50 -112.5t121 -40.5zM932 1410q-17 -84 -68 -140.5t-124.5 -85.5t-158.5 -29q-84 0 -157.5 28.5t-124.5 85.5t-68 141h184q15 -50 58 -81.5
t108 -31.5q64 0 107.5 31.5t60.5 81.5h183zM923 1585q-31 -25 -83 -47.5t-119 -22.5q-56 0 -101.5 14t-89.5 27.5t-95 13.5t-84.5 -15.5t-72.5 -48.5l-45 153q36 37 80 64t112 27q56 0 106.5 -15t97 -30.5t91.5 -15.5q53 0 94 22.5t73 46.5z" />
    <glyph glyph-name="acircumflex" unicode="&#xe2;" horiz-adv-x="1147" 
d="M425 -20q-99 0 -178 37t-125 107.5t-46 171.5q0 170 127 258.5t401 91.5l129 2v62q0 71 -41.5 109.5t-128.5 37.5q-64 -1 -121.5 -30t-78.5 -101h-243q6 112 65 184.5t160.5 108t230.5 35.5q159 0 255 -39.5t139 -113t43 -174.5v-727h-244l-24 178q-53 -112 -132.5 -155
t-187.5 -43zM523 172q40 0 77.5 14.5t67 39t47.5 55.5t18 64v153l-105 -2q-73 -1 -136 -17.5t-101.5 -53.5t-38.5 -100q0 -72 50 -112.5t121 -40.5zM710 1155l-132 140l-146 -140h-217l264 259h202l257 -259h-228z" />
    <glyph glyph-name="uni1EA5" unicode="&#x1ea5;" horiz-adv-x="1147" 
d="M425 -20q-99 0 -178 37t-125 107.5t-46 171.5q0 170 127 258.5t401 91.5l129 2v62q0 71 -41.5 109.5t-128.5 37.5q-64 -1 -121.5 -30t-78.5 -101h-243q6 112 65 184.5t160.5 108t230.5 35.5q159 0 255 -39.5t139 -113t43 -174.5v-727h-244l-24 178q-53 -112 -132.5 -155
t-187.5 -43zM523 172q40 0 77.5 14.5t67 39t47.5 55.5t18 64v153l-105 -2q-73 -1 -136 -17.5t-101.5 -53.5t-38.5 -100q0 -72 50 -112.5t121 -40.5zM710 1155l-132 140l-146 -140h-217l264 259h202l257 -259h-228zM958 1659h225l-225 -261h-152z" />
    <glyph glyph-name="uni1EAD" unicode="&#x1ead;" horiz-adv-x="1147" 
d="M425 -20q-99 0 -178 37t-125 107.5t-46 171.5q0 170 127 258.5t401 91.5l129 2v62q0 71 -41.5 109.5t-128.5 37.5q-64 -1 -121.5 -30t-78.5 -101h-243q6 112 65 184.5t160.5 108t230.5 35.5q159 0 255 -39.5t139 -113t43 -174.5v-727h-244l-24 178q-53 -112 -132.5 -155
t-187.5 -43zM523 172q40 0 77.5 14.5t67 39t47.5 55.5t18 64v153l-105 -2q-73 -1 -136 -17.5t-101.5 -53.5t-38.5 -100q0 -72 50 -112.5t121 -40.5zM435 -398v238h279v-238h-279zM710 1155l-132 140l-146 -140h-217l264 259h202l257 -259h-228z" />
    <glyph glyph-name="uni1EA7" unicode="&#x1ea7;" horiz-adv-x="1147" 
d="M425 -20q-99 0 -178 37t-125 107.5t-46 171.5q0 170 127 258.5t401 91.5l129 2v62q0 71 -41.5 109.5t-128.5 37.5q-64 -1 -121.5 -30t-78.5 -101h-243q6 112 65 184.5t160.5 108t230.5 35.5q159 0 255 -39.5t139 -113t43 -174.5v-727h-244l-24 178q-53 -112 -132.5 -155
t-187.5 -43zM523 172q40 0 77.5 14.5t67 39t47.5 55.5t18 64v153l-105 -2q-73 -1 -136 -17.5t-101.5 -53.5t-38.5 -100q0 -72 50 -112.5t121 -40.5zM710 1155l-132 140l-146 -140h-217l264 259h202l257 -259h-228zM892 1659l157 -261h-156l-227 261h226z" />
    <glyph glyph-name="uni1EA9" unicode="&#x1ea9;" horiz-adv-x="1147" 
d="M425 -20q-99 0 -178 37t-125 107.5t-46 171.5q0 170 127 258.5t401 91.5l129 2v62q0 71 -41.5 109.5t-128.5 37.5q-64 -1 -121.5 -30t-78.5 -101h-243q6 112 65 184.5t160.5 108t230.5 35.5q159 0 255 -39.5t139 -113t43 -174.5v-727h-244l-24 178q-53 -112 -132.5 -155
t-187.5 -43zM523 172q40 0 77.5 14.5t67 39t47.5 55.5t18 64v153l-105 -2q-73 -1 -136 -17.5t-101.5 -53.5t-38.5 -100q0 -72 50 -112.5t121 -40.5zM717 1155l-132 140l-146 -140h-217l264 259h202l257 -259h-228zM655 1703l68 -106q36 24 75 22t57 -32q21 -33 7.5 -66.5
t-53.5 -58.5l69 -108q102 60 124.5 141.5t-32.5 166.5q-45 71 -134.5 85.5t-180.5 -44.5z" />
    <glyph glyph-name="uni1EAB" unicode="&#x1eab;" horiz-adv-x="1147" 
d="M425 -20q-99 0 -178 37t-125 107.5t-46 171.5q0 170 127 258.5t401 91.5l129 2v62q0 71 -41.5 109.5t-128.5 37.5q-64 -1 -121.5 -30t-78.5 -101h-243q6 112 65 184.5t160.5 108t230.5 35.5q159 0 255 -39.5t139 -113t43 -174.5v-727h-244l-24 178q-53 -112 -132.5 -155
t-187.5 -43zM523 172q40 0 77.5 14.5t67 39t47.5 55.5t18 64v153l-105 -2q-73 -1 -136 -17.5t-101.5 -53.5t-38.5 -100q0 -72 50 -112.5t121 -40.5zM713 1155l-132 140l-146 -140h-217l264 259h202l257 -259h-228zM924 1586q-31 -25 -83 -47.5t-119 -22.5q-56 0 -101.5 14
t-89.5 27.5t-95 13.5t-84.5 -15.5t-72.5 -48.5l-45 153q36 37 80 64t112 27q56 0 106.5 -15t97 -30.5t91.5 -15.5q53 0 94 22.5t73 46.5z" />
    <glyph glyph-name="uni0201" unicode="&#x201;" horiz-adv-x="1147" 
d="M425 -20q-99 0 -178 37t-125 107.5t-46 171.5q0 170 127 258.5t401 91.5l129 2v62q0 71 -41.5 109.5t-128.5 37.5q-64 -1 -121.5 -30t-78.5 -101h-243q6 112 65 184.5t160.5 108t230.5 35.5q159 0 255 -39.5t139 -113t43 -174.5v-727h-244l-24 178q-53 -112 -132.5 -155
t-187.5 -43zM523 172q40 0 77.5 14.5t67 39t47.5 55.5t18 64v153l-105 -2q-73 -1 -136 -17.5t-101.5 -53.5t-38.5 -100q0 -72 50 -112.5t121 -40.5zM657 1446l201 -291h-211l-257 291h267zM258 1446l247 -291h-210l-312 291h275z" />
    <glyph glyph-name="adieresis" unicode="&#xe4;" horiz-adv-x="1147" 
d="M425 -20q-99 0 -178 37t-125 107.5t-46 171.5q0 170 127 258.5t401 91.5l129 2v62q0 71 -41.5 109.5t-128.5 37.5q-64 -1 -121.5 -30t-78.5 -101h-243q6 112 65 184.5t160.5 108t230.5 35.5q159 0 255 -39.5t139 -113t43 -174.5v-727h-244l-24 178q-53 -112 -132.5 -155
t-187.5 -43zM523 172q40 0 77.5 14.5t67 39t47.5 55.5t18 64v153l-105 -2q-73 -1 -136 -17.5t-101.5 -53.5t-38.5 -100q0 -72 50 -112.5t121 -40.5zM674 1184l3 238h273l-2 -238h-274zM208 1184l3 238h273l-2 -238h-274z" />
    <glyph glyph-name="uni1EA1" unicode="&#x1ea1;" horiz-adv-x="1147" 
d="M425 -20q-99 0 -178 37t-125 107.5t-46 171.5q0 170 127 258.5t401 91.5l129 2v62q0 71 -41.5 109.5t-128.5 37.5q-64 -1 -121.5 -30t-78.5 -101h-243q6 112 65 184.5t160.5 108t230.5 35.5q159 0 255 -39.5t139 -113t43 -174.5v-727h-244l-24 178q-53 -112 -132.5 -155
t-187.5 -43zM523 172q40 0 77.5 14.5t67 39t47.5 55.5t18 64v153l-105 -2q-73 -1 -136 -17.5t-101.5 -53.5t-38.5 -100q0 -72 50 -112.5t121 -40.5zM435 -398v238h279v-238h-279z" />
    <glyph glyph-name="agrave" unicode="&#xe0;" horiz-adv-x="1147" 
d="M425 -20q-99 0 -178 37t-125 107.5t-46 171.5q0 170 127 258.5t401 91.5l129 2v62q0 71 -41.5 109.5t-128.5 37.5q-64 -1 -121.5 -30t-78.5 -101h-243q6 112 65 184.5t160.5 108t230.5 35.5q159 0 255 -39.5t139 -113t43 -174.5v-727h-244l-24 178q-53 -112 -132.5 -155
t-187.5 -43zM523 172q40 0 77.5 14.5t67 39t47.5 55.5t18 64v153l-105 -2q-73 -1 -136 -17.5t-101.5 -53.5t-38.5 -100q0 -72 50 -112.5t121 -40.5zM473 1446h-301l297 -291h210z" />
    <glyph glyph-name="uni1EA3" unicode="&#x1ea3;" horiz-adv-x="1147" 
d="M425 -20q-99 0 -178 37t-125 107.5t-46 171.5q0 170 127 258.5t401 91.5l129 2v62q0 71 -41.5 109.5t-128.5 37.5q-64 -1 -121.5 -30t-78.5 -101h-243q6 112 65 184.5t160.5 108t230.5 35.5q159 0 255 -39.5t139 -113t43 -174.5v-727h-244l-24 178q-53 -112 -132.5 -155
t-187.5 -43zM523 172q40 0 77.5 14.5t67 39t47.5 55.5t18 64v153l-105 -2q-73 -1 -136 -17.5t-101.5 -53.5t-38.5 -100q0 -72 50 -112.5t121 -40.5zM439 1503l68 -106q36 24 75 22t57 -32q21 -33 7.5 -66.5t-53.5 -58.5l69 -108q102 60 124.5 141.5t-32.5 166.5
q-45 71 -134.5 85.5t-180.5 -44.5z" />
    <glyph glyph-name="uni0203" unicode="&#x203;" horiz-adv-x="1147" 
d="M425 -20q-99 0 -178 37t-125 107.5t-46 171.5q0 170 127 258.5t401 91.5l129 2v62q0 71 -41.5 109.5t-128.5 37.5q-64 -1 -121.5 -30t-78.5 -101h-243q6 112 65 184.5t160.5 108t230.5 35.5q159 0 255 -39.5t139 -113t43 -174.5v-727h-244l-24 178q-53 -112 -132.5 -155
t-187.5 -43zM523 172q40 0 77.5 14.5t67 39t47.5 55.5t18 64v153l-105 -2q-73 -1 -136 -17.5t-101.5 -53.5t-38.5 -100q0 -72 50 -112.5t121 -40.5zM928 1180q-17 84 -68 140.5t-124.5 85.5t-158.5 29q-84 0 -157.5 -28.5t-124.5 -85.5t-68 -141h184q15 50 58 81.5t108 31.5
q64 0 107.5 -31.5t60.5 -81.5h183z" />
    <glyph glyph-name="amacron" unicode="&#x101;" horiz-adv-x="1147" 
d="M425 -20q-99 0 -178 37t-125 107.5t-46 171.5q0 170 127 258.5t401 91.5l129 2v62q0 71 -41.5 109.5t-128.5 37.5q-64 -1 -121.5 -30t-78.5 -101h-243q6 112 65 184.5t160.5 108t230.5 35.5q159 0 255 -39.5t139 -113t43 -174.5v-727h-244l-24 178q-53 -112 -132.5 -155
t-187.5 -43zM523 172q40 0 77.5 14.5t67 39t47.5 55.5t18 64v153l-105 -2q-73 -1 -136 -17.5t-101.5 -53.5t-38.5 -100q0 -72 50 -112.5t121 -40.5zM931 1392v-187h-703v187h703z" />
    <glyph glyph-name="aogonek" unicode="&#x105;" horiz-adv-x="1147" 
d="M425 -20q-99 0 -178 37t-125 107.5t-46 171.5q0 170 127 258.5t401 91.5l129 2v62q0 71 -41.5 109.5t-128.5 37.5q-64 -1 -121.5 -30t-78.5 -101h-243q6 112 65 184.5t160.5 108t230.5 35.5q159 0 255 -39.5t139 -113t43 -174.5v-727h-244l-24 178q-53 -112 -132.5 -155
t-187.5 -43zM523 172q40 0 77.5 14.5t67 39t47.5 55.5t18 64v153l-105 -2q-73 -1 -136 -17.5t-101.5 -53.5t-38.5 -100q0 -72 50 -112.5t121 -40.5zM609 -171q0 55 37.5 101.5t154.5 85.5l204 -5q-106 -39 -145.5 -72t-39.5 -74q0 -32 17 -48t55 -16q46 0 81 13.5t64 30.5
v-132q-28 -17 -85.5 -32.5t-125.5 -15.5q-102 0 -159.5 42t-57.5 122z" />
    <glyph glyph-name="aring" unicode="&#xe5;" horiz-adv-x="1147" 
d="M425 -20q-99 0 -178 37t-125 107.5t-46 171.5q0 170 127 258.5t401 91.5l129 2v62q0 71 -41.5 109.5t-128.5 37.5q-64 -1 -121.5 -30t-78.5 -101h-243q6 112 65 184.5t160.5 108t230.5 35.5q159 0 255 -39.5t139 -113t43 -174.5v-727h-244l-24 178q-53 -112 -132.5 -155
t-187.5 -43zM523 172q40 0 77.5 14.5t67 39t47.5 55.5t18 64v153l-105 -2q-73 -1 -136 -17.5t-101.5 -53.5t-38.5 -100q0 -72 50 -112.5t121 -40.5zM797 1352q0 -91 -63.5 -154t-154.5 -63t-154 64t-63 157q0 88 64 149t153 61q60 0 109.5 -28.5t79 -77t29.5 -108.5z
M676 1351q0 43 -28.5 71t-70.5 28q-41 0 -71.5 -28t-30.5 -71q0 -40 30.5 -71t71.5 -31q42 0 70.5 31t28.5 71z" />
    <glyph glyph-name="aringacute" unicode="&#x1fb;" horiz-adv-x="1147" 
d="M425 -20q-99 0 -178 37t-125 107.5t-46 171.5q0 170 127 258.5t401 91.5l129 2v62q0 71 -41.5 109.5t-128.5 37.5q-64 -1 -121.5 -30t-78.5 -101h-243q6 112 65 184.5t160.5 108t230.5 35.5q159 0 255 -39.5t139 -113t43 -174.5v-727h-244l-24 178q-53 -112 -132.5 -155
t-187.5 -43zM523 172q40 0 77.5 14.5t67 39t47.5 55.5t18 64v153l-105 -2q-73 -1 -136 -17.5t-101.5 -53.5t-38.5 -100q0 -72 50 -112.5t121 -40.5zM580 973q-88 0 -148 57t-60 146q0 84 61 139.5t147 55.5q87 0 147.5 -56.5t60.5 -142.5q0 -88 -60.5 -143.5t-147.5 -55.5z
M578 1068q41 0 70.5 31t29.5 71q0 43 -29.5 71t-70.5 28q-40 0 -71 -28t-31 -71q0 -40 31 -71t71 -31zM512 1322l41 174h171l-73 -174h-139z" />
    <glyph glyph-name="atilde" unicode="&#xe3;" horiz-adv-x="1147" 
d="M425 -20q-99 0 -178 37t-125 107.5t-46 171.5q0 170 127 258.5t401 91.5l129 2v62q0 71 -41.5 109.5t-128.5 37.5q-64 -1 -121.5 -30t-78.5 -101h-243q6 112 65 184.5t160.5 108t230.5 35.5q159 0 255 -39.5t139 -113t43 -174.5v-727h-244l-24 178q-53 -112 -132.5 -155
t-187.5 -43zM523 172q40 0 77.5 14.5t67 39t47.5 55.5t18 64v153l-105 -2q-73 -1 -136 -17.5t-101.5 -53.5t-38.5 -100q0 -72 50 -112.5t121 -40.5zM930 1270q-31 -25 -83 -47.5t-119 -22.5q-56 0 -101.5 14t-89.5 27.5t-95 13.5t-84.5 -15.5t-72.5 -48.5l-45 153
q36 37 80 64t112 27q56 0 106.5 -15t97 -30.5t91.5 -15.5q53 0 94 22.5t73 46.5z" />
    <glyph glyph-name="ae" unicode="&#xe6;" horiz-adv-x="1804" 
d="M425 -20q-99 0 -178 37t-125 107.5t-46 171.5q0 170 127 258.5t401 91.5l130 2v62q0 73 -45 110.5t-126 36.5q-63 -1 -121 -31t-79 -100h-243q5 107 64.5 180t161 110.5t230.5 37.5q158 0 254.5 -41t140 -114.5t43.5 -171.5l-169 -493q-18 -79 -72.5 -136t-142 -87.5
t-205.5 -30.5zM523 172q62 0 109 28.5t74 72t28 87.5v138l-106 -2q-72 -1 -135 -17.5t-102 -53.5t-39 -100q0 -72 50 -112.5t121 -40.5zM1032 450q-1 -79 25 -137.5t75.5 -90t119.5 -31.5q75 0 131.5 32t78.5 105h263q-17 -110 -87.5 -188t-170.5 -119t-208 -41
q-153 0 -269.5 64.5t-181.5 182.5t-65 278q0 155 59 279.5t171.5 197t270.5 72.5t265.5 -66.5t162 -185t54.5 -273.5v-79h-694zM1031 624h422q0 62 -23 114t-69.5 82t-116.5 30q-68 0 -115.5 -32.5t-72.5 -84.5t-25 -109z" />
    <glyph glyph-name="aeacute" unicode="&#x1fd;" horiz-adv-x="1804" 
d="M425 -20q-99 0 -178 37t-125 107.5t-46 171.5q0 170 127 258.5t401 91.5l130 2v62q0 73 -45 110.5t-126 36.5q-63 -1 -121 -31t-79 -100h-243q5 107 64.5 180t161 110.5t230.5 37.5q158 0 254.5 -41t140 -114.5t43.5 -171.5l-169 -493q-18 -79 -72.5 -136t-142 -87.5
t-205.5 -30.5zM523 172q62 0 109 28.5t74 72t28 87.5v138l-106 -2q-72 -1 -135 -17.5t-102 -53.5t-39 -100q0 -72 50 -112.5t121 -40.5zM1032 450q-1 -79 25 -137.5t75.5 -90t119.5 -31.5q75 0 131.5 32t78.5 105h263q-17 -110 -87.5 -188t-170.5 -119t-208 -41
q-153 0 -269.5 64.5t-181.5 182.5t-65 278q0 155 59 279.5t171.5 197t270.5 72.5t265.5 -66.5t162 -185t54.5 -273.5v-79h-694zM1031 624h422q0 62 -23 114t-69.5 82t-116.5 30q-68 0 -115.5 -32.5t-72.5 -84.5t-25 -109zM957 1446h301l-297 -291h-210z" />
    <glyph glyph-name="b" unicode="b" horiz-adv-x="1210" 
d="M701 -20q-77 0 -133 20t-95 53.5t-64 74.5t-39 84l-33 -212h-212v1486h293v-592q19 33 49 62t70 51t88.5 34.5t103.5 12.5q193 0 302.5 -139t109.5 -392q0 -164 -50 -286t-148 -189.5t-242 -67.5zM637 190q94 0 156.5 77.5t62.5 259.5q0 161 -59.5 238t-161.5 77
q-73 0 -121 -34.5t-71.5 -104.5t-24.5 -176q0 -183 54.5 -260t164.5 -77z" />
    <glyph glyph-name="c" unicode="c" horiz-adv-x="1080" 
d="M568 1054q130 0 224.5 -53t149 -143t62.5 -201h-243q-7 41 -29 81.5t-62 67t-100 26.5q-102 0 -165.5 -78.5t-63.5 -238.5q0 -151 62 -239.5t173 -88.5q59 0 98.5 29t61.5 69.5t28 75.5h237q-7 -107 -62 -193.5t-149.5 -137t-221.5 -50.5q-144 0 -257 64t-177.5 183.5
t-64.5 285.5q0 160 62 282t174.5 190.5t262.5 68.5z" />
    <glyph glyph-name="cacute" unicode="&#x107;" horiz-adv-x="1080" 
d="M568 1054q130 0 224.5 -53t149 -143t62.5 -201h-243q-7 41 -29 81.5t-62 67t-100 26.5q-102 0 -165.5 -78.5t-63.5 -238.5q0 -151 62 -239.5t173 -88.5q59 0 98.5 29t61.5 69.5t28 75.5h237q-7 -107 -62 -193.5t-149.5 -137t-221.5 -50.5q-144 0 -257 64t-177.5 183.5
t-64.5 285.5q0 160 62 282t174.5 190.5t262.5 68.5zM667 1446h301l-297 -291h-210z" />
    <glyph glyph-name="ccaron" unicode="&#x10d;" horiz-adv-x="1080" 
d="M568 1054q130 0 224.5 -53t149 -143t62.5 -201h-243q-7 41 -29 81.5t-62 67t-100 26.5q-102 0 -165.5 -78.5t-63.5 -238.5q0 -151 62 -239.5t173 -88.5q59 0 98.5 29t61.5 69.5t28 75.5h237q-7 -107 -62 -193.5t-149.5 -137t-221.5 -50.5q-144 0 -257 64t-177.5 183.5
t-64.5 285.5q0 160 62 282t174.5 190.5t262.5 68.5zM466 1155l-263 261h217l146 -150l132 150h228l-257 -261h-203z" />
    <glyph glyph-name="ccedilla" unicode="&#xe7;" horiz-adv-x="1080" 
d="M568 1054q130 0 224.5 -53t149 -143t62.5 -201h-243q-7 41 -29 81.5t-62 67t-100 26.5q-102 0 -165.5 -78.5t-63.5 -238.5q0 -151 62 -239.5t173 -88.5q59 0 98.5 29t61.5 69.5t28 75.5h237q-7 -107 -62 -193.5t-149.5 -137t-221.5 -50.5q-144 0 -257 64t-177.5 183.5
t-64.5 285.5q0 160 62 282t174.5 190.5t262.5 68.5zM798 -263q0 -51 -33 -87.5t-87.5 -55.5t-118.5 -19q-63 0 -121.5 12t-108.5 42l40 98q31 -19 70.5 -34t83.5 -15q48 0 74 16.5t26 45.5q0 39 -38 60t-132 22q-12 0 -16.5 3.5t0.5 15.5l73 169h130l-45 -117q76 -2 120 -26
t63.5 -59.5t19.5 -70.5z" />
    <glyph glyph-name="ccircumflex" unicode="&#x109;" horiz-adv-x="1080" 
d="M568 1054q130 0 224.5 -53t149 -143t62.5 -201h-243q-7 41 -29 81.5t-62 67t-100 26.5q-102 0 -165.5 -78.5t-63.5 -238.5q0 -151 62 -239.5t173 -88.5q59 0 98.5 29t61.5 69.5t28 75.5h237q-7 -107 -62 -193.5t-149.5 -137t-221.5 -50.5q-144 0 -257 64t-177.5 183.5
t-64.5 285.5q0 160 62 282t174.5 190.5t262.5 68.5zM698 1155l-132 140l-146 -140h-217l264 259h202l257 -259h-228z" />
    <glyph glyph-name="cdotaccent" unicode="&#x10b;" horiz-adv-x="1080" 
d="M568 1054q130 0 224.5 -53t149 -143t62.5 -201h-243q-7 41 -29 81.5t-62 67t-100 26.5q-102 0 -165.5 -78.5t-63.5 -238.5q0 -151 62 -239.5t173 -88.5q59 0 98.5 29t61.5 69.5t28 75.5h237q-7 -107 -62 -193.5t-149.5 -137t-221.5 -50.5q-144 0 -257 64t-177.5 183.5
t-64.5 285.5q0 160 62 282t174.5 190.5t262.5 68.5zM427 1184v238h279v-238h-279z" />
    <glyph glyph-name="d" unicode="d" horiz-adv-x="1210" 
d="M509 -20q-208 0 -324 143.5t-116 399.5q0 162 47 281t139 184.5t225 65.5q56 0 104.5 -12.5t88.5 -34.5t70 -51t49 -62v592h293v-1486h-212l-33 212q-14 -43 -39 -84t-64 -74.5t-95.5 -53.5t-132.5 -20zM573 190q110 0 164.5 77t54.5 260q-1 106 -25 176t-71.5 104.5
t-120.5 34.5q-95 0 -158 -72.5t-63 -242.5q0 -173 59 -255t160 -82z" />
    <glyph glyph-name="eth" unicode="&#xf0;" horiz-adv-x="1176" 
d="M588 -20q-154 0 -271 68.5t-182.5 186t-65.5 264.5q0 130 40 228.5t108.5 165.5t156.5 101t185 34q79 0 144.5 -21.5t115.5 -61t84 -95.5q-49 149 -123.5 254t-157 175.5t-154.5 115.5t-117 74l346 12q111 -59 189.5 -149t127.5 -208.5t71.5 -263.5t21.5 -314
t-65.5 -296.5t-180.5 -198.5t-273 -71zM577 197q80 0 128.5 49t69 123.5t20.5 151.5q0 86 -20 158.5t-68 116t-130 43.5q-81 0 -129.5 -45t-71 -118t-22.5 -155q0 -76 22 -151t71 -124t130 -49zM331 1055v188l703 229v-187z" />
    <glyph glyph-name="dcaron" unicode="&#x10f;" horiz-adv-x="1256" 
d="M509 -20q-208 0 -324 143.5t-116 399.5q0 162 47 281t139 184.5t225 65.5q56 0 104.5 -12.5t88.5 -34.5t70 -51t49 -62v592h293v-1486h-212l-33 212q-14 -43 -39 -84t-64 -74.5t-95.5 -53.5t-132.5 -20zM573 190q110 0 164.5 77t54.5 260q-1 106 -25 176t-71.5 104.5
t-120.5 34.5q-95 0 -158 -72.5t-63 -242.5q0 -173 59 -255t160 -82zM1209 1015l82 202l-71 12v222h199v-233l-86 -203h-124z" />
    <glyph glyph-name="dcroat" unicode="&#x111;" horiz-adv-x="1278" 
d="M1218 1324v-164h-673v164h673zM509 -20q-208 0 -324 143.5t-116 399.5q0 162 47 281t139 184.5t225 65.5q56 0 104.5 -12.5t88.5 -34.5t70 -51t49 -62v592h293v-1486h-212l-33 212q-14 -43 -39 -84t-64 -74.5t-95.5 -53.5t-132.5 -20zM573 190q110 0 164.5 77t54.5 260
q-1 106 -25 176t-71.5 104.5t-120.5 34.5q-95 0 -158 -72.5t-63 -242.5q0 -173 59 -255t160 -82z" />
    <glyph glyph-name="uni1E0D" unicode="&#x1e0d;" horiz-adv-x="1210" 
d="M509 -20q-208 0 -324 143.5t-116 399.5q0 162 47 281t139 184.5t225 65.5q56 0 104.5 -12.5t88.5 -34.5t70 -51t49 -62v592h293v-1486h-212l-33 212q-14 -43 -39 -84t-64 -74.5t-95.5 -53.5t-132.5 -20zM573 190q110 0 164.5 77t54.5 260q-1 106 -25 176t-71.5 104.5
t-120.5 34.5q-95 0 -158 -72.5t-63 -242.5q0 -173 59 -255t160 -82zM399 -398v238h279v-238h-279z" />
    <glyph glyph-name="e" unicode="e" horiz-adv-x="1137" 
d="M365 450q-1 -79 25 -137.5t75.5 -90t119.5 -31.5q75 0 131.5 32t78.5 105h263q-17 -110 -87.5 -188t-170.5 -119t-208 -41q-153 0 -269.5 64.5t-181.5 182.5t-65 278q0 155 59 279.5t171.5 197t270.5 72.5t265.5 -66.5t162 -185t54.5 -273.5v-79h-694zM364 624h422
q0 62 -23 114t-69.5 82t-116.5 30q-68 0 -115.5 -32.5t-72.5 -84.5t-25 -109z" />
    <glyph glyph-name="eacute" unicode="&#xe9;" horiz-adv-x="1137" 
d="M365 450q-1 -79 25 -137.5t75.5 -90t119.5 -31.5q75 0 131.5 32t78.5 105h263q-17 -110 -87.5 -188t-170.5 -119t-208 -41q-153 0 -269.5 64.5t-181.5 182.5t-65 278q0 155 59 279.5t171.5 197t270.5 72.5t265.5 -66.5t162 -185t54.5 -273.5v-79h-694zM364 624h422
q0 62 -23 114t-69.5 82t-116.5 30q-68 0 -115.5 -32.5t-72.5 -84.5t-25 -109zM678 1446h301l-297 -291h-210z" />
    <glyph glyph-name="ebreve" unicode="&#x115;" horiz-adv-x="1137" 
d="M365 450q-1 -79 25 -137.5t75.5 -90t119.5 -31.5q75 0 131.5 32t78.5 105h263q-17 -110 -87.5 -188t-170.5 -119t-208 -41q-153 0 -269.5 64.5t-181.5 182.5t-65 278q0 155 59 279.5t171.5 197t270.5 72.5t265.5 -66.5t162 -185t54.5 -273.5v-79h-694zM364 624h422
q0 62 -23 114t-69.5 82t-116.5 30q-68 0 -115.5 -32.5t-72.5 -84.5t-25 -109zM929 1410q-17 -84 -68 -140.5t-124.5 -85.5t-158.5 -29q-84 0 -157.5 28.5t-124.5 85.5t-68 141h184q15 -50 58 -81.5t108 -31.5q64 0 107.5 31.5t60.5 81.5h183z" />
    <glyph glyph-name="ecaron" unicode="&#x11b;" horiz-adv-x="1137" 
d="M365 450q-1 -79 25 -137.5t75.5 -90t119.5 -31.5q75 0 131.5 32t78.5 105h263q-17 -110 -87.5 -188t-170.5 -119t-208 -41q-153 0 -269.5 64.5t-181.5 182.5t-65 278q0 155 59 279.5t171.5 197t270.5 72.5t265.5 -66.5t162 -185t54.5 -273.5v-79h-694zM364 624h422
q0 62 -23 114t-69.5 82t-116.5 30q-68 0 -115.5 -32.5t-72.5 -84.5t-25 -109zM474 1155l-263 261h217l146 -150l132 150h228l-257 -261h-203z" />
    <glyph glyph-name="ecircumflex" unicode="&#xea;" horiz-adv-x="1137" 
d="M365 450q-1 -79 25 -137.5t75.5 -90t119.5 -31.5q75 0 131.5 32t78.5 105h263q-17 -110 -87.5 -188t-170.5 -119t-208 -41q-153 0 -269.5 64.5t-181.5 182.5t-65 278q0 155 59 279.5t171.5 197t270.5 72.5t265.5 -66.5t162 -185t54.5 -273.5v-79h-694zM364 624h422
q0 62 -23 114t-69.5 82t-116.5 30q-68 0 -115.5 -32.5t-72.5 -84.5t-25 -109zM709 1155l-132 140l-146 -140h-217l264 259h202l257 -259h-228z" />
    <glyph glyph-name="uni1EBF" unicode="&#x1ebf;" horiz-adv-x="1137" 
d="M365 450q-1 -79 25 -137.5t75.5 -90t119.5 -31.5q75 0 131.5 32t78.5 105h263q-17 -110 -87.5 -188t-170.5 -119t-208 -41q-153 0 -269.5 64.5t-181.5 182.5t-65 278q0 155 59 279.5t171.5 197t270.5 72.5t265.5 -66.5t162 -185t54.5 -273.5v-79h-694zM364 624h422
q0 62 -23 114t-69.5 82t-116.5 30q-68 0 -115.5 -32.5t-72.5 -84.5t-25 -109zM709 1155l-132 140l-146 -140h-217l264 259h202l257 -259h-228zM957 1659h225l-225 -261h-152z" />
    <glyph glyph-name="uni1EC7" unicode="&#x1ec7;" horiz-adv-x="1137" 
d="M365 450q-1 -79 25 -137.5t75.5 -90t119.5 -31.5q75 0 131.5 32t78.5 105h263q-17 -110 -87.5 -188t-170.5 -119t-208 -41q-153 0 -269.5 64.5t-181.5 182.5t-65 278q0 155 59 279.5t171.5 197t270.5 72.5t265.5 -66.5t162 -185t54.5 -273.5v-79h-694zM364 624h422
q0 62 -23 114t-69.5 82t-116.5 30q-68 0 -115.5 -32.5t-72.5 -84.5t-25 -109zM443 -398v238h279v-238h-279zM709 1155l-132 140l-146 -140h-217l264 259h202l257 -259h-228z" />
    <glyph glyph-name="uni1EC1" unicode="&#x1ec1;" horiz-adv-x="1137" 
d="M365 450q-1 -79 25 -137.5t75.5 -90t119.5 -31.5q75 0 131.5 32t78.5 105h263q-17 -110 -87.5 -188t-170.5 -119t-208 -41q-153 0 -269.5 64.5t-181.5 182.5t-65 278q0 155 59 279.5t171.5 197t270.5 72.5t265.5 -66.5t162 -185t54.5 -273.5v-79h-694zM364 624h422
q0 62 -23 114t-69.5 82t-116.5 30q-68 0 -115.5 -32.5t-72.5 -84.5t-25 -109zM709 1155l-132 140l-146 -140h-217l264 259h202l257 -259h-228zM891 1659l157 -261h-156l-227 261h226z" />
    <glyph glyph-name="uni1EC3" unicode="&#x1ec3;" horiz-adv-x="1137" 
d="M365 450q-1 -79 25 -137.5t75.5 -90t119.5 -31.5q75 0 131.5 32t78.5 105h263q-17 -110 -87.5 -188t-170.5 -119t-208 -41q-153 0 -269.5 64.5t-181.5 182.5t-65 278q0 155 59 279.5t171.5 197t270.5 72.5t265.5 -66.5t162 -185t54.5 -273.5v-79h-694zM364 624h422
q0 62 -23 114t-69.5 82t-116.5 30q-68 0 -115.5 -32.5t-72.5 -84.5t-25 -109zM716 1155l-132 140l-146 -140h-217l264 259h202l257 -259h-228zM654 1703l68 -106q36 24 75 22t57 -32q21 -33 7.5 -66.5t-53.5 -58.5l69 -108q102 60 124.5 141.5t-32.5 166.5
q-45 71 -134.5 85.5t-180.5 -44.5z" />
    <glyph glyph-name="uni1EC5" unicode="&#x1ec5;" horiz-adv-x="1137" 
d="M365 450q-1 -79 25 -137.5t75.5 -90t119.5 -31.5q75 0 131.5 32t78.5 105h263q-17 -110 -87.5 -188t-170.5 -119t-208 -41q-153 0 -269.5 64.5t-181.5 182.5t-65 278q0 155 59 279.5t171.5 197t270.5 72.5t265.5 -66.5t162 -185t54.5 -273.5v-79h-694zM364 624h422
q0 62 -23 114t-69.5 82t-116.5 30q-68 0 -115.5 -32.5t-72.5 -84.5t-25 -109zM712 1155l-132 140l-146 -140h-217l264 259h202l257 -259h-228zM923 1586q-31 -25 -83 -47.5t-119 -22.5q-56 0 -101.5 14t-89.5 27.5t-95 13.5t-84.5 -15.5t-72.5 -48.5l-45 153q36 37 80 64
t112 27q56 0 106.5 -15t97 -30.5t91.5 -15.5q53 0 94 22.5t73 46.5z" />
    <glyph glyph-name="uni0205" unicode="&#x205;" horiz-adv-x="1137" 
d="M365 450q-1 -79 25 -137.5t75.5 -90t119.5 -31.5q75 0 131.5 32t78.5 105h263q-17 -110 -87.5 -188t-170.5 -119t-208 -41q-153 0 -269.5 64.5t-181.5 182.5t-65 278q0 155 59 279.5t171.5 197t270.5 72.5t265.5 -66.5t162 -185t54.5 -273.5v-79h-694zM364 624h422
q0 62 -23 114t-69.5 82t-116.5 30q-68 0 -115.5 -32.5t-72.5 -84.5t-25 -109zM656 1446l201 -291h-211l-257 291h267zM257 1446l247 -291h-210l-312 291h275z" />
    <glyph glyph-name="edieresis" unicode="&#xeb;" horiz-adv-x="1137" 
d="M365 450q-1 -79 25 -137.5t75.5 -90t119.5 -31.5q75 0 131.5 32t78.5 105h263q-17 -110 -87.5 -188t-170.5 -119t-208 -41q-153 0 -269.5 64.5t-181.5 182.5t-65 278q0 155 59 279.5t171.5 197t270.5 72.5t265.5 -66.5t162 -185t54.5 -273.5v-79h-694zM364 624h422
q0 62 -23 114t-69.5 82t-116.5 30q-68 0 -115.5 -32.5t-72.5 -84.5t-25 -109zM673 1184l3 238h273l-2 -238h-274zM207 1184l3 238h273l-2 -238h-274z" />
    <glyph glyph-name="edotaccent" unicode="&#x117;" horiz-adv-x="1137" 
d="M365 450q-1 -79 25 -137.5t75.5 -90t119.5 -31.5q75 0 131.5 32t78.5 105h263q-17 -110 -87.5 -188t-170.5 -119t-208 -41q-153 0 -269.5 64.5t-181.5 182.5t-65 278q0 155 59 279.5t171.5 197t270.5 72.5t265.5 -66.5t162 -185t54.5 -273.5v-79h-694zM364 624h422
q0 62 -23 114t-69.5 82t-116.5 30q-68 0 -115.5 -32.5t-72.5 -84.5t-25 -109zM439 1184v238h279v-238h-279z" />
    <glyph glyph-name="uni1EB9" unicode="&#x1eb9;" horiz-adv-x="1137" 
d="M365 450q-1 -79 25 -137.5t75.5 -90t119.5 -31.5q75 0 131.5 32t78.5 105h263q-17 -110 -87.5 -188t-170.5 -119t-208 -41q-153 0 -269.5 64.5t-181.5 182.5t-65 278q0 155 59 279.5t171.5 197t270.5 72.5t265.5 -66.5t162 -185t54.5 -273.5v-79h-694zM364 624h422
q0 62 -23 114t-69.5 82t-116.5 30q-68 0 -115.5 -32.5t-72.5 -84.5t-25 -109zM443 -398v238h279v-238h-279z" />
    <glyph glyph-name="egrave" unicode="&#xe8;" horiz-adv-x="1137" 
d="M365 450q-1 -79 25 -137.5t75.5 -90t119.5 -31.5q75 0 131.5 32t78.5 105h263q-17 -110 -87.5 -188t-170.5 -119t-208 -41q-153 0 -269.5 64.5t-181.5 182.5t-65 278q0 155 59 279.5t171.5 197t270.5 72.5t265.5 -66.5t162 -185t54.5 -273.5v-79h-694zM364 624h422
q0 62 -23 114t-69.5 82t-116.5 30q-68 0 -115.5 -32.5t-72.5 -84.5t-25 -109zM472 1446h-301l297 -291h210z" />
    <glyph glyph-name="uni1EBB" unicode="&#x1ebb;" horiz-adv-x="1137" 
d="M365 450q-1 -79 25 -137.5t75.5 -90t119.5 -31.5q75 0 131.5 32t78.5 105h263q-17 -110 -87.5 -188t-170.5 -119t-208 -41q-153 0 -269.5 64.5t-181.5 182.5t-65 278q0 155 59 279.5t171.5 197t270.5 72.5t265.5 -66.5t162 -185t54.5 -273.5v-79h-694zM364 624h422
q0 62 -23 114t-69.5 82t-116.5 30q-68 0 -115.5 -32.5t-72.5 -84.5t-25 -109zM438 1503l68 -106q36 24 75 22t57 -32q21 -33 7.5 -66.5t-53.5 -58.5l69 -108q102 60 124.5 141.5t-32.5 166.5q-45 71 -134.5 85.5t-180.5 -44.5z" />
    <glyph glyph-name="uni0207" unicode="&#x207;" horiz-adv-x="1137" 
d="M365 450q-1 -79 25 -137.5t75.5 -90t119.5 -31.5q75 0 131.5 32t78.5 105h263q-17 -110 -87.5 -188t-170.5 -119t-208 -41q-153 0 -269.5 64.5t-181.5 182.5t-65 278q0 155 59 279.5t171.5 197t270.5 72.5t265.5 -66.5t162 -185t54.5 -273.5v-79h-694zM364 624h422
q0 62 -23 114t-69.5 82t-116.5 30q-68 0 -115.5 -32.5t-72.5 -84.5t-25 -109zM927 1180q-17 84 -68 140.5t-124.5 85.5t-158.5 29q-84 0 -157.5 -28.5t-124.5 -85.5t-68 -141h184q15 50 58 81.5t108 31.5q64 0 107.5 -31.5t60.5 -81.5h183z" />
    <glyph glyph-name="emacron" unicode="&#x113;" horiz-adv-x="1137" 
d="M365 450q-1 -79 25 -137.5t75.5 -90t119.5 -31.5q75 0 131.5 32t78.5 105h263q-17 -110 -87.5 -188t-170.5 -119t-208 -41q-153 0 -269.5 64.5t-181.5 182.5t-65 278q0 155 59 279.5t171.5 197t270.5 72.5t265.5 -66.5t162 -185t54.5 -273.5v-79h-694zM364 624h422
q0 62 -23 114t-69.5 82t-116.5 30q-68 0 -115.5 -32.5t-72.5 -84.5t-25 -109zM930 1392v-187h-703v187h703z" />
    <glyph glyph-name="eogonek" unicode="&#x119;" horiz-adv-x="1137" 
d="M365 450q-1 -79 25 -137.5t75.5 -90t119.5 -31.5q75 0 131.5 32t78.5 105h263q-17 -110 -87.5 -188t-170.5 -119t-208 -41q-153 0 -269.5 64.5t-181.5 182.5t-65 278q0 155 59 279.5t171.5 197t270.5 72.5t265.5 -66.5t162 -185t54.5 -273.5v-79h-694zM364 624h422
q0 62 -23 114t-69.5 82t-116.5 30q-68 0 -115.5 -32.5t-72.5 -84.5t-25 -109zM451 -148q0 55 37.5 101.5t154.5 85.5l204 -5q-106 -39 -145.5 -72t-39.5 -74q0 -32 17 -48t55 -16q46 0 81 13.5t64 30.5v-132q-28 -17 -85.5 -32.5t-125.5 -15.5q-102 0 -159.5 42t-57.5 122z
" />
    <glyph glyph-name="uni1EBD" unicode="&#x1ebd;" horiz-adv-x="1137" 
d="M365 450q-1 -79 25 -137.5t75.5 -90t119.5 -31.5q75 0 131.5 32t78.5 105h263q-17 -110 -87.5 -188t-170.5 -119t-208 -41q-153 0 -269.5 64.5t-181.5 182.5t-65 278q0 155 59 279.5t171.5 197t270.5 72.5t265.5 -66.5t162 -185t54.5 -273.5v-79h-694zM364 624h422
q0 62 -23 114t-69.5 82t-116.5 30q-68 0 -115.5 -32.5t-72.5 -84.5t-25 -109zM929 1270q-31 -25 -83 -47.5t-119 -22.5q-56 0 -101.5 14t-89.5 27.5t-95 13.5t-84.5 -15.5t-72.5 -48.5l-45 153q36 37 80 64t112 27q56 0 106.5 -15t97 -30.5t91.5 -15.5q53 0 94 22.5t73 46.5
z" />
    <glyph glyph-name="uni0259" unicode="&#x259;" horiz-adv-x="1137" 
d="M772 584q1 79 -25 137.5t-75.5 90t-119.5 31.5q-75 0 -131.5 -32t-78.5 -105h-263q17 110 87.5 188t170.5 119t208 41q153 0 269.5 -64.5t181.5 -182.5t65 -278q0 -155 -59 -279.5t-171.5 -197t-270.5 -72.5t-265.5 66.5t-162 185t-54.5 273.5v79h694zM773 410h-422
q0 -62 23 -114t69.5 -82t116.5 -30q68 0 115.5 32.5t72.5 84.5t25 109z" />
    <glyph glyph-name="f" unicode="f" horiz-adv-x="802" 
d="M756 1034v-203h-218v-831h-292v831h-191v203h191v149q0 125 73.5 194t208.5 69h237l1 -194h-136q-56 0 -76.5 -27.5t-20.5 -90.5v-100h223z" />
    <glyph glyph-name="g" unicode="g" horiz-adv-x="1256" 
d="M604 -342q-276 0 -419.5 70t-143.5 184q0 53 28 89t65.5 57.5t69 33t38.5 15.5q-16 9 -46 26.5t-55.5 48t-25.5 79.5q0 55 52.5 102t159.5 65q-102 48 -155 130t-53 168q0 102 64 175t174.5 111t250.5 38q107 0 175 -22.5t126 -58.5q23 9 61 23.5t82 32t86 35t75 31.5
l-1 -226l-179 -29q11 -27 17 -58t6 -51q0 -90 -52.5 -168t-157 -126t-258.5 -48q-19 0 -50.5 1t-51.5 3q-59 -3 -81 -15t-22 -28q0 -24 45 -31.5t136 -13.5q32 -2 89 -5t126 -8q190 -13 283.5 -93.5t93.5 -202.5q0 -145 -137.5 -239.5t-414.5 -94.5zM651 -179q122 0 174 30
t52 86q0 47 -40 76.5t-117 34.5l-237 16q-46 2 -81.5 -14t-55 -44t-19.5 -60q0 -65 79 -95t245 -30zM596 548q83 0 133.5 45.5t50.5 123.5q0 81 -50.5 130t-133.5 49q-82 0 -133.5 -49t-51.5 -130q0 -77 49.5 -123t135.5 -46z" />
    <glyph glyph-name="gbreve" unicode="&#x11f;" horiz-adv-x="1256" 
d="M604 -342q-276 0 -419.5 70t-143.5 184q0 53 28 89t65.5 57.5t69 33t38.5 15.5q-16 9 -46 26.5t-55.5 48t-25.5 79.5q0 55 52.5 102t159.5 65q-102 48 -155 130t-53 168q0 102 64 175t174.5 111t250.5 38q107 0 175 -22.5t126 -58.5q23 9 61 23.5t82 32t86 35t75 31.5
l-1 -226l-179 -29q11 -27 17 -58t6 -51q0 -90 -52.5 -168t-157 -126t-258.5 -48q-19 0 -50.5 1t-51.5 3q-59 -3 -81 -15t-22 -28q0 -24 45 -31.5t136 -13.5q32 -2 89 -5t126 -8q190 -13 283.5 -93.5t93.5 -202.5q0 -145 -137.5 -239.5t-414.5 -94.5zM651 -179q122 0 174 30
t52 86q0 47 -40 76.5t-117 34.5l-237 16q-46 2 -81.5 -14t-55 -44t-19.5 -60q0 -65 79 -95t245 -30zM596 548q83 0 133.5 45.5t50.5 123.5q0 81 -50.5 130t-133.5 49q-82 0 -133.5 -49t-51.5 -130q0 -77 49.5 -123t135.5 -46zM958 1410q-17 -84 -68 -140.5t-124.5 -85.5
t-158.5 -29q-84 0 -157.5 28.5t-124.5 85.5t-68 141h184q15 -50 58 -81.5t108 -31.5q64 0 107.5 31.5t60.5 81.5h183z" />
    <glyph glyph-name="gcircumflex" unicode="&#x11d;" horiz-adv-x="1256" 
d="M604 -342q-276 0 -419.5 70t-143.5 184q0 53 28 89t65.5 57.5t69 33t38.5 15.5q-16 9 -46 26.5t-55.5 48t-25.5 79.5q0 55 52.5 102t159.5 65q-102 48 -155 130t-53 168q0 102 64 175t174.5 111t250.5 38q107 0 175 -22.5t126 -58.5q23 9 61 23.5t82 32t86 35t75 31.5
l-1 -226l-179 -29q11 -27 17 -58t6 -51q0 -90 -52.5 -168t-157 -126t-258.5 -48q-19 0 -50.5 1t-51.5 3q-59 -3 -81 -15t-22 -28q0 -24 45 -31.5t136 -13.5q32 -2 89 -5t126 -8q190 -13 283.5 -93.5t93.5 -202.5q0 -145 -137.5 -239.5t-414.5 -94.5zM651 -179q122 0 174 30
t52 86q0 47 -40 76.5t-117 34.5l-237 16q-46 2 -81.5 -14t-55 -44t-19.5 -60q0 -65 79 -95t245 -30zM596 548q83 0 133.5 45.5t50.5 123.5q0 81 -50.5 130t-133.5 49q-82 0 -133.5 -49t-51.5 -130q0 -77 49.5 -123t135.5 -46zM739 1155l-132 140l-146 -140h-217l264 259h202
l257 -259h-228z" />
    <glyph glyph-name="uni0123" unicode="&#x123;" horiz-adv-x="1256" 
d="M449 1188v202l114 156h110l-114 -170h99v-188h-209zM604 -342q-276 0 -419.5 70t-143.5 184q0 53 28 89t65.5 57.5t69 33t38.5 15.5q-16 9 -46 26.5t-55.5 48t-25.5 79.5q0 55 52.5 102t159.5 65q-102 48 -155 130t-53 168q0 102 64 175t174.5 111t250.5 38
q107 0 175 -22.5t126 -58.5q23 9 61 23.5t82 32t86 35t75 31.5l-1 -226l-179 -29q11 -27 17 -58t6 -51q0 -90 -52.5 -168t-157 -126t-258.5 -48q-19 0 -50.5 1t-51.5 3q-59 -3 -81 -15t-22 -28q0 -24 45 -31.5t136 -13.5q32 -2 89 -5t126 -8q190 -13 283.5 -93.5
t93.5 -202.5q0 -145 -137.5 -239.5t-414.5 -94.5zM651 -179q122 0 174 30t52 86q0 47 -40 76.5t-117 34.5l-237 16q-46 2 -81.5 -14t-55 -44t-19.5 -60q0 -65 79 -95t245 -30zM596 548q83 0 133.5 45.5t50.5 123.5q0 81 -50.5 130t-133.5 49q-82 0 -133.5 -49t-51.5 -130
q0 -77 49.5 -123t135.5 -46z" />
    <glyph glyph-name="gdotaccent" unicode="&#x121;" horiz-adv-x="1256" 
d="M604 -342q-276 0 -419.5 70t-143.5 184q0 53 28 89t65.5 57.5t69 33t38.5 15.5q-16 9 -46 26.5t-55.5 48t-25.5 79.5q0 55 52.5 102t159.5 65q-102 48 -155 130t-53 168q0 102 64 175t174.5 111t250.5 38q107 0 175 -22.5t126 -58.5q23 9 61 23.5t82 32t86 35t75 31.5
l-1 -226l-179 -29q11 -27 17 -58t6 -51q0 -90 -52.5 -168t-157 -126t-258.5 -48q-19 0 -50.5 1t-51.5 3q-59 -3 -81 -15t-22 -28q0 -24 45 -31.5t136 -13.5q32 -2 89 -5t126 -8q190 -13 283.5 -93.5t93.5 -202.5q0 -145 -137.5 -239.5t-414.5 -94.5zM651 -179q122 0 174 30
t52 86q0 47 -40 76.5t-117 34.5l-237 16q-46 2 -81.5 -14t-55 -44t-19.5 -60q0 -65 79 -95t245 -30zM596 548q83 0 133.5 45.5t50.5 123.5q0 81 -50.5 130t-133.5 49q-82 0 -133.5 -49t-51.5 -130q0 -77 49.5 -123t135.5 -46zM468 1184v238h279v-238h-279z" />
    <glyph glyph-name="h" unicode="h" horiz-adv-x="1185" 
d="M125 0v1486h290v-601q25 36 63 71.5t95 59.5t139 24q99 0 180.5 -38.5t131 -111.5t49.5 -178v-712h-293v669q0 70 -50.5 107.5t-122.5 37.5q-47 0 -91 -17t-71.5 -51.5t-27.5 -85.5v-660h-292z" />
    <glyph glyph-name="hbar" unicode="&#x127;" horiz-adv-x="1237" 
d="M713 1324v-164h-673v164h673zM177 0v1486h290v-601q25 36 63 71.5t95 59.5t139 24q99 0 181 -38.5t131 -111.5t49 -178v-712h-292v669q0 70 -51 107.5t-122 37.5q-48 0 -92 -17t-71.5 -51.5t-27.5 -85.5v-660h-292z" />
    <glyph glyph-name="hcircumflex" unicode="&#x125;" horiz-adv-x="1185" 
d="M125 0v1486h290v-601q25 36 63 71.5t95 59.5t139 24q99 0 180.5 -38.5t131 -111.5t49.5 -178v-712h-293v669q0 70 -50.5 107.5t-122.5 37.5q-47 0 -91 -17t-71.5 -51.5t-27.5 -85.5v-660h-292zM398 1567l-132 140l-146 -140h-217l264 259h202l257 -259h-228z" />
    <glyph glyph-name="uni1E25" unicode="&#x1e25;" horiz-adv-x="1185" 
d="M125 0v1486h290v-601q25 36 63 71.5t95 59.5t139 24q99 0 180.5 -38.5t131 -111.5t49.5 -178v-712h-293v669q0 70 -50.5 107.5t-122.5 37.5q-47 0 -91 -17t-71.5 -51.5t-27.5 -85.5v-660h-292zM468 -398v238h279v-238h-279z" />
    <glyph glyph-name="i" unicode="i" horiz-adv-x="559" 
d="M419 1034v-1034h-279v1034h279zM422 1445v-263h-284v263h284z" />
    <glyph glyph-name="dotlessi" unicode="&#x131;" horiz-adv-x="554" 
d="M417 1034v-1034h-279v1034h279z" />
    <glyph glyph-name="iacute" unicode="&#xed;" horiz-adv-x="554" 
d="M417 1034v-1034h-279v1034h279zM310 1446h287l-219 -291l-212 2z" />
    <glyph glyph-name="ibreve" unicode="&#x12d;" horiz-adv-x="554" 
d="M417 1034v-1034h-279v1034h279zM632 1410q-17 -84 -68 -140.5t-124.5 -85.5t-158.5 -29q-84 0 -157.5 28.5t-124.5 85.5t-68 141h184q15 -50 58 -81.5t108 -31.5q64 0 107.5 31.5t60.5 81.5h183z" />
    <glyph glyph-name="icircumflex" unicode="&#xee;" horiz-adv-x="554" 
d="M417 1034v-1034h-279v1034h279zM412 1155l-132 140l-146 -140h-217l264 259h202l257 -259h-228z" />
    <glyph glyph-name="uni0209" unicode="&#x209;" horiz-adv-x="554" 
d="M417 1034v-1034h-279v1034h279zM359 1446l201 -291h-211l-257 291h267zM-40 1446l247 -291h-210l-312 291h275z" />
    <glyph glyph-name="idieresis" unicode="&#xef;" horiz-adv-x="779" 
d="M528 1034v-1034h-279v1034h279zM484 1180l3 238h273l-2 -238h-274zM18 1180l3 238h273l-2 -238h-274z" />
    <glyph glyph-name="i.loclTRK" horiz-adv-x="554" 
d="M417 1034v-1034h-279v1034h279zM141 1184v238h279v-238h-279z" />
    <glyph glyph-name="uni1ECB" unicode="&#x1ecb;" horiz-adv-x="559" 
d="M419 1034v-1034h-279v1034h279zM422 1445v-263h-284v263h284zM141 -398v238h279v-238h-279z" />
    <glyph glyph-name="igrave" unicode="&#xec;" horiz-adv-x="554" 
d="M417 1034v-1034h-279v1034h279zM175 1446h-301l297 -291h210z" />
    <glyph glyph-name="uni1EC9" unicode="&#x1ec9;" horiz-adv-x="554" 
d="M417 1034v-1034h-279v1034h279zM141 1503l68 -106q36 24 75 22t57 -32q21 -33 7.5 -66.5t-53.5 -58.5l69 -108q102 60 124.5 141.5t-32.5 166.5q-45 71 -134.5 85.5t-180.5 -44.5z" />
    <glyph glyph-name="uni020B" unicode="&#x20b;" horiz-adv-x="704" 
d="M494 1034v-1034h-279v1034h279zM700 1180q-17 84 -68 140.5t-124.5 85.5t-158.5 29q-84 0 -157.5 -28.5t-124.5 -85.5t-68 -141h184q15 50 58 81.5t108 31.5q64 0 107.5 -31.5t60.5 -81.5h183z" />
    <glyph glyph-name="imacron" unicode="&#x12b;" horiz-adv-x="712" 
d="M498 1034v-1034h-279v1034h279zM707 1392v-187h-703v187h703z" />
    <glyph glyph-name="iogonek" unicode="&#x12f;" horiz-adv-x="554" 
d="M417 1034v-1034h-279v1034h279zM141 1184v238h279v-238h-279zM25 -173q0 55 37.5 101.5t154.5 85.5l204 -5q-106 -39 -145.5 -72t-39.5 -74q0 -32 17 -48t55 -16q46 0 81 13.5t64 30.5v-132q-28 -17 -85.5 -32.5t-125.5 -15.5q-102 0 -159.5 42t-57.5 122z" />
    <glyph glyph-name="itilde" unicode="&#x129;" horiz-adv-x="691" 
d="M483 1034v-1034h-279v1034h279zM691 1270q-31 -25 -83 -47.5t-119 -22.5q-56 0 -101.5 14t-89.5 27.5t-95 13.5t-84.5 -15.5t-72.5 -48.5l-45 153q36 37 80 64t112 27q56 0 106.5 -15t97 -30.5t91.5 -15.5q53 0 94 22.5t73 46.5z" />
    <glyph glyph-name="j" unicode="j" horiz-adv-x="577" 
d="M449 7q0 -169 -82 -254t-266 -85q-81 0 -106.5 14.5l-25.5 14.5l-1 195l80 8q62 8 86 34t24 76v1024h291v-1027zM452 1445v-263h-298v263h298z" />
    <glyph glyph-name="uni0237" unicode="&#x237;" horiz-adv-x="575" 
d="M450 7q0 -169 -83 -254t-267 -85q-81 0 -106 12.5t-25 16.5l-1 195l79 8q62 8 86.5 34t24.5 76v1024h292v-1027z" />
    <glyph glyph-name="jcircumflex" unicode="&#x135;" horiz-adv-x="575" 
d="M450 7q0 -169 -83 -254t-267 -85q-81 0 -106 12.5t-25 16.5l-1 195l79 8q62 8 86.5 34t24.5 76v1024h292v-1027zM434 1155l-132 140l-146 -140h-217l264 259h202l257 -259h-228z" />
    <glyph glyph-name="k" unicode="k" horiz-adv-x="1162" 
d="M1124 0h-291l-279 446l-137 -146v-300h-292v1486h292v-881l380 429h314l-376 -412z" />
    <glyph glyph-name="uni0137" unicode="&#x137;" horiz-adv-x="1162" 
d="M1124 0h-291l-279 446l-137 -146v-300h-292v1486h292v-881l380 429h314l-376 -412zM447 -440l92 149l-80 10v187h248v-156l-156 -190h-104z" />
    <glyph glyph-name="kgreenlandic" unicode="&#x138;" horiz-adv-x="1205" 
d="M1167 0h-334l-236 475l-180 -175v-300h-292v1034h292v-457l422 457h297l-344 -347z" />
    <glyph glyph-name="l" unicode="l" horiz-adv-x="650" 
d="M455 -18q-114 0 -181 27t-99 71.5t-41 99t-9 110.5v1196h286v-1160q0 -57 24.5 -92.5t92.5 -43.5l49 -3v-180q-30 -10 -61 -17.5t-61 -7.5z" />
    <glyph glyph-name="lacute" unicode="&#x13a;" horiz-adv-x="650" 
d="M455 -18q-114 0 -181 27t-99 71.5t-41 99t-9 110.5v1196h286v-1160q0 -57 24.5 -92.5t92.5 -43.5l49 -3v-180q-30 -10 -61 -17.5t-61 -7.5zM367 1940h301l-297 -291h-210z" />
    <glyph glyph-name="lcaron" unicode="&#x13e;" horiz-adv-x="650" 
d="M455 -18q-114 0 -181 27t-99 71.5t-41 99t-9 110.5v1196h286v-1160q0 -57 24.5 -92.5t92.5 -43.5l49 -3v-180q-30 -10 -61 -17.5t-61 -7.5zM524 1018l82 202l-71 12v222h199v-233l-86 -203h-124z" />
    <glyph glyph-name="uni013C" unicode="&#x13c;" horiz-adv-x="650" 
d="M455 -18q-114 0 -181 27t-99 71.5t-41 99t-9 110.5v1196h286v-1160q0 -57 24.5 -92.5t92.5 -43.5l49 -3v-180q-30 -10 -61 -17.5t-61 -7.5zM128 -439l92 149l-80 10v187h248v-156l-156 -190h-104z" />
    <glyph glyph-name="ldot" unicode="&#x140;" horiz-adv-x="831" 
d="M455 -18q-114 0 -181 27t-99 71.5t-41 99t-9 110.5v1196h286v-1160q0 -57 24.5 -92.5t92.5 -43.5l49 -3v-180q-30 -10 -61 -17.5t-61 -7.5zM849 707v-287h-299v287h299z" />
    <glyph glyph-name="lslash" unicode="&#x142;" horiz-adv-x="734" 
d="M649 960v-238l-579 -420v250zM528 -18q-115 0 -181.5 27t-98.5 71.5t-41 99t-9 110.5v1196h286v-1160q0 -57 24.5 -92.5t92.5 -43.5l48 -3v-180q-29 -10 -60.5 -17.5t-60.5 -7.5z" />
    <glyph glyph-name="m" unicode="m" horiz-adv-x="1791" 
d="M125 0v1034h286v-146q47 68 126.5 117t200.5 49q53 0 108 -19t103.5 -55.5t78.5 -91.5q50 71 131.5 118.5t181.5 47.5q58 0 117.5 -19t109.5 -62t80.5 -114.5t30.5 -176.5v-682h-292v646q0 62 -24.5 99.5t-62 54t-79.5 16.5q-39 0 -79 -15.5t-68 -49.5t-28 -89v-662h-291
v672q0 47 -25 79t-62.5 48.5t-76.5 16.5q-40 0 -80 -16.5t-67 -51t-27 -86.5v-662h-292z" />
    <glyph glyph-name="n" unicode="n" horiz-adv-x="1186" 
d="M125 0v1034h287v-146q24 38 62.5 73.5t97.5 58.5t140 23q95 0 177.5 -37t133.5 -116.5t51 -207.5v-682h-292v646q0 84 -50 126t-122 42q-48 0 -92.5 -17t-72.5 -51t-28 -84v-662h-292z" />
    <glyph glyph-name="nacute" unicode="&#x144;" horiz-adv-x="1186" 
d="M125 0v1034h287v-146q24 38 62.5 73.5t97.5 58.5t140 23q95 0 177.5 -37t133.5 -116.5t51 -207.5v-682h-292v646q0 84 -50 126t-122 42q-48 0 -92.5 -17t-72.5 -51t-28 -84v-662h-292zM705 1446h301l-297 -291h-210z" />
    <glyph glyph-name="ncaron" unicode="&#x148;" horiz-adv-x="1186" 
d="M125 0v1034h287v-146q24 38 62.5 73.5t97.5 58.5t140 23q95 0 177.5 -37t133.5 -116.5t51 -207.5v-682h-292v646q0 84 -50 126t-122 42q-48 0 -92.5 -17t-72.5 -51t-28 -84v-662h-292zM504 1155l-263 261h217l146 -150l132 150h228l-257 -261h-203z" />
    <glyph glyph-name="uni0146" unicode="&#x146;" horiz-adv-x="1186" 
d="M125 0v1034h287v-146q24 38 62.5 73.5t97.5 58.5t140 23q95 0 177.5 -37t133.5 -116.5t51 -207.5v-682h-292v646q0 84 -50 126t-122 42q-48 0 -92.5 -17t-72.5 -51t-28 -84v-662h-292zM463 -440l92 149l-80 10v187h248v-156l-156 -190h-104z" />
    <glyph glyph-name="uni1E45" unicode="&#x1e45;" horiz-adv-x="1186" 
d="M125 0v1034h287v-146q24 38 62.5 73.5t97.5 58.5t140 23q95 0 177.5 -37t133.5 -116.5t51 -207.5v-682h-292v646q0 84 -50 126t-122 42q-48 0 -92.5 -17t-72.5 -51t-28 -84v-662h-292zM465 1184v238h279v-238h-279z" />
    <glyph glyph-name="eng" unicode="&#x14b;" horiz-adv-x="1200" 
d="M733 -332q-82 0 -101.5 10t-19.5 14v200l66 5q56 6 80.5 30.5t24.5 78.5v691q0 65 -36.5 104.5t-110.5 39.5q-61 0 -114.5 -32t-101.5 -93v-716h-295l4 1034h285v-160q57 58 113.5 98t115 61t123.5 21q141 0 225 -84t84 -223v-733q0 -108 -41.5 -185.5t-118.5 -119
t-182 -41.5z" />
    <glyph glyph-name="ntilde" unicode="&#xf1;" horiz-adv-x="1186" 
d="M125 0v1034h287v-146q24 38 62.5 73.5t97.5 58.5t140 23q95 0 177.5 -37t133.5 -116.5t51 -207.5v-682h-292v646q0 84 -50 126t-122 42q-48 0 -92.5 -17t-72.5 -51t-28 -84v-662h-292zM955 1270q-31 -25 -83 -47.5t-119 -22.5q-56 0 -101.5 14t-89.5 27.5t-95 13.5
t-84.5 -15.5t-72.5 -48.5l-45 153q36 37 80 64t112 27q56 0 106.5 -15t97 -30.5t91.5 -15.5q53 0 94 22.5t73 46.5z" />
    <glyph glyph-name="o" unicode="o" horiz-adv-x="1138" 
d="M569 -20q-152 0 -264.5 65t-174 184t-61.5 282t61.5 285t174 190t265.5 68t265 -66.5t173 -188.5t61 -288q0 -156 -59.5 -275.5t-171 -187.5t-269.5 -68zM570 197q77 0 124 45t68.5 118.5t21.5 160.5q0 82 -19.5 155t-66.5 118t-128 45q-77 0 -124.5 -42.5t-69.5 -115
t-22 -160.5q0 -81 20 -155.5t67 -121.5t129 -47z" />
    <glyph glyph-name="oacute" unicode="&#xf3;" horiz-adv-x="1138" 
d="M569 -20q-152 0 -264.5 65t-174 184t-61.5 282t61.5 285t174 190t265.5 68t265 -66.5t173 -188.5t61 -288q0 -156 -59.5 -275.5t-171 -187.5t-269.5 -68zM570 197q77 0 124 45t68.5 118.5t21.5 160.5q0 82 -19.5 155t-66.5 118t-128 45q-77 0 -124.5 -42.5t-69.5 -115
t-22 -160.5q0 -81 20 -155.5t67 -121.5t129 -47zM670 1446h301l-297 -291h-210z" />
    <glyph glyph-name="obreve" unicode="&#x14f;" horiz-adv-x="1138" 
d="M569 -20q-152 0 -264.5 65t-174 184t-61.5 282t61.5 285t174 190t265.5 68t265 -66.5t173 -188.5t61 -288q0 -156 -59.5 -275.5t-171 -187.5t-269.5 -68zM570 197q77 0 124 45t68.5 118.5t21.5 160.5q0 82 -19.5 155t-66.5 118t-128 45q-77 0 -124.5 -42.5t-69.5 -115
t-22 -160.5q0 -81 20 -155.5t67 -121.5t129 -47zM920 1410q-17 -84 -68 -140.5t-124.5 -85.5t-158.5 -29q-84 0 -157.5 28.5t-124.5 85.5t-68 141h184q15 -50 58 -81.5t108 -31.5q64 0 107.5 31.5t60.5 81.5h183z" />
    <glyph glyph-name="ocircumflex" unicode="&#xf4;" horiz-adv-x="1138" 
d="M569 -20q-152 0 -264.5 65t-174 184t-61.5 282t61.5 285t174 190t265.5 68t265 -66.5t173 -188.5t61 -288q0 -156 -59.5 -275.5t-171 -187.5t-269.5 -68zM570 197q77 0 124 45t68.5 118.5t21.5 160.5q0 82 -19.5 155t-66.5 118t-128 45q-77 0 -124.5 -42.5t-69.5 -115
t-22 -160.5q0 -81 20 -155.5t67 -121.5t129 -47zM700 1155l-132 140l-146 -140h-217l264 259h202l257 -259h-228z" />
    <glyph glyph-name="uni1ED1" unicode="&#x1ed1;" horiz-adv-x="1138" 
d="M569 -20q-152 0 -264.5 65t-174 184t-61.5 282t61.5 285t174 190t265.5 68t265 -66.5t173 -188.5t61 -288q0 -156 -59.5 -275.5t-171 -187.5t-269.5 -68zM570 197q77 0 124 45t68.5 118.5t21.5 160.5q0 82 -19.5 155t-66.5 118t-128 45q-77 0 -124.5 -42.5t-69.5 -115
t-22 -160.5q0 -81 20 -155.5t67 -121.5t129 -47zM700 1155l-132 140l-146 -140h-217l264 259h202l257 -259h-228zM948 1659h225l-225 -261h-152z" />
    <glyph glyph-name="uni1ED9" unicode="&#x1ed9;" horiz-adv-x="1138" 
d="M569 -20q-152 0 -264.5 65t-174 184t-61.5 282t61.5 285t174 190t265.5 68t265 -66.5t173 -188.5t61 -288q0 -156 -59.5 -275.5t-171 -187.5t-269.5 -68zM570 197q77 0 124 45t68.5 118.5t21.5 160.5q0 82 -19.5 155t-66.5 118t-128 45q-77 0 -124.5 -42.5t-69.5 -115
t-22 -160.5q0 -81 20 -155.5t67 -121.5t129 -47zM427 -398v238h279v-238h-279zM700 1155l-132 140l-146 -140h-217l264 259h202l257 -259h-228z" />
    <glyph glyph-name="uni1ED3" unicode="&#x1ed3;" horiz-adv-x="1138" 
d="M569 -20q-152 0 -264.5 65t-174 184t-61.5 282t61.5 285t174 190t265.5 68t265 -66.5t173 -188.5t61 -288q0 -156 -59.5 -275.5t-171 -187.5t-269.5 -68zM570 197q77 0 124 45t68.5 118.5t21.5 160.5q0 82 -19.5 155t-66.5 118t-128 45q-77 0 -124.5 -42.5t-69.5 -115
t-22 -160.5q0 -81 20 -155.5t67 -121.5t129 -47zM700 1155l-132 140l-146 -140h-217l264 259h202l257 -259h-228zM882 1659l157 -261h-156l-227 261h226z" />
    <glyph glyph-name="uni1ED5" unicode="&#x1ed5;" horiz-adv-x="1138" 
d="M569 -20q-152 0 -264.5 65t-174 184t-61.5 282t61.5 285t174 190t265.5 68t265 -66.5t173 -188.5t61 -288q0 -156 -59.5 -275.5t-171 -187.5t-269.5 -68zM570 197q77 0 124 45t68.5 118.5t21.5 160.5q0 82 -19.5 155t-66.5 118t-128 45q-77 0 -124.5 -42.5t-69.5 -115
t-22 -160.5q0 -81 20 -155.5t67 -121.5t129 -47zM707 1155l-132 140l-146 -140h-217l264 259h202l257 -259h-228zM645 1703l68 -106q36 24 75 22t57 -32q21 -33 7.5 -66.5t-53.5 -58.5l69 -108q102 60 124.5 141.5t-32.5 166.5q-45 71 -134.5 85.5t-180.5 -44.5z" />
    <glyph glyph-name="uni1ED7" unicode="&#x1ed7;" horiz-adv-x="1138" 
d="M569 -20q-152 0 -264.5 65t-174 184t-61.5 282t61.5 285t174 190t265.5 68t265 -66.5t173 -188.5t61 -288q0 -156 -59.5 -275.5t-171 -187.5t-269.5 -68zM570 197q77 0 124 45t68.5 118.5t21.5 160.5q0 82 -19.5 155t-66.5 118t-128 45q-77 0 -124.5 -42.5t-69.5 -115
t-22 -160.5q0 -81 20 -155.5t67 -121.5t129 -47zM703 1155l-132 140l-146 -140h-217l264 259h202l257 -259h-228zM914 1586q-31 -25 -83 -47.5t-119 -22.5q-56 0 -101.5 14t-89.5 27.5t-95 13.5t-84.5 -15.5t-72.5 -48.5l-45 153q36 37 80 64t112 27q56 0 106.5 -15
t97 -30.5t91.5 -15.5q53 0 94 22.5t73 46.5z" />
    <glyph glyph-name="uni020D" unicode="&#x20d;" horiz-adv-x="1138" 
d="M569 -20q-152 0 -264.5 65t-174 184t-61.5 282t61.5 285t174 190t265.5 68t265 -66.5t173 -188.5t61 -288q0 -156 -59.5 -275.5t-171 -187.5t-269.5 -68zM570 197q77 0 124 45t68.5 118.5t21.5 160.5q0 82 -19.5 155t-66.5 118t-128 45q-77 0 -124.5 -42.5t-69.5 -115
t-22 -160.5q0 -81 20 -155.5t67 -121.5t129 -47zM647 1446l201 -291h-211l-257 291h267zM248 1446l247 -291h-210l-312 291h275z" />
    <glyph glyph-name="odieresis" unicode="&#xf6;" horiz-adv-x="1138" 
d="M569 -20q-152 0 -264.5 65t-174 184t-61.5 282t61.5 285t174 190t265.5 68t265 -66.5t173 -188.5t61 -288q0 -156 -59.5 -275.5t-171 -187.5t-269.5 -68zM570 197q77 0 124 45t68.5 118.5t21.5 160.5q0 82 -19.5 155t-66.5 118t-128 45q-77 0 -124.5 -42.5t-69.5 -115
t-22 -160.5q0 -81 20 -155.5t67 -121.5t129 -47zM665 1184l3 238h273l-2 -238h-274zM199 1184l3 238h273l-2 -238h-274z" />
    <glyph glyph-name="uni1ECD" unicode="&#x1ecd;" horiz-adv-x="1138" 
d="M569 -20q-152 0 -264.5 65t-174 184t-61.5 282t61.5 285t174 190t265.5 68t265 -66.5t173 -188.5t61 -288q0 -156 -59.5 -275.5t-171 -187.5t-269.5 -68zM570 197q77 0 124 45t68.5 118.5t21.5 160.5q0 82 -19.5 155t-66.5 118t-128 45q-77 0 -124.5 -42.5t-69.5 -115
t-22 -160.5q0 -81 20 -155.5t67 -121.5t129 -47zM427 -398v238h279v-238h-279z" />
    <glyph glyph-name="ograve" unicode="&#xf2;" horiz-adv-x="1138" 
d="M569 -20q-152 0 -264.5 65t-174 184t-61.5 282t61.5 285t174 190t265.5 68t265 -66.5t173 -188.5t61 -288q0 -156 -59.5 -275.5t-171 -187.5t-269.5 -68zM570 197q77 0 124 45t68.5 118.5t21.5 160.5q0 82 -19.5 155t-66.5 118t-128 45q-77 0 -124.5 -42.5t-69.5 -115
t-22 -160.5q0 -81 20 -155.5t67 -121.5t129 -47zM463 1446h-301l297 -291h210z" />
    <glyph glyph-name="uni1ECF" unicode="&#x1ecf;" horiz-adv-x="1138" 
d="M569 -20q-152 0 -264.5 65t-174 184t-61.5 282t61.5 285t174 190t265.5 68t265 -66.5t173 -188.5t61 -288q0 -156 -59.5 -275.5t-171 -187.5t-269.5 -68zM570 197q77 0 124 45t68.5 118.5t21.5 160.5q0 82 -19.5 155t-66.5 118t-128 45q-77 0 -124.5 -42.5t-69.5 -115
t-22 -160.5q0 -81 20 -155.5t67 -121.5t129 -47zM429 1503l68 -106q36 24 75 22t57 -32q21 -33 7.5 -66.5t-53.5 -58.5l69 -108q102 60 124.5 141.5t-32.5 166.5q-45 71 -134.5 85.5t-180.5 -44.5z" />
    <glyph glyph-name="ohorn" unicode="&#x1a1;" horiz-adv-x="1282" 
d="M569 -20q-152 0 -264.5 65t-174 184t-61.5 282t61.5 285t174 190t265.5 68t265 -66.5t173 -188.5t61 -288q0 -156 -59.5 -275.5t-171 -187.5t-269.5 -68zM570 197q77 0 124 45t68.5 118.5t21.5 160.5q0 82 -19.5 155t-66.5 118t-128 45q-77 0 -124.5 -42.5t-69.5 -115
t-22 -160.5q0 -81 20 -155.5t67 -121.5t129 -47zM1290 1113q-1 -142 -36 -225.5t-119 -114.5t-234 -15v144q50 -1 85 3t57.5 23t36 62.5t18.5 122.5h192z" />
    <glyph glyph-name="uni1EDB" unicode="&#x1edb;" horiz-adv-x="1282" 
d="M668 1446h301l-297 -291h-210zM569 -20q-152 0 -264.5 65t-174 184t-61.5 282t61.5 285t174 190t265.5 68t265 -66.5t173 -188.5t61 -288q0 -156 -59.5 -275.5t-171 -187.5t-269.5 -68zM570 197q77 0 124 45t68.5 118.5t21.5 160.5q0 82 -19.5 155t-66.5 118t-128 45
q-77 0 -124.5 -42.5t-69.5 -115t-22 -160.5q0 -81 20 -155.5t67 -121.5t129 -47zM1290 1113q-1 -142 -36 -225.5t-119 -114.5t-234 -15v144q50 -1 85 3t57.5 23t36 62.5t18.5 122.5h192z" />
    <glyph glyph-name="uni1EE3" unicode="&#x1ee3;" horiz-adv-x="1282" 
d="M409 -398v238h279v-238h-279zM569 -20q-152 0 -264.5 65t-174 184t-61.5 282t61.5 285t174 190t265.5 68t265 -66.5t173 -188.5t61 -288q0 -156 -59.5 -275.5t-171 -187.5t-269.5 -68zM570 197q77 0 124 45t68.5 118.5t21.5 160.5q0 82 -19.5 155t-66.5 118t-128 45
q-77 0 -124.5 -42.5t-69.5 -115t-22 -160.5q0 -81 20 -155.5t67 -121.5t129 -47zM1290 1113q-1 -142 -36 -225.5t-119 -114.5t-234 -15v144q50 -1 85 3t57.5 23t36 62.5t18.5 122.5h192z" />
    <glyph glyph-name="uni1EDD" unicode="&#x1edd;" horiz-adv-x="1282" 
d="M462 1446h-301l297 -291h210zM569 -20q-152 0 -264.5 65t-174 184t-61.5 282t61.5 285t174 190t265.5 68t265 -66.5t173 -188.5t61 -288q0 -156 -59.5 -275.5t-171 -187.5t-269.5 -68zM570 197q77 0 124 45t68.5 118.5t21.5 160.5q0 82 -19.5 155t-66.5 118t-128 45
q-77 0 -124.5 -42.5t-69.5 -115t-22 -160.5q0 -81 20 -155.5t67 -121.5t129 -47zM1290 1113q-1 -142 -36 -225.5t-119 -114.5t-234 -15v144q50 -1 85 3t57.5 23t36 62.5t18.5 122.5h192z" />
    <glyph glyph-name="uni1EDF" unicode="&#x1edf;" horiz-adv-x="1282" 
d="M424 1503l68 -106q36 24 75 22t57 -32q21 -33 7.5 -66.5t-53.5 -58.5l69 -108q102 60 124.5 141.5t-32.5 166.5q-45 71 -134.5 85.5t-180.5 -44.5zM569 -20q-152 0 -264.5 65t-174 184t-61.5 282t61.5 285t174 190t265.5 68t265 -66.5t173 -188.5t61 -288
q0 -156 -59.5 -275.5t-171 -187.5t-269.5 -68zM570 197q77 0 124 45t68.5 118.5t21.5 160.5q0 82 -19.5 155t-66.5 118t-128 45q-77 0 -124.5 -42.5t-69.5 -115t-22 -160.5q0 -81 20 -155.5t67 -121.5t129 -47zM1290 1113q-1 -142 -36 -225.5t-119 -114.5t-234 -15v144
q50 -1 85 3t57.5 23t36 62.5t18.5 122.5h192z" />
    <glyph glyph-name="uni1EE1" unicode="&#x1ee1;" horiz-adv-x="1282" 
d="M914 1270q-31 -25 -83 -47.5t-119 -22.5q-56 0 -101.5 14t-89.5 27.5t-95 13.5t-84.5 -15.5t-72.5 -48.5l-45 153q36 37 80 64t112 27q56 0 106.5 -15t97 -30.5t91.5 -15.5q53 0 94 22.5t73 46.5zM569 -20q-152 0 -264.5 65t-174 184t-61.5 282t61.5 285t174 190
t265.5 68t265 -66.5t173 -188.5t61 -288q0 -156 -59.5 -275.5t-171 -187.5t-269.5 -68zM570 197q77 0 124 45t68.5 118.5t21.5 160.5q0 82 -19.5 155t-66.5 118t-128 45q-77 0 -124.5 -42.5t-69.5 -115t-22 -160.5q0 -81 20 -155.5t67 -121.5t129 -47zM1290 1113
q-1 -142 -36 -225.5t-119 -114.5t-234 -15v144q50 -1 85 3t57.5 23t36 62.5t18.5 122.5h192z" />
    <glyph glyph-name="ohungarumlaut" unicode="&#x151;" horiz-adv-x="1138" 
d="M569 -20q-152 0 -264.5 65t-174 184t-61.5 282t61.5 285t174 190t265.5 68t265 -66.5t173 -188.5t61 -288q0 -156 -59.5 -275.5t-171 -187.5t-269.5 -68zM570 197q77 0 124 45t68.5 118.5t21.5 160.5q0 82 -19.5 155t-66.5 118t-128 45q-77 0 -124.5 -42.5t-69.5 -115
t-22 -160.5q0 -81 20 -155.5t67 -121.5t129 -47zM490 1446l-201 -291h211l257 291h-267zM889 1446l-247 -291h210l312 291h-275z" />
    <glyph glyph-name="uni020F" unicode="&#x20f;" horiz-adv-x="1138" 
d="M569 -20q-152 0 -264.5 65t-174 184t-61.5 282t61.5 285t174 190t265.5 68t265 -66.5t173 -188.5t61 -288q0 -156 -59.5 -275.5t-171 -187.5t-269.5 -68zM570 197q77 0 124 45t68.5 118.5t21.5 160.5q0 82 -19.5 155t-66.5 118t-128 45q-77 0 -124.5 -42.5t-69.5 -115
t-22 -160.5q0 -81 20 -155.5t67 -121.5t129 -47zM918 1180q-17 84 -68 140.5t-124.5 85.5t-158.5 29q-84 0 -157.5 -28.5t-124.5 -85.5t-68 -141h184q15 50 58 81.5t108 31.5q64 0 107.5 -31.5t60.5 -81.5h183z" />
    <glyph glyph-name="omacron" unicode="&#x14d;" horiz-adv-x="1138" 
d="M569 -20q-152 0 -264.5 65t-174 184t-61.5 282t61.5 285t174 190t265.5 68t265 -66.5t173 -188.5t61 -288q0 -156 -59.5 -275.5t-171 -187.5t-269.5 -68zM570 197q77 0 124 45t68.5 118.5t21.5 160.5q0 82 -19.5 155t-66.5 118t-128 45q-77 0 -124.5 -42.5t-69.5 -115
t-22 -160.5q0 -81 20 -155.5t67 -121.5t129 -47zM921 1392v-187h-703v187h703z" />
    <glyph glyph-name="uni01EB" unicode="&#x1eb;" horiz-adv-x="1138" 
d="M569 -20q-152 0 -264.5 65t-174 184t-61.5 282t61.5 285t174 190t265.5 68t265 -66.5t173 -188.5t61 -288q0 -156 -59.5 -275.5t-171 -187.5t-269.5 -68zM570 197q77 0 124 45t68.5 118.5t21.5 160.5q0 82 -19.5 155t-66.5 118t-128 45q-77 0 -124.5 -42.5t-69.5 -115
t-22 -160.5q0 -81 20 -155.5t67 -121.5t129 -47zM351 -173q0 55 37.5 101.5t154.5 85.5l204 -5q-106 -39 -145.5 -72t-39.5 -74q0 -32 17 -48t55 -16q46 0 81 13.5t64 30.5v-132q-28 -17 -85.5 -32.5t-125.5 -15.5q-102 0 -159.5 42t-57.5 122z" />
    <glyph glyph-name="oslash" unicode="&#xf8;" horiz-adv-x="1223" 
d="M1159 944l-1012 -959l-96 103l1013 958zM618 -20q-152 0 -264 65t-174 184t-62 282t61.5 285t174 190t266.5 68q152 0 264 -66.5t173 -188.5t61 -288q0 -156 -59.5 -275.5t-171 -187.5t-269.5 -68zM620 197q76 0 123 45t68.5 118.5t21.5 160.5q0 82 -19.5 155t-66 118
t-127.5 45q-78 0 -125.5 -42.5t-69.5 -115t-22 -160.5q0 -81 20 -155.5t67 -121.5t130 -47z" />
    <glyph glyph-name="oslashacute" unicode="&#x1ff;" horiz-adv-x="1223" 
d="M1159 944l-1012 -959l-96 103l1013 958zM618 -20q-152 0 -264 65t-174 184t-62 282t61.5 285t174 190t266.5 68q152 0 264 -66.5t173 -188.5t61 -288q0 -156 -59.5 -275.5t-171 -187.5t-269.5 -68zM620 197q76 0 123 45t68.5 118.5t21.5 160.5q0 82 -19.5 155t-66 118
t-127.5 45q-78 0 -125.5 -42.5t-69.5 -115t-22 -160.5q0 -81 20 -155.5t67 -121.5t130 -47zM706 1446h301l-297 -291h-210z" />
    <glyph glyph-name="otilde" unicode="&#xf5;" horiz-adv-x="1138" 
d="M569 -20q-152 0 -264.5 65t-174 184t-61.5 282t61.5 285t174 190t265.5 68t265 -66.5t173 -188.5t61 -288q0 -156 -59.5 -275.5t-171 -187.5t-269.5 -68zM570 197q77 0 124 45t68.5 118.5t21.5 160.5q0 82 -19.5 155t-66.5 118t-128 45q-77 0 -124.5 -42.5t-69.5 -115
t-22 -160.5q0 -81 20 -155.5t67 -121.5t129 -47zM920 1270q-31 -25 -83 -47.5t-119 -22.5q-56 0 -101.5 14t-89.5 27.5t-95 13.5t-84.5 -15.5t-72.5 -48.5l-45 153q36 37 80 64t112 27q56 0 106.5 -15t97 -30.5t91.5 -15.5q53 0 94 22.5t73 46.5z" />
    <glyph glyph-name="oe" unicode="&#x153;" horiz-adv-x="1853" 
d="M569 -20q-152 0 -264.5 65t-174 184t-61.5 282t61.5 285t174 190t265.5 68t265 -66.5t173 -188.5t61 -288q0 -156 -59.5 -275.5t-171 -187.5t-269.5 -68zM570 197q77 0 124 45t68.5 118.5t21.5 160.5q0 82 -19.5 155t-66.5 118t-128 45q-77 0 -124.5 -42.5t-69.5 -115
t-22 -160.5q0 -81 20 -155.5t67 -121.5t129 -47zM1081 450q-1 -79 25 -137.5t75.5 -90t119.5 -31.5q75 0 131.5 32t78.5 105h263q-17 -110 -87.5 -188t-170.5 -119t-208 -41q-153 0 -269.5 64.5t-181.5 182.5t-65 278q0 155 59 279.5t171.5 197t270.5 72.5t265.5 -66.5
t162 -185t54.5 -273.5v-79h-694zM1080 624h422q0 62 -23 114t-69.5 82t-116.5 30q-68 0 -115.5 -32.5t-72.5 -84.5t-25 -109z" />
    <glyph glyph-name="p" unicode="p" horiz-adv-x="1207" 
d="M125 -322v1356h293l1 -149q23 37 56.5 67.5t74.5 53.5t89 35.5t101 12.5q115 0 205 -56.5t141.5 -174t51.5 -298.5q0 -188 -55.5 -308.5t-152.5 -178.5t-219 -58q-50 0 -94 13.5t-81.5 37.5t-67 55.5t-51.5 68.5v-477h-292zM641 194q95 0 159.5 79t64.5 250
q0 150 -61.5 234.5t-162.5 84.5q-113 0 -168.5 -91.5t-55.5 -227.5q0 -87 24.5 -162t74 -121t125.5 -46z" />
    <glyph glyph-name="thorn" unicode="&#xfe;" horiz-adv-x="1202" 
d="M417 1446v-543q33 37 75.5 71.5t100 57t138.5 22.5q113 0 204 -57t144.5 -174.5t53.5 -297.5q0 -187 -55 -307.5t-149.5 -179t-214.5 -58.5q-77 0 -141 24.5t-121 74.5q-21 19 -28 17.5t-7 -28.5v-390h-292v1768h292zM417 265q39 -44 85 -72t106 -28q69 0 120 36.5
t79.5 117t28.5 212.5q0 126 -28.5 199.5t-78.5 105.5t-117 32q-56 0 -100.5 -23.5t-69.5 -60t-25 -75.5v-444z" />
    <glyph glyph-name="q" unicode="q" horiz-adv-x="1207" 
d="M1082 -322h-292v477q-21 -37 -51 -68.5t-67.5 -55.5t-81.5 -37.5t-94 -13.5q-116 0 -213.5 55t-155.5 175.5t-58 314.5q0 175 49 292.5t139 177t211 59.5q52 0 100 -12.5t89 -35.5t74.5 -53.5t56.5 -67.5l2 149h292v-1356zM567 194q75 0 125 46t74.5 121t24.5 162
q0 136 -55 227.5t-169 91.5q-94 0 -159 -80.5t-65 -238.5q0 -163 61.5 -246t162.5 -83z" />
    <glyph glyph-name="r" unicode="r" horiz-adv-x="813" 
d="M125 0v1034h281v-245q25 79 70.5 138.5t110.5 93t147 33.5q14 0 26.5 -1.5t18.5 -4.5v-278q-9 4 -21.5 5t-22.5 2q-86 7 -147 -5t-99 -41t-55 -71t-17 -94v-566h-292z" />
    <glyph glyph-name="racute" unicode="&#x155;" horiz-adv-x="813" 
d="M125 0v1034h281v-245q25 79 70.5 138.5t110.5 93t147 33.5q14 0 26.5 -1.5t18.5 -4.5v-278q-9 4 -21.5 5t-22.5 2q-86 7 -147 -5t-99 -41t-55 -71t-17 -94v-566h-292zM548 1446h301l-297 -291h-210z" />
    <glyph glyph-name="rcaron" unicode="&#x159;" horiz-adv-x="813" 
d="M125 0v1034h281v-245q25 79 70.5 138.5t110.5 93t147 33.5q14 0 26.5 -1.5t18.5 -4.5v-278q-9 4 -21.5 5t-22.5 2q-86 7 -147 -5t-99 -41t-55 -71t-17 -94v-566h-292zM347 1155l-263 261h217l146 -150l132 150h228l-257 -261h-203z" />
    <glyph glyph-name="uni0157" unicode="&#x157;" horiz-adv-x="813" 
d="M125 0v1034h281v-245q25 79 70.5 138.5t110.5 93t147 33.5q14 0 26.5 -1.5t18.5 -4.5v-278q-9 4 -21.5 5t-22.5 2q-86 7 -147 -5t-99 -41t-55 -71t-17 -94v-566h-292zM133 -440l92 149l-80 10v187h248v-156l-156 -190h-104z" />
    <glyph glyph-name="uni0211" unicode="&#x211;" horiz-adv-x="813" 
d="M125 0v1034h281v-245q25 79 70.5 138.5t110.5 93t147 33.5q14 0 26.5 -1.5t18.5 -4.5v-278q-9 4 -21.5 5t-22.5 2q-86 7 -147 -5t-99 -41t-55 -71t-17 -94v-566h-292zM526 1446l201 -291h-211l-257 291h267zM127 1446l247 -291h-210l-312 291h275z" />
    <glyph glyph-name="uni1E5B" unicode="&#x1e5b;" horiz-adv-x="813" 
d="M125 0v1034h281v-245q25 79 70.5 138.5t110.5 93t147 33.5q14 0 26.5 -1.5t18.5 -4.5v-278q-9 4 -21.5 5t-22.5 2q-86 7 -147 -5t-99 -41t-55 -71t-17 -94v-566h-292zM131 -398v238h279v-238h-279z" />
    <glyph glyph-name="uni0213" unicode="&#x213;" horiz-adv-x="813" 
d="M125 0v1034h281v-245q25 79 70.5 138.5t110.5 93t147 33.5q14 0 26.5 -1.5t18.5 -4.5v-278q-9 4 -21.5 5t-22.5 2q-86 7 -147 -5t-99 -41t-55 -71t-17 -94v-566h-292zM797 1153q-17 84 -68 140.5t-124.5 85.5t-158.5 29q-84 0 -157.5 -28.5t-124.5 -85.5t-68 -141h184
q15 50 58 81.5t108 31.5q64 0 107.5 -31.5t60.5 -81.5h183z" />
    <glyph glyph-name="s" unicode="s" horiz-adv-x="1048" 
d="M534 -20q-108 0 -208 35.5t-169 112t-88 198.5h253q13 -55 47.5 -87t78.5 -45.5t84 -13.5q84 0 135.5 26.5t51.5 81.5q0 42 -30.5 67t-100.5 38l-182 38q-137 29 -220 98.5t-85 197.5q0 93 49.5 167t146.5 117t238 43q191 0 305.5 -84t116.5 -237h-244q-11 60 -59.5 92.5
t-121.5 32.5q-76 0 -125 -27t-49 -82q0 -41 40 -64.5t124 -40.5l168 -38q87 -21 141.5 -57.5t84.5 -79.5t41.5 -86.5t11.5 -78.5q0 -103 -55 -175.5t-153 -110.5t-227 -38z" />
    <glyph glyph-name="sacute" unicode="&#x15b;" horiz-adv-x="1048" 
d="M534 -20q-108 0 -208 35.5t-169 112t-88 198.5h253q13 -55 47.5 -87t78.5 -45.5t84 -13.5q84 0 135.5 26.5t51.5 81.5q0 42 -30.5 67t-100.5 38l-182 38q-137 29 -220 98.5t-85 197.5q0 93 49.5 167t146.5 117t238 43q191 0 305.5 -84t116.5 -237h-244q-11 60 -59.5 92.5
t-121.5 32.5q-76 0 -125 -27t-49 -82q0 -41 40 -64.5t124 -40.5l168 -38q87 -21 141.5 -57.5t84.5 -79.5t41.5 -86.5t11.5 -78.5q0 -103 -55 -175.5t-153 -110.5t-227 -38zM636 1446h301l-297 -291h-210z" />
    <glyph glyph-name="scaron" unicode="&#x161;" horiz-adv-x="1048" 
d="M534 -20q-108 0 -208 35.5t-169 112t-88 198.5h253q13 -55 47.5 -87t78.5 -45.5t84 -13.5q84 0 135.5 26.5t51.5 81.5q0 42 -30.5 67t-100.5 38l-182 38q-137 29 -220 98.5t-85 197.5q0 93 49.5 167t146.5 117t238 43q191 0 305.5 -84t116.5 -237h-244q-11 60 -59.5 92.5
t-121.5 32.5q-76 0 -125 -27t-49 -82q0 -41 40 -64.5t124 -40.5l168 -38q87 -21 141.5 -57.5t84.5 -79.5t41.5 -86.5t11.5 -78.5q0 -103 -55 -175.5t-153 -110.5t-227 -38zM435 1155l-263 261h217l146 -150l132 150h228l-257 -261h-203z" />
    <glyph glyph-name="scedilla" unicode="&#x15f;" horiz-adv-x="1048" 
d="M534 -20q-108 0 -208 35.5t-169 112t-88 198.5h253q13 -55 47.5 -87t78.5 -45.5t84 -13.5q84 0 135.5 26.5t51.5 81.5q0 42 -30.5 67t-100.5 38l-182 38q-137 29 -220 98.5t-85 197.5q0 93 49.5 167t146.5 117t238 43q191 0 305.5 -84t116.5 -237h-244q-11 60 -59.5 92.5
t-121.5 32.5q-76 0 -125 -27t-49 -82q0 -41 40 -64.5t124 -40.5l168 -38q87 -21 141.5 -57.5t84.5 -79.5t41.5 -86.5t11.5 -78.5q0 -103 -55 -175.5t-153 -110.5t-227 -38zM757 -263q0 -51 -33 -87.5t-87.5 -55.5t-118.5 -19q-63 0 -121.5 12t-108.5 42l40 98
q31 -19 70.5 -34t83.5 -15q48 0 74 16.5t26 45.5q0 39 -38 60t-132 22q-12 0 -16.5 3.5t0.5 15.5l73 169h130l-45 -117q76 -2 120 -26t63.5 -59.5t19.5 -70.5z" />
    <glyph glyph-name="scircumflex" unicode="&#x15d;" horiz-adv-x="1048" 
d="M534 -20q-108 0 -208 35.5t-169 112t-88 198.5h253q13 -55 47.5 -87t78.5 -45.5t84 -13.5q84 0 135.5 26.5t51.5 81.5q0 42 -30.5 67t-100.5 38l-182 38q-137 29 -220 98.5t-85 197.5q0 93 49.5 167t146.5 117t238 43q191 0 305.5 -84t116.5 -237h-244q-11 60 -59.5 92.5
t-121.5 32.5q-76 0 -125 -27t-49 -82q0 -41 40 -64.5t124 -40.5l168 -38q87 -21 141.5 -57.5t84.5 -79.5t41.5 -86.5t11.5 -78.5q0 -103 -55 -175.5t-153 -110.5t-227 -38zM667 1155l-132 140l-146 -140h-217l264 259h202l257 -259h-228z" />
    <glyph glyph-name="uni0219" unicode="&#x219;" horiz-adv-x="1048" 
d="M534 -20q-108 0 -208 35.5t-169 112t-88 198.5h253q13 -55 47.5 -87t78.5 -45.5t84 -13.5q84 0 135.5 26.5t51.5 81.5q0 42 -30.5 67t-100.5 38l-182 38q-137 29 -220 98.5t-85 197.5q0 93 49.5 167t146.5 117t238 43q191 0 305.5 -84t116.5 -237h-244q-11 60 -59.5 92.5
t-121.5 32.5q-76 0 -125 -27t-49 -82q0 -41 40 -64.5t124 -40.5l168 -38q87 -21 141.5 -57.5t84.5 -79.5t41.5 -86.5t11.5 -78.5q0 -103 -55 -175.5t-153 -110.5t-227 -38zM391 -440l92 149l-80 10v187h248v-156l-156 -190h-104z" />
    <glyph glyph-name="uni1E63" unicode="&#x1e63;" horiz-adv-x="1048" 
d="M534 -20q-108 0 -208 35.5t-169 112t-88 198.5h253q13 -55 47.5 -87t78.5 -45.5t84 -13.5q84 0 135.5 26.5t51.5 81.5q0 42 -30.5 67t-100.5 38l-182 38q-137 29 -220 98.5t-85 197.5q0 93 49.5 167t146.5 117t238 43q191 0 305.5 -84t116.5 -237h-244q-11 60 -59.5 92.5
t-121.5 32.5q-76 0 -125 -27t-49 -82q0 -41 40 -64.5t124 -40.5l168 -38q87 -21 141.5 -57.5t84.5 -79.5t41.5 -86.5t11.5 -78.5q0 -103 -55 -175.5t-153 -110.5t-227 -38zM388 -398v238h279v-238h-279z" />
    <glyph glyph-name="germandbls" unicode="&#xdf;" horiz-adv-x="1256" 
d="M629 1446q135 0 225.5 -36.5t136 -103.5t45.5 -156q0 -72 -29 -123.5t-87 -90.5t-144 -76q-30 -16 -43.5 -27t-13.5 -29q0 -19 13 -28.5t45 -19.5q71 -30 142 -63.5t129.5 -79.5t93.5 -112.5t35 -163.5q0 -117 -53.5 -196.5t-148.5 -120t-221 -40.5q-82 0 -151 18.5
t-117 48.5l87 180q33 -20 72.5 -39.5t98.5 -19.5q74 0 122.5 35t48.5 103q0 48 -24.5 77t-68 50.5t-101.5 43.5q-57 24 -106 57t-79.5 82t-30.5 120q0 76 37 127t95 94q33 27 63.5 52.5t51 55t20.5 70.5q0 53 -40 87.5t-117 34.5q-94 0 -148 -57.5t-54 -155.5v-1044h-286
l-2 989q2 90 30.5 172.5t88 146.5t154.5 101t231 37z" />
    <glyph glyph-name="t" unicode="t" horiz-adv-x="845" 
d="M755 831h-230l2 -551q0 -38 9.5 -56.5t30 -24t52.5 -5.5h139v-180q-20 -9 -62.5 -17t-118.5 -8q-136 0 -210.5 35t-103.5 98t-29 146v563h-168v203h178l73 312h208v-311h230v-204z" />
    <glyph glyph-name="tbar" unicode="&#x167;" horiz-adv-x="873" 
d="M714 646v-166h-638v166h638zM787 831h-229l1 -551q0 -38 10 -56.5t30.5 -24t52.5 -5.5h139v-180q-21 -9 -63.5 -17t-117.5 -8q-137 0 -211.5 35t-103 98t-28.5 146v563h-168v203h177l74 312h208v-311h229v-204z" />
    <glyph glyph-name="tcaron" unicode="&#x165;" horiz-adv-x="900" 
d="M755 831h-230l2 -551q0 -38 9.5 -56.5t30 -24t52.5 -5.5h139v-180q-20 -9 -62.5 -17t-118.5 -8q-136 0 -210.5 35t-103.5 98t-29 146v563h-168v203h178l73 312h208v-311h230v-204zM837 1010l82 202l-71 12v222h199v-233l-86 -203h-124z" />
    <glyph glyph-name="uni0163" unicode="&#x163;" horiz-adv-x="845" 
d="M755 831h-230l2 -551q0 -38 9.5 -56.5t30 -24t52.5 -5.5h139v-180q-20 -9 -62.5 -17t-118.5 -8q-136 0 -210.5 35t-103.5 98t-29 146v563h-168v203h178l73 312h208v-311h230v-204zM723 -251q0 -51 -33 -87.5t-87.5 -55.5t-118.5 -19q-63 0 -121.5 12t-108.5 42l40 98
q31 -19 70.5 -34t83.5 -15q48 0 74 16.5t26 45.5q0 39 -38 60t-132 22q-12 0 -16.5 3.5t0.5 15.5l73 169h130l-45 -117q76 -2 120 -26t63.5 -59.5t19.5 -70.5z" />
    <glyph glyph-name="uni021B" unicode="&#x21b;" horiz-adv-x="845" 
d="M755 831h-230l2 -551q0 -38 9.5 -56.5t30 -24t52.5 -5.5h139v-180q-20 -9 -62.5 -17t-118.5 -8q-136 0 -210.5 35t-103.5 98t-29 146v563h-168v203h178l73 312h208v-311h230v-204zM356 -428l92 149l-80 10v187h248v-156l-156 -190h-104z" />
    <glyph glyph-name="uni1E6D" unicode="&#x1e6d;" horiz-adv-x="845" 
d="M755 831h-230l2 -551q0 -38 9.5 -56.5t30 -24t52.5 -5.5h139v-180q-20 -9 -62.5 -17t-118.5 -8q-136 0 -210.5 35t-103.5 98t-29 146v563h-168v203h178l73 312h208v-311h230v-204zM354 -386v238h279v-238h-279z" />
    <glyph glyph-name="u" unicode="u" horiz-adv-x="1177" 
d="M506 -20q-72 0 -141.5 22t-126.5 65t-91.5 106t-34.5 146v715h292v-678q0 -72 47 -118t138 -46q86 0 136.5 44.5t50.5 124.5v673h289v-1034h-220l-34 205q-18 -91 -67.5 -139.5t-113 -67t-124.5 -18.5z" />
    <glyph glyph-name="uacute" unicode="&#xfa;" horiz-adv-x="1177" 
d="M506 -20q-72 0 -141.5 22t-126.5 65t-91.5 106t-34.5 146v715h292v-678q0 -72 47 -118t138 -46q86 0 136.5 44.5t50.5 124.5v673h289v-1034h-220l-34 205q-18 -91 -67.5 -139.5t-113 -67t-124.5 -18.5zM691 1446h301l-297 -291h-210z" />
    <glyph glyph-name="ubreve" unicode="&#x16d;" horiz-adv-x="1177" 
d="M506 -20q-72 0 -141.5 22t-126.5 65t-91.5 106t-34.5 146v715h292v-678q0 -72 47 -118t138 -46q86 0 136.5 44.5t50.5 124.5v673h289v-1034h-220l-34 205q-18 -91 -67.5 -139.5t-113 -67t-124.5 -18.5zM942 1410q-17 -84 -68 -140.5t-124.5 -85.5t-158.5 -29
q-84 0 -157.5 28.5t-124.5 85.5t-68 141h184q15 -50 58 -81.5t108 -31.5q64 0 107.5 31.5t60.5 81.5h183z" />
    <glyph glyph-name="uni01D4" unicode="&#x1d4;" horiz-adv-x="1177" 
d="M506 -20q-72 0 -141.5 22t-126.5 65t-91.5 106t-34.5 146v715h292v-678q0 -72 47 -118t138 -46q86 0 136.5 44.5t50.5 124.5v673h289v-1034h-220l-34 205q-18 -91 -67.5 -139.5t-113 -67t-124.5 -18.5zM490 1155l-263 261h217l146 -150l132 150h228l-257 -261h-203z" />
    <glyph glyph-name="ucircumflex" unicode="&#xfb;" horiz-adv-x="1177" 
d="M506 -20q-72 0 -141.5 22t-126.5 65t-91.5 106t-34.5 146v715h292v-678q0 -72 47 -118t138 -46q86 0 136.5 44.5t50.5 124.5v673h289v-1034h-220l-34 205q-18 -91 -67.5 -139.5t-113 -67t-124.5 -18.5zM722 1155l-132 140l-146 -140h-217l264 259h202l257 -259h-228z" />
    <glyph glyph-name="uni0215" unicode="&#x215;" horiz-adv-x="1177" 
d="M506 -20q-72 0 -141.5 22t-126.5 65t-91.5 106t-34.5 146v715h292v-678q0 -72 47 -118t138 -46q86 0 136.5 44.5t50.5 124.5v673h289v-1034h-220l-34 205q-18 -91 -67.5 -139.5t-113 -67t-124.5 -18.5zM669 1446l201 -291h-211l-257 291h267zM270 1446l247 -291h-210
l-312 291h275z" />
    <glyph glyph-name="udieresis" unicode="&#xfc;" horiz-adv-x="1177" 
d="M506 -20q-72 0 -141.5 22t-126.5 65t-91.5 106t-34.5 146v715h292v-678q0 -72 47 -118t138 -46q86 0 136.5 44.5t50.5 124.5v673h289v-1034h-220l-34 205q-18 -91 -67.5 -139.5t-113 -67t-124.5 -18.5zM686 1184l3 238h273l-2 -238h-274zM220 1184l3 238h273l-2 -238
h-274z" />
    <glyph glyph-name="uni1EE5" unicode="&#x1ee5;" horiz-adv-x="1177" 
d="M506 -20q-72 0 -141.5 22t-126.5 65t-91.5 106t-34.5 146v715h292v-678q0 -72 47 -118t138 -46q86 0 136.5 44.5t50.5 124.5v673h289v-1034h-220l-34 205q-18 -91 -67.5 -139.5t-113 -67t-124.5 -18.5zM457 -398v238h279v-238h-279z" />
    <glyph glyph-name="ugrave" unicode="&#xf9;" horiz-adv-x="1177" 
d="M506 -20q-72 0 -141.5 22t-126.5 65t-91.5 106t-34.5 146v715h292v-678q0 -72 47 -118t138 -46q86 0 136.5 44.5t50.5 124.5v673h289v-1034h-220l-34 205q-18 -91 -67.5 -139.5t-113 -67t-124.5 -18.5zM485 1446h-301l297 -291h210z" />
    <glyph glyph-name="uni1EE7" unicode="&#x1ee7;" horiz-adv-x="1177" 
d="M506 -20q-72 0 -141.5 22t-126.5 65t-91.5 106t-34.5 146v715h292v-678q0 -72 47 -118t138 -46q86 0 136.5 44.5t50.5 124.5v673h289v-1034h-220l-34 205q-18 -91 -67.5 -139.5t-113 -67t-124.5 -18.5zM451 1503l68 -106q36 24 75 22t57 -32q21 -33 7.5 -66.5
t-53.5 -58.5l69 -108q102 60 124.5 141.5t-32.5 166.5q-45 71 -134.5 85.5t-180.5 -44.5z" />
    <glyph glyph-name="uhorn" unicode="&#x1b0;" horiz-adv-x="1420" 
d="M506 -20q-72 0 -141.5 22t-126.5 65t-91.5 106t-34.5 146v715h292v-678q0 -72 47 -118t138 -46q86 0 136.5 44.5t50.5 124.5v673h289v-1034h-220l-34 205q-18 -91 -67.5 -139.5t-113 -67t-124.5 -18.5zM1410 1113q-1 -142 -36 -225.5t-119 -114.5t-234 -15v144
q50 -1 85 3t57.5 23t36 62.5t18.5 122.5h192z" />
    <glyph glyph-name="uni1EE9" unicode="&#x1ee9;" horiz-adv-x="1420" 
d="M702 1446h301l-297 -291h-210zM506 -20q-72 0 -141.5 22t-126.5 65t-91.5 106t-34.5 146v715h292v-678q0 -72 47 -118t138 -46q86 0 136.5 44.5t50.5 124.5v673h289v-1034h-220l-34 205q-18 -91 -67.5 -139.5t-113 -67t-124.5 -18.5zM1410 1113q-1 -142 -36 -225.5
t-119 -114.5t-234 -15v144q50 -1 85 3t57.5 23t36 62.5t18.5 122.5h192z" />
    <glyph glyph-name="uni1EF1" unicode="&#x1ef1;" horiz-adv-x="1420" 
d="M448 -398v238h279v-238h-279zM506 -20q-72 0 -141.5 22t-126.5 65t-91.5 106t-34.5 146v715h292v-678q0 -72 47 -118t138 -46q86 0 136.5 44.5t50.5 124.5v673h289v-1034h-220l-34 205q-18 -91 -67.5 -139.5t-113 -67t-124.5 -18.5zM1410 1113q-1 -142 -36 -225.5
t-119 -114.5t-234 -15v144q50 -1 85 3t57.5 23t36 62.5t18.5 122.5h192z" />
    <glyph glyph-name="uni1EEB" unicode="&#x1eeb;" horiz-adv-x="1420" 
d="M497 1446h-301l297 -291h210zM506 -20q-72 0 -141.5 22t-126.5 65t-91.5 106t-34.5 146v715h292v-678q0 -72 47 -118t138 -46q86 0 136.5 44.5t50.5 124.5v673h289v-1034h-220l-34 205q-18 -91 -67.5 -139.5t-113 -67t-124.5 -18.5zM1410 1113q-1 -142 -36 -225.5
t-119 -114.5t-234 -15v144q50 -1 85 3t57.5 23t36 62.5t18.5 122.5h192z" />
    <glyph glyph-name="uni1EED" unicode="&#x1eed;" horiz-adv-x="1420" 
d="M459 1503l68 -106q36 24 75 22t57 -32q21 -33 7.5 -66.5t-53.5 -58.5l69 -108q102 60 124.5 141.5t-32.5 166.5q-45 71 -134.5 85.5t-180.5 -44.5zM506 -20q-72 0 -141.5 22t-126.5 65t-91.5 106t-34.5 146v715h292v-678q0 -72 47 -118t138 -46q86 0 136.5 44.5
t50.5 124.5v673h289v-1034h-220l-34 205q-18 -91 -67.5 -139.5t-113 -67t-124.5 -18.5zM1410 1113q-1 -142 -36 -225.5t-119 -114.5t-234 -15v144q50 -1 85 3t57.5 23t36 62.5t18.5 122.5h192z" />
    <glyph glyph-name="uni1EEF" unicode="&#x1eef;" horiz-adv-x="1420" 
d="M949 1270q-31 -25 -83 -47.5t-119 -22.5q-56 0 -101.5 14t-89.5 27.5t-95 13.5t-84.5 -15.5t-72.5 -48.5l-45 153q36 37 80 64t112 27q56 0 106.5 -15t97 -30.5t91.5 -15.5q53 0 94 22.5t73 46.5zM506 -20q-72 0 -141.5 22t-126.5 65t-91.5 106t-34.5 146v715h292v-678
q0 -72 47 -118t138 -46q86 0 136.5 44.5t50.5 124.5v673h289v-1034h-220l-34 205q-18 -91 -67.5 -139.5t-113 -67t-124.5 -18.5zM1410 1113q-1 -142 -36 -225.5t-119 -114.5t-234 -15v144q50 -1 85 3t57.5 23t36 62.5t18.5 122.5h192z" />
    <glyph glyph-name="uhungarumlaut" unicode="&#x171;" horiz-adv-x="1177" 
d="M506 -20q-72 0 -141.5 22t-126.5 65t-91.5 106t-34.5 146v715h292v-678q0 -72 47 -118t138 -46q86 0 136.5 44.5t50.5 124.5v673h289v-1034h-220l-34 205q-18 -91 -67.5 -139.5t-113 -67t-124.5 -18.5zM512 1446l-201 -291h211l257 291h-267zM911 1446l-247 -291h210
l312 291h-275z" />
    <glyph glyph-name="uni0217" unicode="&#x217;" horiz-adv-x="1177" 
d="M506 -20q-72 0 -141.5 22t-126.5 65t-91.5 106t-34.5 146v715h292v-678q0 -72 47 -118t138 -46q86 0 136.5 44.5t50.5 124.5v673h289v-1034h-220l-34 205q-18 -91 -67.5 -139.5t-113 -67t-124.5 -18.5zM940 1180q-17 84 -68 140.5t-124.5 85.5t-158.5 29
q-84 0 -157.5 -28.5t-124.5 -85.5t-68 -141h184q15 50 58 81.5t108 31.5q64 0 107.5 -31.5t60.5 -81.5h183z" />
    <glyph glyph-name="umacron" unicode="&#x16b;" horiz-adv-x="1177" 
d="M506 -20q-72 0 -141.5 22t-126.5 65t-91.5 106t-34.5 146v715h292v-678q0 -72 47 -118t138 -46q86 0 136.5 44.5t50.5 124.5v673h289v-1034h-220l-34 205q-18 -91 -67.5 -139.5t-113 -67t-124.5 -18.5zM943 1392v-187h-703v187h703z" />
    <glyph glyph-name="uogonek" unicode="&#x173;" horiz-adv-x="1177" 
d="M506 -20q-72 0 -141.5 22t-126.5 65t-91.5 106t-34.5 146v715h292v-678q0 -72 47 -118t138 -46q86 0 136.5 44.5t50.5 124.5v673h289v-1034h-220l-34 205q-18 -91 -67.5 -139.5t-113 -67t-124.5 -18.5zM661 -173q0 55 37.5 101.5t154.5 85.5l204 -5q-106 -39 -145.5 -72
t-39.5 -74q0 -32 17 -48t55 -16q46 0 81 13.5t64 30.5v-132q-28 -17 -85.5 -32.5t-125.5 -15.5q-102 0 -159.5 42t-57.5 122z" />
    <glyph glyph-name="uring" unicode="&#x16f;" horiz-adv-x="1177" 
d="M506 -20q-72 0 -141.5 22t-126.5 65t-91.5 106t-34.5 146v715h292v-678q0 -72 47 -118t138 -46q86 0 136.5 44.5t50.5 124.5v673h289v-1034h-220l-34 205q-18 -91 -67.5 -139.5t-113 -67t-124.5 -18.5zM810 1352q0 -91 -63.5 -154t-154.5 -63t-154 64t-63 157
q0 88 64 149t153 61q60 0 109.5 -28.5t79 -77t29.5 -108.5zM689 1351q0 43 -28.5 71t-70.5 28q-41 0 -71.5 -28t-30.5 -71q0 -40 30.5 -71t71.5 -31q42 0 70.5 31t28.5 71z" />
    <glyph glyph-name="utilde" unicode="&#x169;" horiz-adv-x="1177" 
d="M506 -20q-72 0 -141.5 22t-126.5 65t-91.5 106t-34.5 146v715h292v-678q0 -72 47 -118t138 -46q86 0 136.5 44.5t50.5 124.5v673h289v-1034h-220l-34 205q-18 -91 -67.5 -139.5t-113 -67t-124.5 -18.5zM942 1270q-31 -25 -83 -47.5t-119 -22.5q-56 0 -101.5 14
t-89.5 27.5t-95 13.5t-84.5 -15.5t-72.5 -48.5l-45 153q36 37 80 64t112 27q56 0 106.5 -15t97 -30.5t91.5 -15.5q53 0 94 22.5t73 46.5z" />
    <glyph glyph-name="v" unicode="v" horiz-adv-x="1040" 
d="M1014 1034l-388 -1034h-211l-389 1034h264l226 -659h8l223 659h267z" />
    <glyph glyph-name="w" unicode="w" horiz-adv-x="1583" 
d="M1551 1034l-340 -1034h-232l-193 626l-192 -626h-226l-335 1034h258l198 -641h8l190 641h208l192 -641h8l192 641h264z" />
    <glyph glyph-name="wacute" unicode="&#x1e83;" horiz-adv-x="1583" 
d="M1551 1034l-340 -1034h-232l-193 626l-192 -626h-226l-335 1034h258l198 -641h8l190 641h208l192 -641h8l192 641h264zM900 1446h301l-297 -291h-210z" />
    <glyph glyph-name="wcircumflex" unicode="&#x175;" horiz-adv-x="1583" 
d="M1551 1034l-340 -1034h-232l-193 626l-192 -626h-226l-335 1034h258l198 -641h8l190 641h208l192 -641h8l192 641h264zM931 1155l-132 140l-146 -140h-217l264 259h202l257 -259h-228z" />
    <glyph glyph-name="wdieresis" unicode="&#x1e85;" horiz-adv-x="1583" 
d="M1551 1034l-340 -1034h-232l-193 626l-192 -626h-226l-335 1034h258l198 -641h8l190 641h208l192 -641h8l192 641h264zM895 1184l3 238h273l-2 -238h-274zM429 1184l3 238h273l-2 -238h-274z" />
    <glyph glyph-name="wgrave" unicode="&#x1e81;" horiz-adv-x="1583" 
d="M1551 1034l-340 -1034h-232l-193 626l-192 -626h-226l-335 1034h258l198 -641h8l190 641h208l192 -641h8l192 641h264zM694 1446h-301l297 -291h210z" />
    <glyph glyph-name="x" unicode="x" horiz-adv-x="1174" 
d="M1140 0h-305l-247 337l-248 -337h-306l398 539l-363 495h305l215 -290l214 290h306l-366 -495z" />
    <glyph glyph-name="y" unicode="y" horiz-adv-x="1125" 
d="M286 -330q-106 0 -149.5 17.5l-43.5 17.5v186l102 -4q67 -4 108 6.5t62.5 27.5t30.5 35.5t13 29.5l19 57l-402 991h289l248 -674l251 674h285l-419 -1040q-54 -132 -114 -202t-129.5 -96t-150.5 -26z" />
    <glyph glyph-name="yacute" unicode="&#xfd;" horiz-adv-x="1125" 
d="M286 -330q-106 0 -149.5 17.5l-43.5 17.5v186l102 -4q67 -4 108 6.5t62.5 27.5t30.5 35.5t13 29.5l19 57l-402 991h289l248 -674l251 674h285l-419 -1040q-54 -132 -114 -202t-129.5 -96t-150.5 -26zM663 1446h301l-297 -291h-210z" />
    <glyph glyph-name="ycircumflex" unicode="&#x177;" horiz-adv-x="1125" 
d="M286 -330q-106 0 -149.5 17.5l-43.5 17.5v186l102 -4q67 -4 108 6.5t62.5 27.5t30.5 35.5t13 29.5l19 57l-402 991h289l248 -674l251 674h285l-419 -1040q-54 -132 -114 -202t-129.5 -96t-150.5 -26zM702 1155l-132 140l-146 -140h-217l264 259h202l257 -259h-228z" />
    <glyph glyph-name="ydieresis" unicode="&#xff;" horiz-adv-x="1125" 
d="M286 -330q-106 0 -149.5 17.5l-43.5 17.5v186l102 -4q67 -4 108 6.5t62.5 27.5t30.5 35.5t13 29.5l19 57l-402 991h289l248 -674l251 674h285l-419 -1040q-54 -132 -114 -202t-129.5 -96t-150.5 -26zM658 1184l3 238h273l-2 -238h-274zM192 1184l3 238h273l-2 -238h-274z
" />
    <glyph glyph-name="uni1EF5" unicode="&#x1ef5;" horiz-adv-x="1125" 
d="M286 -330q-106 0 -149.5 17.5l-43.5 17.5v186l102 -4q67 -4 108 6.5t62.5 27.5t30.5 35.5t13 29.5l19 57l-402 991h289l248 -674l251 674h285l-419 -1040q-54 -132 -114 -202t-129.5 -96t-150.5 -26zM726 -358v238h279v-238h-279z" />
    <glyph glyph-name="ygrave" unicode="&#x1ef3;" horiz-adv-x="1125" 
d="M286 -330q-106 0 -149.5 17.5l-43.5 17.5v186l102 -4q67 -4 108 6.5t62.5 27.5t30.5 35.5t13 29.5l19 57l-402 991h289l248 -674l251 674h285l-419 -1040q-54 -132 -114 -202t-129.5 -96t-150.5 -26zM457 1446h-301l297 -291h210z" />
    <glyph glyph-name="uni1EF7" unicode="&#x1ef7;" horiz-adv-x="1125" 
d="M286 -330q-106 0 -149.5 17.5l-43.5 17.5v186l102 -4q67 -4 108 6.5t62.5 27.5t30.5 35.5t13 29.5l19 57l-402 991h289l248 -674l251 674h285l-419 -1040q-54 -132 -114 -202t-129.5 -96t-150.5 -26zM423 1503l68 -106q36 24 75 22t57 -32q21 -33 7.5 -66.5t-53.5 -58.5
l69 -108q102 60 124.5 141.5t-32.5 166.5q-45 71 -134.5 85.5t-180.5 -44.5z" />
    <glyph glyph-name="uni1EF9" unicode="&#x1ef9;" horiz-adv-x="1125" 
d="M286 -330q-106 0 -149.5 17.5l-43.5 17.5v186l102 -4q67 -4 108 6.5t62.5 27.5t30.5 35.5t13 29.5l19 57l-402 991h289l248 -674l251 674h285l-419 -1040q-54 -132 -114 -202t-129.5 -96t-150.5 -26zM913 1270q-31 -25 -83 -47.5t-119 -22.5q-56 0 -101.5 14t-89.5 27.5
t-95 13.5t-84.5 -15.5t-72.5 -48.5l-45 153q36 37 80 64t112 27q56 0 106.5 -15t97 -30.5t91.5 -15.5q53 0 94 22.5t73 46.5z" />
    <glyph glyph-name="z" unicode="z" horiz-adv-x="986" 
d="M63 0v163l510 667h-484v204h838v-163l-511 -667h514v-204h-867z" />
    <glyph glyph-name="zacute" unicode="&#x17a;" horiz-adv-x="986" 
d="M63 0v163l510 667h-484v204h838v-163l-511 -667h514v-204h-867zM600 1446h301l-297 -291h-210z" />
    <glyph glyph-name="zcaron" unicode="&#x17e;" horiz-adv-x="986" 
d="M63 0v163l510 667h-484v204h838v-163l-511 -667h514v-204h-867zM399 1155l-263 261h217l146 -150l132 150h228l-257 -261h-203z" />
    <glyph glyph-name="zdotaccent" unicode="&#x17c;" horiz-adv-x="986" 
d="M63 0v163l510 667h-484v204h838v-163l-511 -667h514v-204h-867zM360 1184v238h279v-238h-279z" />
    <glyph glyph-name="uni1E93" unicode="&#x1e93;" horiz-adv-x="986" 
d="M63 0v163l510 667h-484v204h838v-163l-511 -667h514v-204h-867zM362 -398v238h279v-238h-279z" />
    <glyph glyph-name="g.ss01" horiz-adv-x="1167" 
d="M1007 28q1 -122 -53.5 -203.5t-151 -122t-221.5 -40.5q-70 0 -135.5 18t-119 53.5t-91 88t-52.5 120.5h84q32 -109 122 -158.5t192 -51.5q130 -2 208 41t113.5 110.5t36.5 140.5l2 168q-46 -94 -136.5 -137t-207.5 -43q-109 0 -196 37t-148 103t-94.5 155.5t-37.5 194.5
q-4 113 25.5 212t89.5 175.5t148 119.5t201 43q96 0 167 -34.5t115 -80t60 -77.5l3 172h67zM935 364l-5 344q-1 61 -48 123.5t-125 104.5t-172 42q-122 0 -207.5 -60.5t-130 -167.5t-44.5 -248q0 -123 49.5 -216.5t138.5 -146.5t208 -53q138 0 211 42t99.5 106t25.5 130z
" />
    <glyph glyph-name="l.ss01" horiz-adv-x="616" 
d="M162 0v1486h292v-1486h-292z" />
    <glyph glyph-name="ordfeminine" unicode="&#xaa;" horiz-adv-x="828" 
d="M290 794q-104 0 -159 50.5t-55 133.5q0 97 90 157.5t249 65.5l78 4v43q0 57 -33 76t-72 19q-41 0 -75 -17t-58 -67l-164 36q38 83 105.5 126t197.5 43q155 -1 217 -56t62 -151v-137.5v-113.5q0 -11 1 -37.5t2.5 -55.5t4.5 -48l13 -59h-186l-16 70q-53 -41 -97.5 -61.5
t-104.5 -20.5zM361 913q59 0 100 35q14 14 23 27t9 31v97l-65 -3q-78 -3 -122.5 -32.5t-44.5 -78.5q0 -34 27 -55t73 -21z" />
    <glyph glyph-name="ordmasculine" unicode="&#xba;" horiz-adv-x="793" 
d="M396 1465q99 0 172.5 -43t114.5 -119.5t41 -175.5q0 -97 -41 -172t-114.5 -117.5t-172.5 -42.5t-173 42.5t-114 117.5t-40 172q0 101 42 177t116 118.5t169 42.5zM396 1340q-67 0 -100 -52.5t-33 -155.5t33 -156t100 -53q68 0 101 53t33 156t-33 155.5t-101 52.5z" />
    <glyph glyph-name="pi" unicode="&#x3c0;" horiz-adv-x="1349" 
d="M1289 831h-189v-831h-280l-1 831h-315q0 -97 -9.5 -211.5t-25.5 -229.5t-37.5 -216.5t-45.5 -173.5h-272q22 84 41.5 186t35 211.5t24.5 215.5t9 198q0 20 -17 20h-161v203h1243v-203z" />
    <glyph glyph-name="zero" unicode="0" horiz-adv-x="1289" 
d="M646 1466q258 0 407 -192.5t149 -553.5q0 -359 -147 -550.5t-409 -191.5q-263 0 -410.5 191t-147.5 550q0 240 68 407t193 253.5t297 86.5zM646 217q129 0 189 115.5t60 386.5q0 277 -61 397t-189 120t-190.5 -121t-62.5 -396q0 -270 62 -386t192 -116z" />
    <glyph glyph-name="one" unicode="1" horiz-adv-x="856" 
d="M344 0v1083h-258v165q124 0 200.5 23.5t114.5 68t45 106.5h194v-1446h-296z" />
    <glyph glyph-name="two" unicode="2" horiz-adv-x="1270" 
d="M113 0v144v74q0 110 41 190.5t108.5 140t148 104.5t161.5 85t148.5 80.5t108.5 90.5t41 118q0 87 -60.5 142t-165.5 55q-109 0 -185 -63t-94 -190h-279q2 138 64.5 250.5t187.5 178.5t314 66q162 0 279.5 -55t181.5 -153t64 -229q0 -109 -40 -188t-106 -135t-145 -98
t-157.5 -78t-144.5 -73.5t-106 -84.5t-40 -113v-13h737v-246h-1062z" />
    <glyph glyph-name="three" unicode="3" horiz-adv-x="1330" 
d="M97 1001q0 156 73.5 259t198.5 154.5t278 51.5q162 0 288.5 -42t199.5 -128t73 -218q0 -107 -62 -188.5t-202 -129.5q80 -22 148 -67t109 -115t41 -168q0 -106 -47 -187t-130 -136t-192 -82t-233 -27q-174 1 -296.5 57.5t-188 161.5t-67.5 250h281q21 -123 96 -178
t178 -55q90 0 154.5 26t99 72.5t34.5 106.5q0 62 -35.5 107t-98.5 70.5t-144 27.5l-138 5v232l124 7q78 3 136 29t90.5 69.5t32.5 98.5q0 53 -33 92t-91 61t-133 22q-69 0 -127 -23t-95 -75.5t-43 -140.5h-279z" />
    <glyph glyph-name="four" unicode="4" horiz-adv-x="1312" 
d="M745 1446h287v-881h223v-245h-223v-320h-281l1 320h-666v240zM356 565h396v530z" />
    <glyph glyph-name="five" unicode="5" horiz-adv-x="1350" 
d="M239 1446h929l-11 -239h-687l-28 -349q80 45 152.5 65t159.5 20q145 0 259.5 -54.5t181.5 -159.5t67 -256q0 -153 -69 -264t-195.5 -171t-299.5 -60q-142 0 -264 44t-211 120.5t-135 175.5l228 135q39 -68 88 -122.5t113.5 -86t150.5 -31.5q130 0 209 69t79 180
q0 70 -35.5 125.5t-97.5 87.5t-145 32q-44 0 -83.5 -7.5t-80 -28t-89.5 -58.5q-14 -6 -19.5 -6t-20.5 7l-212 98z" />
    <glyph glyph-name="six" unicode="6" horiz-adv-x="1321" 
d="M695 1466q136 0 251 -49.5t187.5 -143t79.5 -224.5h-267q-26 91 -88 138.5t-157 47.5q-104 0 -173 -59t-99 -165t-16 -247q33 48 84 81.5t114 51.5t131 18q147 0 257 -54.5t172 -154.5t62 -234q0 -142 -69.5 -253.5t-193.5 -176t-287 -64.5q-184 0 -318 89t-205.5 250
t-71.5 378q0 238 72.5 411t208.5 266.5t326 93.5zM674 697q-62 0 -119.5 -27.5t-94 -70t-36.5 -86.5q-1 -97 30.5 -166.5t88 -107t130.5 -37.5q70 0 126.5 32.5t90.5 90.5t34 133q0 80 -33 133t-89.5 79.5t-127.5 26.5z" />
    <glyph glyph-name="seven" unicode="7" horiz-adv-x="1252" 
d="M86 1446h1080v-239q-69 -86 -138.5 -203t-133 -250t-114.5 -269t-82 -261t-34 -224h-315q8 88 40 222.5t93.5 298t155 339.5t223.5 347h-775v239z" />
    <glyph glyph-name="eight" unicode="8" horiz-adv-x="1342" 
d="M670 1466q149 0 266.5 -47t185.5 -137.5t68 -222.5q0 -111 -61 -189t-150 -120q66 -14 129.5 -65.5t104.5 -126t41 -157.5q0 -129 -72.5 -224t-204 -146.5t-307.5 -51.5q-174 0 -305 51.5t-204 146.5t-73 224q0 83 41 157.5t104 126t130 65.5q-89 42 -151 120t-62 189
q0 132 68.5 222.5t186.5 137.5t265 47zM670 863q100 0 164.5 53.5t64.5 148.5q0 94 -65 149t-164 55q-98 0 -163 -55t-65 -149q0 -95 65 -148.5t163 -53.5zM670 199q128 0 200.5 57.5t72.5 152.5q0 64 -33 112.5t-94 76.5t-146 28q-83 0 -144 -28t-94 -76.5t-33 -112.5
q0 -95 73 -152.5t198 -57.5z" />
    <glyph glyph-name="nine" unicode="9" horiz-adv-x="1318" 
d="M619 -22q-135 0 -252 52t-191 146.5t-83 221.5h278q18 -84 80 -136.5t156 -52.5q104 0 182.5 49t118 156t27.5 280q-28 -53 -77.5 -92.5t-115.5 -61t-147 -21.5q-147 0 -260.5 55.5t-178 158t-64.5 243.5q0 142 68 253t190 174t286 63q184 0 317.5 -87.5t205 -248
t71.5 -377.5q0 -259 -73.5 -431.5t-210.5 -258t-327 -85.5zM645 751q61 0 118.5 27.5t94.5 69.5t37 87q1 97 -30.5 166.5t-88 106.5t-131.5 37q-69 0 -123 -32t-85 -90t-31 -134q0 -113 66 -175.5t173 -62.5z" />
    <glyph glyph-name="zero.osf" horiz-adv-x="1289" 
d="M646 1466q258 0 407 -192.5t149 -553.5q0 -359 -147 -550.5t-409 -191.5q-263 0 -410.5 191t-147.5 550q0 240 68 407t193 253.5t297 86.5zM646 217q129 0 189 115.5t60 386.5q0 277 -61 397t-189 120t-190.5 -121t-62.5 -396q0 -270 62 -386t192 -116z" />
    <glyph glyph-name="one.osf" horiz-adv-x="856" 
d="M344 0v1083h-258v165q124 0 200.5 23.5t114.5 68t45 106.5h194v-1446h-296z" />
    <glyph glyph-name="two.osf" horiz-adv-x="1270" 
d="M113 0v144v74q0 110 41 190.5t108.5 140t148 104.5t161.5 85t148.5 80.5t108.5 90.5t41 118q0 87 -60.5 142t-165.5 55q-109 0 -185 -63t-94 -190h-279q2 138 64.5 250.5t187.5 178.5t314 66q162 0 279.5 -55t181.5 -153t64 -229q0 -109 -40 -188t-106 -135t-145 -98
t-157.5 -78t-144.5 -73.5t-106 -84.5t-40 -113v-13h737v-246h-1062z" />
    <glyph glyph-name="three.osf" horiz-adv-x="1330" 
d="M97 1004q0 156 73.5 259t198.5 154.5t278 51.5q162 0 288.5 -42t199.5 -128t73 -218q0 -107 -62 -188.5t-202 -129.5q80 -22 148 -67t109 -115t41 -168q0 -106 -47 -187t-130 -136t-192 -82t-233 -27q-174 1 -296.5 57.5t-188 161.5t-67.5 250h281q21 -123 96 -178
t178 -55q90 0 154.5 26t99 72.5t34.5 106.5q0 62 -35.5 107t-98.5 70.5t-144 27.5l-138 5v232l124 7q78 3 136 29t90.5 69.5t32.5 98.5q0 53 -33 92t-91 61t-133 22q-69 0 -127 -23t-95 -75.5t-43 -140.5h-279z" />
    <glyph glyph-name="four.osf" horiz-adv-x="1312" 
d="M745 1446h287v-881h223v-245h-223v-320h-281l1 320h-666v240zM356 565h396v530z" />
    <glyph glyph-name="five.osf" horiz-adv-x="1350" 
d="M239 1446h929l-11 -239h-687l-28 -349q80 45 152.5 65t159.5 20q145 0 259.5 -54.5t181.5 -159.5t67 -256q0 -153 -69 -264t-195.5 -171t-299.5 -60q-142 0 -264 44t-211 120.5t-135 175.5l228 135q39 -68 88 -122.5t113.5 -86t150.5 -31.5q130 0 209 69t79 180
q0 70 -35.5 125.5t-97.5 87.5t-145 32q-44 0 -83.5 -7.5t-80 -28t-89.5 -58.5q-14 -6 -19.5 -6t-20.5 7l-212 98z" />
    <glyph glyph-name="six.osf" horiz-adv-x="1321" 
d="M695 1466q136 0 251 -49.5t187.5 -143t79.5 -224.5h-267q-26 91 -88 138.5t-157 47.5q-104 0 -173 -59t-99 -165t-16 -247q33 48 84 81.5t114 51.5t131 18q147 0 257 -54.5t172 -154.5t62 -234q0 -142 -69.5 -253.5t-193.5 -176t-287 -64.5q-184 0 -318 89t-205.5 250
t-71.5 378q0 238 72.5 411t208.5 266.5t326 93.5zM674 697q-62 0 -119.5 -27.5t-94 -70t-36.5 -86.5q-1 -97 30.5 -166.5t88 -107t130.5 -37.5q70 0 126.5 32.5t90.5 90.5t34 133q0 80 -33 133t-89.5 79.5t-127.5 26.5z" />
    <glyph glyph-name="seven.osf" horiz-adv-x="1252" 
d="M86 1446h1080v-239q-69 -86 -138.5 -203t-133 -250t-114.5 -269t-82 -261t-34 -224h-315q8 88 40 222.5t93.5 298t155 339.5t223.5 347h-775v239z" />
    <glyph glyph-name="eight.osf" horiz-adv-x="1342" 
d="M670 1466q149 0 266.5 -47t185.5 -137.5t68 -222.5q0 -111 -61 -189t-150 -120q66 -14 129.5 -65.5t104.5 -126t41 -157.5q0 -129 -72.5 -224t-204 -146.5t-307.5 -51.5q-174 0 -305 51.5t-204 146.5t-73 224q0 83 41 157.5t104 126t130 65.5q-89 42 -151 120t-62 189
q0 132 68.5 222.5t186.5 137.5t265 47zM670 863q100 0 164.5 53.5t64.5 148.5q0 94 -65 149t-164 55q-98 0 -163 -55t-65 -149q0 -95 65 -148.5t163 -53.5zM670 199q128 0 200.5 57.5t72.5 152.5q0 64 -33 112.5t-94 76.5t-146 28q-83 0 -144 -28t-94 -76.5t-33 -112.5
q0 -95 73 -152.5t198 -57.5z" />
    <glyph glyph-name="nine.osf" horiz-adv-x="1318" 
d="M619 -22q-135 0 -252 52t-191 146.5t-83 221.5h278q18 -84 80 -136.5t156 -52.5q104 0 182.5 49t118 156t27.5 280q-28 -53 -77.5 -92.5t-115.5 -61t-147 -21.5q-147 0 -260.5 55.5t-178 158t-64.5 243.5q0 142 68 253t190 174t286 63q184 0 317.5 -87.5t205 -248
t71.5 -377.5q0 -259 -73.5 -431.5t-210.5 -258t-327 -85.5zM645 751q61 0 118.5 27.5t94.5 69.5t37 87q1 97 -30.5 166.5t-88 106.5t-131.5 37q-69 0 -123 -32t-85 -90t-31 -134q0 -113 66 -175.5t173 -62.5z" />
    <glyph glyph-name="zero.tf" horiz-adv-x="1400" 
d="M701 1466q258 0 407 -192.5t149 -553.5q0 -359 -147 -550.5t-409 -191.5q-263 0 -410.5 191t-147.5 550q0 240 68 407t193 253.5t297 86.5zM701 217q129 0 189 115.5t60 386.5q0 277 -61 397t-189 120t-190.5 -121t-62.5 -396q0 -270 62 -386t192 -116z" />
    <glyph glyph-name="one.tf" horiz-adv-x="1400" 
d="M185 246h1053v-246h-1053v246zM590 1v1133l-383 -115v254l547 174h120v-1446h-284z" />
    <glyph glyph-name="two.tf" horiz-adv-x="1400" 
d="M193 0v144v74q0 110 41 190.5t108.5 140t148 104.5t161.5 85t148.5 80.5t108.5 90.5t41 118q0 87 -60.5 142t-165.5 55q-109 0 -185 -63t-94 -190h-279q2 138 64.5 250.5t187.5 178.5t314 66q162 0 279.5 -55t181.5 -153t64 -229q0 -109 -40 -188t-106 -135t-145 -98
t-157.5 -78t-144.5 -73.5t-106 -84.5t-40 -113v-13h737v-246h-1062z" />
    <glyph glyph-name="three.tf" horiz-adv-x="1400" 
d="M142 1001q0 156 73.5 259t198.5 154.5t278 51.5q162 0 288.5 -42t199.5 -128t73 -218q0 -107 -62 -188.5t-202 -129.5q80 -22 148 -67t109 -115t41 -168q0 -106 -47 -187t-130 -136t-192 -82t-233 -27q-174 1 -296.5 57.5t-188 161.5t-67.5 250h281q21 -123 96 -178
t178 -55q90 0 154.5 26t99 72.5t34.5 106.5q0 62 -35.5 107t-98.5 70.5t-144 27.5l-138 5v232l124 7q78 3 136 29t90.5 69.5t32.5 98.5q0 53 -33 92t-91 61t-133 22q-69 0 -127 -23t-95 -75.5t-43 -140.5h-279z" />
    <glyph glyph-name="four.tf" horiz-adv-x="1400" 
d="M772 1446h287v-881h223v-245h-223v-320h-281l1 320h-666v240zM383 565h396v530z" />
    <glyph glyph-name="five.tf" horiz-adv-x="1400" 
d="M301 1446h929l-11 -239h-687l-28 -349q80 45 152.5 65t159.5 20q145 0 259.5 -54.5t181.5 -159.5t67 -256q0 -153 -69 -264t-195.5 -171t-299.5 -60q-142 0 -264 44t-211 120.5t-135 175.5l228 135q39 -68 88 -122.5t113.5 -86t150.5 -31.5q130 0 209 69t79 180
q0 70 -35.5 125.5t-97.5 87.5t-145 32q-44 0 -83.5 -7.5t-80 -28t-89.5 -58.5q-14 -6 -19.5 -6t-20.5 7l-212 98z" />
    <glyph glyph-name="six.tf" horiz-adv-x="1400" 
d="M735 1466q136 0 251 -49.5t187.5 -143t79.5 -224.5h-267q-26 91 -88 138.5t-157 47.5q-104 0 -173 -59t-99 -165t-16 -247q33 48 84 81.5t114 51.5t131 18q147 0 257 -54.5t172 -154.5t62 -234q0 -142 -69.5 -253.5t-193.5 -176t-287 -64.5q-184 0 -318 89t-205.5 250
t-71.5 378q0 238 72.5 411t208.5 266.5t326 93.5zM714 697q-62 0 -119.5 -27.5t-94 -70t-36.5 -86.5q-1 -97 30.5 -166.5t88 -107t130.5 -37.5q70 0 126.5 32.5t90.5 90.5t34 133q0 80 -33 133t-89.5 79.5t-127.5 26.5z" />
    <glyph glyph-name="seven.tf" horiz-adv-x="1400" 
d="M123 1446h1158v-239q-69 -86 -146 -203t-151.5 -250t-136.5 -269t-100 -261t-42 -224h-318q8 88 51.5 222.5t120 298t181.5 339.5t235 347h-852v239z" />
    <glyph glyph-name="eight.tf" horiz-adv-x="1400" 
d="M699 1466q149 0 266.5 -47t185.5 -137.5t68 -222.5q0 -111 -61 -189t-150 -120q66 -14 129.5 -65.5t104.5 -126t41 -157.5q0 -129 -72.5 -224t-204 -146.5t-307.5 -51.5q-174 0 -305 51.5t-204 146.5t-73 224q0 83 41 157.5t104 126t130 65.5q-89 42 -151 120t-62 189
q0 132 68.5 222.5t186.5 137.5t265 47zM699 863q100 0 164.5 53.5t64.5 148.5q0 94 -65 149t-164 55q-98 0 -163 -55t-65 -149q0 -95 65 -148.5t163 -53.5zM699 199q128 0 200.5 57.5t72.5 152.5q0 64 -33 112.5t-94 76.5t-146 28q-83 0 -144 -28t-94 -76.5t-33 -112.5
q0 -95 73 -152.5t198 -57.5z" />
    <glyph glyph-name="nine.tf" horiz-adv-x="1400" 
d="M667 -22q-135 0 -252 52t-191 146.5t-83 221.5h278q18 -84 80 -136.5t156 -52.5q104 0 182.5 49t118 156t27.5 280q-28 -53 -77.5 -92.5t-115.5 -61t-147 -21.5q-147 0 -260.5 55.5t-178 158t-64.5 243.5q0 142 68 253t190 174t286 63q184 0 317.5 -87.5t205 -248
t71.5 -377.5q0 -259 -73.5 -431.5t-210.5 -258t-327 -85.5zM693 751q61 0 118.5 27.5t94.5 69.5t37 87q1 97 -30.5 166.5t-88 106.5t-131.5 37q-69 0 -123 -32t-85 -90t-31 -134q0 -113 66 -175.5t173 -62.5z" />
    <glyph glyph-name="zero.subs" horiz-adv-x="804" 
d="M403 591q166 0 258 -124t92 -346t-91 -343t-259 -121t-259.5 120.5t-91.5 342.5q0 223 92.5 347t258.5 124zM403 -192q83 0 119 73t36 238q0 170 -37 246.5t-119 76.5q-81 0 -118.5 -77t-37.5 -246q0 -164 37 -237.5t120 -73.5z" />
    <glyph glyph-name="one.subs" horiz-adv-x="513" 
d="M204 -331v679h-162v106q116 0 167.5 32.5t58.5 92.5h126v-910h-190z" />
    <glyph glyph-name="two.subs" horiz-adv-x="784" 
d="M59 -331v92v46q0 81 34 137t88.5 95.5t115 70t114.5 59t88.5 63t34.5 83.5q0 54 -38 88t-102 34q-66 0 -114.5 -39t-58.5 -120h-179q0 88 40 158.5t119 112.5t198 42q153 0 241.5 -75.5t88.5 -199.5q0 -80 -33.5 -134.5t-86 -91.5t-112 -64.5t-112 -53.5t-86 -58.5
t-33.5 -79.5v-7h462v-158h-669z" />
    <glyph glyph-name="three.subs" horiz-adv-x="850" 
d="M67 296q0 97 45.5 162.5t124.5 98.5t177 33q102 0 181.5 -26.5t125.5 -80t46 -137.5q0 -67 -38.5 -118t-124.5 -81q74 -21 129 -74t55 -146q0 -90 -51 -150.5t-137 -90.5t-191 -30q-165 1 -255.5 80t-91.5 216h179q13 -77 60 -111t110 -34q84 0 131.5 35t47.5 91
q0 55 -46.5 90t-126.5 37l-87 3v149l79 4q48 2 84 18t56 42.5t20 61.5q0 49 -44.5 78t-113.5 29q-43 0 -79.5 -14.5t-59.5 -47t-26 -87.5h-179z" />
    <glyph glyph-name="four.subs" horiz-adv-x="820" 
d="M455 582h183v-553h140v-156h-140v-201h-180l1 201h-417v152zM215 29h244v326z" />
    <glyph glyph-name="five.subs" horiz-adv-x="843" 
d="M147 580h586l-7 -154h-431l-17 -211q49 24 93.5 37t100.5 13q90 0 162.5 -35t114.5 -101t42 -161q0 -144 -96 -227t-258 -83q-135 0 -239 60t-146 155l146 84q38 -65 89 -107.5t131 -42.5q81 0 129.5 43.5t48.5 110.5q0 65 -47.5 108.5t-124.5 43.5q-42 0 -77.5 -11.5
t-81.5 -48.5q-9 -3 -12 -3t-13 5l-134 61z" />
    <glyph glyph-name="six.subs" horiz-adv-x="824" 
d="M434 592q86 0 159 -31.5t118.5 -91t49.5 -141.5h-171q-17 58 -55.5 87t-96.5 29q-97 0 -144 -79t-36 -204q35 42 89.5 64t115.5 22q141 0 225.5 -77t84.5 -203q0 -89 -44 -158.5t-122 -108.5t-180 -39q-177 0 -276 121.5t-99 324.5q0 229 103 357t279 128zM420 106
q-39 0 -74 -17.5t-57.5 -43.5t-22.5 -52q-1 -91 42.5 -141t111.5 -50q65 0 110 43.5t45 113.5q0 77 -45.5 112t-109.5 35z" />
    <glyph glyph-name="seven.subs" horiz-adv-x="745" 
d="M42 579h681v-153q-54 -66 -108.5 -163t-100.5 -204.5t-75 -209.5t-31 -180h-201q6 74 40 197t102.5 270t177.5 290h-485v153z" />
    <glyph glyph-name="eight.subs" horiz-adv-x="859" 
d="M430 594q143 0 235.5 -67t92.5 -189q0 -68 -36.5 -116t-93.5 -75q43 -10 81.5 -43t63 -79t24.5 -98q0 -123 -101 -194t-266 -71t-266.5 71t-101.5 194q0 52 25 98t64 79t80 43q-56 27 -93 75t-37 116q0 122 93.5 189t235.5 67zM430 218q63 0 102.5 33.5t39.5 90.5
q0 58 -40 92t-102 34t-102 -34t-40 -92q0 -57 39.5 -90.5t102.5 -33.5zM430 -198q79 0 124 35.5t45 94.5q0 60 -45.5 97t-123.5 37q-79 0 -124 -37t-45 -97q0 -59 44.5 -94.5t124.5 -35.5z" />
    <glyph glyph-name="nine.subs" horiz-adv-x="823" 
d="M387 -343q-87 0 -161 33t-120 92.5t-51 138.5h177q12 -53 50.5 -84.5t95.5 -31.5q98 0 156 68t49 222q-30 -47 -83.5 -74.5t-128.5 -27.5q-139 0 -227.5 78.5t-88.5 209.5q0 91 43 160.5t120.5 108.5t178.5 39q176 0 275 -122t99 -325q0 -247 -103.5 -366t-280.5 -119z
M403 142q38 0 73.5 17.5t58.5 44t23 52.5q1 92 -42.5 142t-112.5 50q-64 0 -106 -43.5t-42 -114.5q0 -73 42.5 -110.5t105.5 -37.5z" />
    <glyph glyph-name="zero.dnom" horiz-adv-x="804" 
d="M403 921q166 0 258 -124t92 -346t-91 -343t-259 -121t-259.5 120.5t-91.5 342.5q0 223 92.5 347t258.5 124zM403 138q83 0 119 73t36 238q0 170 -37 246.5t-119 76.5q-81 0 -118.5 -77t-37.5 -246q0 -164 37 -237.5t120 -73.5z" />
    <glyph glyph-name="one.dnom" horiz-adv-x="513" 
d="M204 -1v679h-162v106q116 0 167.5 32.5t58.5 92.5h126v-910h-190z" />
    <glyph glyph-name="two.dnom" horiz-adv-x="784" 
d="M59 -1v92v46q0 81 34 137t88.5 95.5t115 70t114.5 59t88.5 63t34.5 83.5q0 54 -38 88t-102 34q-66 0 -114.5 -39t-58.5 -120h-179q0 88 40 158.5t119 112.5t198 42q153 0 241.5 -75.5t88.5 -199.5q0 -80 -33.5 -134.5t-86 -91.5t-112 -64.5t-112 -53.5t-86 -58.5
t-33.5 -79.5v-7h462v-158h-669z" />
    <glyph glyph-name="three.dnom" horiz-adv-x="850" 
d="M67 626q0 97 45.5 162.5t124.5 98.5t177 33q102 0 181.5 -26.5t125.5 -80t46 -137.5q0 -67 -38.5 -118t-124.5 -81q74 -21 129 -74t55 -146q0 -90 -51 -150.5t-137 -90.5t-191 -30q-165 1 -255.5 80t-91.5 216h179q13 -77 60 -111t110 -34q84 0 131.5 35t47.5 91
q0 55 -46.5 90t-126.5 37l-87 3v149l79 4q48 2 84 18t56 42.5t20 61.5q0 49 -44.5 78t-113.5 29q-43 0 -79.5 -14.5t-59.5 -47t-26 -87.5h-179z" />
    <glyph glyph-name="four.dnom" horiz-adv-x="820" 
d="M455 912h183v-553h140v-156h-140v-201h-180l1 201h-417v152zM215 359h244v326z" />
    <glyph glyph-name="five.dnom" horiz-adv-x="843" 
d="M147 910h586l-7 -154h-431l-17 -211q49 24 93.5 37t100.5 13q90 0 162.5 -35t114.5 -101t42 -161q0 -144 -96 -227t-258 -83q-135 0 -239 60t-146 155l146 84q38 -65 89 -107.5t131 -42.5q81 0 129.5 43.5t48.5 110.5q0 65 -47.5 108.5t-124.5 43.5q-42 0 -77.5 -11.5
t-81.5 -48.5q-9 -3 -12 -3t-13 5l-134 61z" />
    <glyph glyph-name="six.dnom" horiz-adv-x="824" 
d="M434 922q86 0 159 -31.5t118.5 -91t49.5 -141.5h-171q-17 58 -55.5 87t-96.5 29q-97 0 -144 -79t-36 -204q35 42 89.5 64t115.5 22q141 0 225.5 -77t84.5 -203q0 -89 -44 -158.5t-122 -108.5t-180 -39q-177 0 -276 121.5t-99 324.5q0 229 103 357t279 128zM420 436
q-39 0 -74 -17.5t-57.5 -43.5t-22.5 -52q-1 -91 42.5 -141t111.5 -50q65 0 110 43.5t45 113.5q0 77 -45.5 112t-109.5 35z" />
    <glyph glyph-name="seven.dnom" horiz-adv-x="745" 
d="M42 909h681v-153q-54 -66 -108.5 -163t-100.5 -204.5t-75 -209.5t-31 -180h-201q6 74 40 197t102.5 270t177.5 290h-485v153z" />
    <glyph glyph-name="eight.dnom" horiz-adv-x="859" 
d="M430 922q143 0 235.5 -67t92.5 -189q0 -68 -36.5 -116t-93.5 -75q43 -10 81.5 -43t63 -79t24.5 -98q0 -123 -101 -194t-266 -71t-266.5 71t-101.5 194q0 52 25 98t64 79t80 43q-56 27 -93 75t-37 116q0 122 93.5 189t235.5 67zM430 546q63 0 102.5 33.5t39.5 90.5
q0 58 -40 92t-102 34t-102 -34t-40 -92q0 -57 39.5 -90.5t102.5 -33.5zM430 130q79 0 124 35.5t45 94.5q0 60 -45.5 97t-123.5 37q-79 0 -124 -37t-45 -97q0 -59 44.5 -94.5t124.5 -35.5z" />
    <glyph glyph-name="nine.dnom" horiz-adv-x="823" 
d="M387 -13q-87 0 -161 33t-120 92.5t-51 138.5h177q12 -53 50.5 -84.5t95.5 -31.5q98 0 156 68t49 222q-30 -47 -83.5 -74.5t-128.5 -27.5q-139 0 -227.5 78.5t-88.5 209.5q0 91 43 160.5t120.5 108.5t178.5 39q176 0 275 -122t99 -325q0 -247 -103.5 -366t-280.5 -119z
M403 472q38 0 73.5 17.5t58.5 44t23 52.5q1 92 -42.5 142t-112.5 50q-64 0 -106 -43.5t-42 -114.5q0 -73 42.5 -110.5t105.5 -37.5z" />
    <glyph glyph-name="zero.numr" horiz-adv-x="804" 
d="M403 1459q166 0 258 -124t92 -346t-91 -343t-259 -121t-259.5 120.5t-91.5 342.5q0 223 92.5 347t258.5 124zM403 676q83 0 119 73t36 238q0 170 -37 246.5t-119 76.5q-81 0 -118.5 -77t-37.5 -246q0 -164 37 -237.5t120 -73.5z" />
    <glyph glyph-name="one.numr" horiz-adv-x="513" 
d="M204 536v679h-162v106q116 0 167.5 32.5t58.5 92.5h126v-910h-190z" />
    <glyph glyph-name="two.numr" horiz-adv-x="784" 
d="M59 537v92v46q0 81 34 137t88.5 95.5t115 70t114.5 59t88.5 63t34.5 83.5q0 54 -38 88t-102 34q-66 0 -114.5 -39t-58.5 -120h-179q0 88 40 158.5t119 112.5t198 42q153 0 241.5 -75.5t88.5 -199.5q0 -80 -33.5 -134.5t-86 -91.5t-112 -64.5t-112 -53.5t-86 -58.5
t-33.5 -79.5v-7h462v-158h-669z" />
    <glyph glyph-name="three.numr" horiz-adv-x="850" 
d="M67 1166q0 97 45.5 162.5t124.5 98.5t177 33q102 0 181.5 -26.5t125.5 -80t46 -137.5q0 -67 -38.5 -118t-124.5 -81q74 -21 129 -74t55 -146q0 -90 -51 -150.5t-137 -90.5t-191 -30q-165 1 -255.5 80t-91.5 216h179q13 -77 60 -111t110 -34q84 0 131.5 35t47.5 91
q0 55 -46.5 90t-126.5 37l-87 3v149l79 4q48 2 84 18t56 42.5t20 61.5q0 49 -44.5 78t-113.5 29q-43 0 -79.5 -14.5t-59.5 -47t-26 -87.5h-179z" />
    <glyph glyph-name="four.numr" horiz-adv-x="820" 
d="M455 1447h183v-553h140v-156h-140v-201h-180l1 201h-417v152zM215 894h244v326z" />
    <glyph glyph-name="five.numr" horiz-adv-x="843" 
d="M147 1446h586l-7 -154h-431l-17 -211q49 24 93.5 37t100.5 13q90 0 162.5 -35t114.5 -101t42 -161q0 -144 -96 -227t-258 -83q-135 0 -239 60t-146 155l146 84q38 -65 89 -107.5t131 -42.5q81 0 129.5 43.5t48.5 110.5q0 65 -47.5 108.5t-124.5 43.5q-42 0 -77.5 -11.5
t-81.5 -48.5q-9 -3 -12 -3t-13 5l-134 61z" />
    <glyph glyph-name="six.numr" horiz-adv-x="824" 
d="M434 1457q86 0 159 -31.5t118.5 -91t49.5 -141.5h-171q-17 58 -55.5 87t-96.5 29q-97 0 -144 -79t-36 -204q35 42 89.5 64t115.5 22q141 0 225.5 -77t84.5 -203q0 -89 -44 -158.5t-122 -108.5t-180 -39q-177 0 -276 121.5t-99 324.5q0 229 103 357t279 128zM420 971
q-39 0 -74 -17.5t-57.5 -43.5t-22.5 -52q-1 -91 42.5 -141t111.5 -50q65 0 110 43.5t45 113.5q0 77 -45.5 112t-109.5 35z" />
    <glyph glyph-name="seven.numr" horiz-adv-x="745" 
d="M42 1447h681v-153q-54 -66 -108.5 -163t-100.5 -204.5t-75 -209.5t-31 -180h-201q6 74 40 197t102.5 270t177.5 290h-485v153z" />
    <glyph glyph-name="eight.numr" horiz-adv-x="859" 
d="M430 1457q143 0 235.5 -67t92.5 -189q0 -68 -36.5 -116t-93.5 -75q43 -10 81.5 -43t63 -79t24.5 -98q0 -123 -101 -194t-266 -71t-266.5 71t-101.5 194q0 52 25 98t64 79t80 43q-56 27 -93 75t-37 116q0 122 93.5 189t235.5 67zM430 1081q63 0 102.5 33.5t39.5 90.5
q0 58 -40 92t-102 34t-102 -34t-40 -92q0 -57 39.5 -90.5t102.5 -33.5zM430 665q79 0 124 35.5t45 94.5q0 60 -45.5 97t-123.5 37q-79 0 -124 -37t-45 -97q0 -59 44.5 -94.5t124.5 -35.5z" />
    <glyph glyph-name="nine.numr" horiz-adv-x="823" 
d="M387 525q-87 0 -161 33t-120 92.5t-51 138.5h177q12 -53 50.5 -84.5t95.5 -31.5q98 0 156 68t49 222q-30 -47 -83.5 -74.5t-128.5 -27.5q-139 0 -227.5 78.5t-88.5 209.5q0 91 43 160.5t120.5 108.5t178.5 39q176 0 275 -122t99 -325q0 -247 -103.5 -366t-280.5 -119z
M403 1010q38 0 73.5 17.5t58.5 44t23 52.5q1 92 -42.5 142t-112.5 50q-64 0 -106 -43.5t-42 -114.5q0 -73 42.5 -110.5t105.5 -37.5z" />
    <glyph glyph-name="uni2070" unicode="&#x2070;" horiz-adv-x="804" 
d="M403 1667q166 0 258 -124t92 -346t-91 -343t-259 -121t-259.5 120.5t-91.5 342.5q0 223 92.5 347t258.5 124zM403 884q83 0 119 73t36 238q0 170 -37 246.5t-119 76.5q-81 0 -118.5 -77t-37.5 -246q0 -164 37 -237.5t120 -73.5z" />
    <glyph glyph-name="uni00B9" unicode="&#xb9;" horiz-adv-x="513" 
d="M204 744v679h-162v106q116 0 167.5 32.5t58.5 92.5h126v-910h-190z" />
    <glyph glyph-name="uni00B2" unicode="&#xb2;" horiz-adv-x="784" 
d="M59 747v92v46q0 81 34 137t88.5 95.5t115 70t114.5 59t88.5 63t34.5 83.5q0 54 -38 88t-102 34q-66 0 -114.5 -39t-58.5 -120h-179q0 88 40 158.5t119 112.5t198 42q153 0 241.5 -75.5t88.5 -199.5q0 -80 -33.5 -134.5t-86 -91.5t-112 -64.5t-112 -53.5t-86 -58.5
t-33.5 -79.5v-7h462v-158h-669z" />
    <glyph glyph-name="uni00B3" unicode="&#xb3;" horiz-adv-x="850" 
d="M67 1376q0 97 45.5 162.5t124.5 98.5t177 33q102 0 181.5 -26.5t125.5 -80t46 -137.5q0 -67 -38.5 -118t-124.5 -81q74 -21 129 -74t55 -146q0 -90 -51 -150.5t-137 -90.5t-191 -30q-165 1 -255.5 80t-91.5 216h179q13 -77 60 -111t110 -34q84 0 131.5 35t47.5 91
q0 55 -46.5 90t-126.5 37l-87 3v149l79 4q48 2 84 18t56 42.5t20 61.5q0 49 -44.5 78t-113.5 29q-43 0 -79.5 -14.5t-59.5 -47t-26 -87.5h-179z" />
    <glyph glyph-name="uni2074" unicode="&#x2074;" horiz-adv-x="820" 
d="M455 1655h183v-553h140v-156h-140v-201h-180l1 201h-417v152zM215 1102h244v326z" />
    <glyph glyph-name="uni2075" unicode="&#x2075;" horiz-adv-x="843" 
d="M147 1654h586l-7 -154h-431l-17 -211q49 24 93.5 37t100.5 13q90 0 162.5 -35t114.5 -101t42 -161q0 -144 -96 -227t-258 -83q-135 0 -239 60t-146 155l146 84q38 -65 89 -107.5t131 -42.5q81 0 129.5 43.5t48.5 110.5q0 65 -47.5 108.5t-124.5 43.5q-42 0 -77.5 -11.5
t-81.5 -48.5q-9 -3 -12 -3t-13 5l-134 61z" />
    <glyph glyph-name="uni2076" unicode="&#x2076;" horiz-adv-x="824" 
d="M434 1667q86 0 159 -31.5t118.5 -91t49.5 -141.5h-171q-17 58 -55.5 87t-96.5 29q-97 0 -144 -79t-36 -204q35 42 89.5 64t115.5 22q141 0 225.5 -77t84.5 -203q0 -89 -44 -158.5t-122 -108.5t-180 -39q-177 0 -276 121.5t-99 324.5q0 229 103 357t279 128zM420 1181
q-39 0 -74 -17.5t-57.5 -43.5t-22.5 -52q-1 -91 42.5 -141t111.5 -50q65 0 110 43.5t45 113.5q0 77 -45.5 112t-109.5 35z" />
    <glyph glyph-name="uni2077" unicode="&#x2077;" horiz-adv-x="745" 
d="M42 1657h681v-153q-54 -66 -108.5 -163t-100.5 -204.5t-75 -209.5t-31 -180h-201q6 74 40 197t102.5 270t177.5 290h-485v153z" />
    <glyph glyph-name="uni2078" unicode="&#x2078;" horiz-adv-x="859" 
d="M430 1667q143 0 235.5 -67t92.5 -189q0 -68 -36.5 -116t-93.5 -75q43 -10 81.5 -43t63 -79t24.5 -98q0 -123 -101 -194t-266 -71t-266.5 71t-101.5 194q0 52 25 98t64 79t80 43q-56 27 -93 75t-37 116q0 122 93.5 189t235.5 67zM430 1291q63 0 102.5 33.5t39.5 90.5
q0 58 -40 92t-102 34t-102 -34t-40 -92q0 -57 39.5 -90.5t102.5 -33.5zM430 875q79 0 124 35.5t45 94.5q0 60 -45.5 97t-123.5 37q-79 0 -124 -37t-45 -97q0 -59 44.5 -94.5t124.5 -35.5z" />
    <glyph glyph-name="uni2079" unicode="&#x2079;" horiz-adv-x="823" 
d="M387 735q-87 0 -161 33t-120 92.5t-51 138.5h177q12 -53 50.5 -84.5t95.5 -31.5q98 0 156 68t49 222q-30 -47 -83.5 -74.5t-128.5 -27.5q-139 0 -227.5 78.5t-88.5 209.5q0 91 43 160.5t120.5 108.5t178.5 39q176 0 275 -122t99 -325q0 -247 -103.5 -366t-280.5 -119z
M403 1220q38 0 73.5 17.5t58.5 44t23 52.5q1 92 -42.5 142t-112.5 50q-64 0 -106 -43.5t-42 -114.5q0 -73 42.5 -110.5t105.5 -37.5z" />
    <glyph glyph-name="fraction.alt" unicode="&#x2215;" horiz-adv-x="1377" 
d="M1261 1462l-972 -1470l-173 3l975 1467h170z" />
    <glyph glyph-name="fraction" unicode="&#x2044;" horiz-adv-x="474" 
d="M811 1462l-972 -1470l-173 3l975 1467h170z" />
    <glyph glyph-name="onehalf" unicode="&#xbd;" horiz-adv-x="1803" 
d="M204 536v679h-162v106q116 0 167.5 32.5t58.5 92.5h126v-910h-190zM1371 1462l-972 -1470l-173 3l975 1467h170zM1078 -1v92v46q0 81 34 137t88.5 95.5t115 70t114.5 59t88.5 63t34.5 83.5q0 54 -38 88t-102 34q-66 0 -114.5 -39t-58.5 -120h-179q0 88 40 158.5
t119 112.5t198 42q153 0 241.5 -75.5t88.5 -199.5q0 -80 -33.5 -134.5t-86 -91.5t-112 -64.5t-112 -53.5t-86 -58.5t-33.5 -79.5v-7h462v-158h-669z" />
    <glyph glyph-name="uni2153" unicode="&#x2153;" horiz-adv-x="1847" 
d="M204 536v679h-162v106q116 0 167.5 32.5t58.5 92.5h126v-910h-190zM1371 1462l-972 -1470l-173 3l975 1467h170zM1064 626q0 97 45.5 162.5t124.5 98.5t177 33q102 0 181.5 -26.5t125.5 -80t46 -137.5q0 -67 -38.5 -118t-124.5 -81q74 -21 129 -74t55 -146
q0 -90 -51 -150.5t-137 -90.5t-191 -30q-165 1 -255.5 80t-91.5 216h179q13 -77 60 -111t110 -34q84 0 131.5 35t47.5 91q0 55 -46.5 90t-126.5 37l-87 3v149l79 4q48 2 84 18t56 42.5t20 61.5q0 49 -44.5 78t-113.5 29q-43 0 -79.5 -14.5t-59.5 -47t-26 -87.5h-179z" />
    <glyph glyph-name="uni2154" unicode="&#x2154;" horiz-adv-x="2168" 
d="M59 537v92v46q0 81 34 137t88.5 95.5t115 70t114.5 59t88.5 63t34.5 83.5q0 54 -38 88t-102 34q-66 0 -114.5 -39t-58.5 -120h-179q0 88 40 158.5t119 112.5t198 42q153 0 241.5 -75.5t88.5 -199.5q0 -80 -33.5 -134.5t-86 -91.5t-112 -64.5t-112 -53.5t-86 -58.5
t-33.5 -79.5v-7h462v-158h-669zM1692 1462l-972 -1470l-173 3l975 1467h170zM1385 626q0 97 45.5 162.5t124.5 98.5t177 33q102 0 181.5 -26.5t125.5 -80t46 -137.5q0 -67 -38.5 -118t-124.5 -81q74 -21 129 -74t55 -146q0 -90 -51 -150.5t-137 -90.5t-191 -30
q-165 1 -255.5 80t-91.5 216h179q13 -77 60 -111t110 -34q84 0 131.5 35t47.5 91q0 55 -46.5 90t-126.5 37l-87 3v149l79 4q48 2 84 18t56 42.5t20 61.5q0 49 -44.5 78t-113.5 29q-43 0 -79.5 -14.5t-59.5 -47t-26 -87.5h-179z" />
    <glyph glyph-name="onequarter" unicode="&#xbc;" horiz-adv-x="1662" 
d="M204 536v679h-162v106q116 0 167.5 32.5t58.5 92.5h126v-910h-190zM1371 1462l-972 -1470l-173 3l975 1467h170zM1297 912h183v-553h140v-156h-140v-201h-180l1 201h-417v152zM1057 359h244v326z" />
    <glyph glyph-name="threequarters" unicode="&#xbe;" horiz-adv-x="1919" 
d="M67 1166q0 97 45.5 162.5t124.5 98.5t177 33q102 0 181.5 -26.5t125.5 -80t46 -137.5q0 -67 -38.5 -118t-124.5 -81q74 -21 129 -74t55 -146q0 -90 -51 -150.5t-137 -90.5t-191 -30q-165 1 -255.5 80t-91.5 216h179q13 -77 60 -111t110 -34q84 0 131.5 35t47.5 91
q0 55 -46.5 90t-126.5 37l-87 3v149l79 4q48 2 84 18t56 42.5t20 61.5q0 49 -44.5 78t-113.5 29q-43 0 -79.5 -14.5t-59.5 -47t-26 -87.5h-179zM1627 1462l-972 -1470l-173 3l975 1467h170zM1554 912h183v-553h140v-156h-140v-201h-180l1 201h-417v152zM1314 359h244v326z
" />
    <glyph glyph-name="oneeighth" unicode="&#x215b;" horiz-adv-x="1856" 
d="M204 536v679h-162v106q116 0 167.5 32.5t58.5 92.5h126v-910h-190zM1371 1462l-972 -1470l-173 3l975 1467h170zM1427 922q143 0 235.5 -67t92.5 -189q0 -68 -36.5 -116t-93.5 -75q43 -10 81.5 -43t63 -79t24.5 -98q0 -123 -101 -194t-266 -71t-266.5 71t-101.5 194
q0 52 25 98t64 79t80 43q-56 27 -93 75t-37 116q0 122 93.5 189t235.5 67zM1427 546q63 0 102.5 33.5t39.5 90.5q0 58 -40 92t-102 34t-102 -34t-40 -92q0 -57 39.5 -90.5t102.5 -33.5zM1427 130q79 0 124 35.5t45 94.5q0 60 -45.5 97t-123.5 37q-79 0 -124 -37t-45 -97
q0 -59 44.5 -94.5t124.5 -35.5z" />
    <glyph glyph-name="threeeighths" unicode="&#x215c;" horiz-adv-x="2113" 
d="M67 1166q0 97 45.5 162.5t124.5 98.5t177 33q102 0 181.5 -26.5t125.5 -80t46 -137.5q0 -67 -38.5 -118t-124.5 -81q74 -21 129 -74t55 -146q0 -90 -51 -150.5t-137 -90.5t-191 -30q-165 1 -255.5 80t-91.5 216h179q13 -77 60 -111t110 -34q84 0 131.5 35t47.5 91
q0 55 -46.5 90t-126.5 37l-87 3v149l79 4q48 2 84 18t56 42.5t20 61.5q0 49 -44.5 78t-113.5 29q-43 0 -79.5 -14.5t-59.5 -47t-26 -87.5h-179zM1627 1462l-972 -1470l-173 3l975 1467h170zM1684 922q143 0 235.5 -67t92.5 -189q0 -68 -36.5 -116t-93.5 -75q43 -10 81.5 -43
t63 -79t24.5 -98q0 -123 -101 -194t-266 -71t-266.5 71t-101.5 194q0 52 25 98t64 79t80 43q-56 27 -93 75t-37 116q0 122 93.5 189t235.5 67zM1684 546q63 0 102.5 33.5t39.5 90.5q0 58 -40 92t-102 34t-102 -34t-40 -92q0 -57 39.5 -90.5t102.5 -33.5zM1684 130
q79 0 124 35.5t45 94.5q0 60 -45.5 97t-123.5 37q-79 0 -124 -37t-45 -97q0 -59 44.5 -94.5t124.5 -35.5z" />
    <glyph glyph-name="fiveeighths" unicode="&#x215d;" horiz-adv-x="2106" 
d="M147 1446h586l-7 -154h-431l-17 -211q49 24 93.5 37t100.5 13q90 0 162.5 -35t114.5 -101t42 -161q0 -144 -96 -227t-258 -83q-135 0 -239 60t-146 155l146 84q38 -65 89 -107.5t131 -42.5q81 0 129.5 43.5t48.5 110.5q0 65 -47.5 108.5t-124.5 43.5q-42 0 -77.5 -11.5
t-81.5 -48.5q-9 -3 -12 -3t-13 5l-134 61zM1620 1462l-972 -1470l-173 3l975 1467h170zM1677 922q143 0 235.5 -67t92.5 -189q0 -68 -36.5 -116t-93.5 -75q43 -10 81.5 -43t63 -79t24.5 -98q0 -123 -101 -194t-266 -71t-266.5 71t-101.5 194q0 52 25 98t64 79t80 43
q-56 27 -93 75t-37 116q0 122 93.5 189t235.5 67zM1677 546q63 0 102.5 33.5t39.5 90.5q0 58 -40 92t-102 34t-102 -34t-40 -92q0 -57 39.5 -90.5t102.5 -33.5zM1677 130q79 0 124 35.5t45 94.5q0 60 -45.5 97t-123.5 37q-79 0 -124 -37t-45 -97q0 -59 44.5 -94.5
t124.5 -35.5z" />
    <glyph glyph-name="seveneighths" unicode="&#x215e;" horiz-adv-x="1937" 
d="M42 1447h681v-153q-54 -66 -108.5 -163t-100.5 -204.5t-75 -209.5t-31 -180h-201q6 74 40 197t102.5 270t177.5 290h-485v153zM1452 1462l-972 -1470l-173 3l975 1467h170zM1508 922q143 0 235.5 -67t92.5 -189q0 -68 -36.5 -116t-93.5 -75q43 -10 81.5 -43t63 -79
t24.5 -98q0 -123 -101 -194t-266 -71t-266.5 71t-101.5 194q0 52 25 98t64 79t80 43q-56 27 -93 75t-37 116q0 122 93.5 189t235.5 67zM1508 546q63 0 102.5 33.5t39.5 90.5q0 58 -40 92t-102 34t-102 -34t-40 -92q0 -57 39.5 -90.5t102.5 -33.5zM1508 130q79 0 124 35.5
t45 94.5q0 60 -45.5 97t-123.5 37q-79 0 -124 -37t-45 -97q0 -59 44.5 -94.5t124.5 -35.5z" />
    <glyph glyph-name="period" unicode="." horiz-adv-x="539" 
d="M99 0v318h320v-318h-320z" />
    <glyph glyph-name="comma" unicode="," horiz-adv-x="554" 
d="M94 -280l116 272l-102 9v283h295v-249l-201 -315h-108z" />
    <glyph glyph-name="colon" unicode=":" horiz-adv-x="539" 
d="M419 1009v-313h-320v313h320zM419 318v-312h-320v312h320z" />
    <glyph glyph-name="semicolon" unicode=";" horiz-adv-x="557" 
d="M99 -309l131 309h-113v314h320v-278l-219 -345h-119zM114 687v318h320v-318h-320z" />
    <glyph glyph-name="ellipsis" unicode="&#x2026;" horiz-adv-x="1772" 
d="M1390 0v318h320v-318h-320zM140 0v318h320v-318h-320zM765 0v318h320v-318h-320z" />
    <glyph glyph-name="exclam" unicode="!" horiz-adv-x="564" 
d="M431 312v-312h-319v312h319zM443 1446l-77 -1000h-183l-82 1000h342z" />
    <glyph glyph-name="exclamdown" unicode="&#xa1;" horiz-adv-x="558" 
d="M431 722h-319v312h319v-312zM444 -322h-343l82 908h182z" />
    <glyph glyph-name="question" unicode="?" horiz-adv-x="1062" 
d="M663 312v-312h-320v312h320zM22 1138q64 158 195.5 243t313.5 85q143 0 250 -46t166.5 -123t59.5 -171q0 -98 -39.5 -167t-96.5 -123.5t-114.5 -108t-96.5 -119t-39 -156.5h-235q0 110 33.5 190.5t83 141t98.5 111.5t82.5 102.5t33.5 113.5q0 71 -53.5 113t-134.5 42
q-54 0 -105 -23.5t-91.5 -65.5t-62.5 -99z" />
    <glyph glyph-name="questiondown" unicode="&#xbf;" horiz-adv-x="1087" 
d="M411 722v312h320v-312h-320zM1052 -12q-64 -158 -195 -244t-315 -86q-157 0 -263 46t-159 123.5t-53 172.5q0 82 28 138.5t71.5 99.5t93 79.5t93 75t71 87t27.5 115.5h236q0 -83 -23.5 -145t-61.5 -109t-80.5 -85t-80 -74.5t-61.5 -76t-24 -90.5q0 -66 54 -108t135 -42
q54 0 105 23t91.5 64t61.5 95z" />
    <glyph glyph-name="periodcentered" unicode="&#xb7;" horiz-adv-x="519" 
d="M398 872v-287h-299v287h299z" />
    <glyph glyph-name="bullet" unicode="&#x2022;" horiz-adv-x="706" 
d="M342 484q-69 0 -126 34t-90.5 91.5t-33.5 126.5t33.5 125.5t90.5 90.5t126 34t126 -34t91 -90.5t34 -125.5t-34 -126.5t-91 -91.5t-126 -34z" />
    <glyph glyph-name="asterisk" unicode="*" horiz-adv-x="946" 
d="M634 654l-166 274l-167 -279l-157 109l207 247l-294 82l62 170l277 -121l-22 310h191l-27 -311l283 124l54 -170l-286 -83l202 -242z" />
    <glyph glyph-name="numbersign" unicode="#" horiz-adv-x="1232" 
d="M584 1434l-213 -1439l-152 21l214 1433zM1009 1434l-213 -1439l-154 21l214 1433zM1099 602v-152h-1043v152h1043zM1163 1012v-152h-1043v152h1043z" />
    <glyph glyph-name="slash" unicode="/" horiz-adv-x="762" 
d="M23 -37l506 1483h203l-505 -1483h-204z" />
    <glyph glyph-name="backslash" unicode="\" horiz-adv-x="762" 
d="M521 -37l-505 1483h204l506 -1483h-205z" />
    <glyph glyph-name="period.tf" horiz-adv-x="600" 
d="M140 0v318h320v-318h-320z" />
    <glyph glyph-name="comma.tf" horiz-adv-x="600" 
d="M146 -280l116 272l-102 9v283h295v-249l-201 -315h-108z" />
    <glyph glyph-name="parenleft" unicode="(" horiz-adv-x="666" 
d="M610 1482q-104 -195 -167 -424.5t-63 -467.5q0 -227 57 -438.5t165 -437.5h-205q-83 140 -146 276.5t-97.5 283.5t-34.5 318q0 249 78.5 476.5t205.5 413.5h207z" />
    <glyph glyph-name="parenright" unicode=")" horiz-adv-x="673" 
d="M23 1482q104 -195 167 -424.5t63 -467.5q0 -227 -57 -438.5t-165 -437.5h205q83 140 146 276.5t97.5 283.5t34.5 318q0 249 -78.5 476.5t-205.5 413.5h-207z" />
    <glyph glyph-name="braceleft" unicode="{" horiz-adv-x="769" 
d="M250 1210q0 78 45 130.5t115.5 79t145.5 26.5h145v-165h-87q-57 0 -83.5 -14t-33.5 -37.5t-7 -52.5v-396q-2 -70 -34.5 -113.5t-80.5 -64.5t-95 -26q-12 -1 -12.5 -6t12.5 -7q46 -4 94 -23.5t81 -64.5t35 -127v-400q0 -55 26 -80t98 -25h87v-166h-140q-79 0 -150.5 27
t-116 80t-44.5 132v407q0 47 -23.5 86t-73.5 63t-129 24v147q120 1 173 47.5t53 133.5v385z" />
    <glyph glyph-name="braceright" unicode="}" horiz-adv-x="768" 
d="M480 1210q0 78 -45 130.5t-115.5 79t-145.5 26.5h-145v-165h87q57 0 83.5 -14t33.5 -37.5t7 -52.5v-396q2 -70 34.5 -113.5t80.5 -64.5t95 -26q12 -1 12.5 -6t-12.5 -7q-46 -4 -94 -23.5t-81 -64.5t-35 -127v-400q0 -55 -26 -80t-98 -25h-87v-166h140q79 0 150.5 27
t116 80t44.5 132v407q0 47 23.5 86t73.5 63t129 24v147q-120 1 -173 47.5t-53 133.5v385z" />
    <glyph glyph-name="bracketleft" unicode="[" horiz-adv-x="674" 
d="M148 1446h459v-165h-219v-1437h218v-166h-457z" />
    <glyph glyph-name="bracketright" unicode="]" horiz-adv-x="687" 
d="M489 1446h-459v-165h219v-1437h-218v-166h457z" />
    <glyph glyph-name="hyphen" unicode="-" horiz-adv-x="786" 
d="M666 621v-212l-546 -1v213h546z" />
    <glyph glyph-name="uni00AD" unicode="&#xad;" horiz-adv-x="786" 
d="M666 621v-212l-546 -1v213h546z" />
    <glyph glyph-name="endash" unicode="&#x2013;" horiz-adv-x="1185" 
d="M1064 604v-213l-944 -1v213z" />
    <glyph glyph-name="emdash" unicode="&#x2014;" horiz-adv-x="2298" 
d="M1938 604v-213l-1577 -1v213z" />
    <glyph glyph-name="underscore" unicode="_" horiz-adv-x="1106" 
d="M983 -64v-212h-867v211z" />
    <glyph glyph-name="emdash.alt" horiz-adv-x="1576" 
d="M1577 604v-213l-1577 -1v213z" />
    <glyph glyph-name="quotesinglbase" unicode="&#x201a;" horiz-adv-x="554" 
d="M94 -277l115 272l-101 9v283h295v-249l-201 -315h-108z" />
    <glyph glyph-name="quotedblbase" unicode="&#x201e;" horiz-adv-x="997" 
d="M537 -277l115 272l-101 9v283h295v-249l-201 -315h-108zM94 -277l115 272l-101 9v283h295v-249l-201 -315h-108z" />
    <glyph glyph-name="quotedblleft" unicode="&#x201c;" horiz-adv-x="959" 
d="M510 884v248l201 314h108l-116 -271l102 -10v-281h-295zM77 884v248l202 314h108l-116 -271l101 -10v-281h-295z" />
    <glyph glyph-name="quotedblright" unicode="&#x201d;" horiz-adv-x="956" 
d="M531 884l118 272l-103 10v280h296v-247l-201 -315h-110zM100 884l116 272l-102 10v280h295v-247l-201 -315h-108z" />
    <glyph glyph-name="quoteleft" unicode="&#x2018;" horiz-adv-x="526" 
d="M386 1506l-116 -272l102 -10v-280h-295v247l201 315h108z" />
    <glyph glyph-name="quoteright" unicode="&#x2019;" horiz-adv-x="523" 
d="M100 884l116 272l-102 10v280h295v-247l-201 -315h-108z" />
    <glyph glyph-name="guillemotleft" unicode="&#xab;" horiz-adv-x="999" 
d="M711 502l162 -373h-154l-238 373l237 389h156zM330 502l162 -373h-154l-237 373l236 389h156z" />
    <glyph glyph-name="guillemotright" unicode="&#xbb;" horiz-adv-x="1022" 
d="M285 502l-163 389h156l236 -389l-236 -373h-155zM666 502l-164 389h157l236 -389l-237 -373h-155z" />
    <glyph glyph-name="guilsinglleft" unicode="&#x2039;" horiz-adv-x="618" 
d="M330 502l162 -373h-154l-237 373l236 389h156z" />
    <glyph glyph-name="guilsinglright" unicode="&#x203a;" horiz-adv-x="617" 
d="M274 502l-163 389h155l236 -389l-236 -373h-154z" />
    <glyph glyph-name="quotedbl" unicode="&#x22;" horiz-adv-x="959" 
d="M847 1446l-77 -560h-145l-76 560h298zM410 1446l-77 -560h-145l-76 560h298z" />
    <glyph glyph-name="quotesingle" unicode="'" horiz-adv-x="522" 
d="M410 1446l-77 -560h-145l-76 560h298z" />
    <glyph glyph-name="space" unicode=" " horiz-adv-x="424" 
 />
    <glyph glyph-name="uni00A0" unicode="&#xa0;" horiz-adv-x="424" 
 />
    <glyph glyph-name="CR" unicode="&#xd;" horiz-adv-x="476" 
 />
    <glyph glyph-name="cent" unicode="&#xa2;" horiz-adv-x="1123" 
d="M697 0h-193v336h193v-336zM697 1110h-193v336h193v-336zM596 1276q129 0 224 -53t149.5 -143t62.5 -201h-244q-6 41 -28 81.5t-62 67t-100 26.5q-103 0 -166.5 -78.5t-63.5 -238.5q0 -151 62.5 -239.5t172.5 -88.5q60 0 99.5 29t61 69.5t27.5 75.5h237
q-6 -107 -61.5 -193.5t-150 -137t-220.5 -50.5q-144 0 -257 64t-178 183.5t-65 285.5q0 160 62 282t174.5 190.5t263.5 68.5z" />
    <glyph glyph-name="colonmonetary" unicode="&#x20a1;" horiz-adv-x="1436" 
d="M738 1560h129l-320 -1682h-129zM969 1560h129l-320 -1682h-129zM751 1466q163 0 290.5 -65.5t206 -178.5t92.5 -255h-306q-14 75 -51 133.5t-97 92t-144 33.5q-101 0 -174 -49t-112 -158t-39 -288q0 -270 86.5 -390.5t238.5 -120.5q84 0 144 38.5t97 102t51 139.5h306
q-13 -103 -50 -196.5t-105 -166.5t-175 -115t-259 -42q-202 0 -349 94t-226.5 264t-79.5 397q0 228 79 391.5t226 251.5t350 88z" />
    <glyph glyph-name="currency" unicode="&#xa4;" horiz-adv-x="1156" 
d="M574 294q-125 0 -227 62q-17 11 -31 -3l-119 -119l-122 126l132 130q-35 56 -52.5 111.5t-17.5 125.5q0 123 60 220q9 18 -3 31l-118 118l122 127l134 -135q52 34 113 53.5t122 19.5q125 0 230 -65q13 -8 23 2l111 112l122 -125l-122 -121q34 -53 53 -112t19 -124
q0 -60 -16.5 -119.5t-49.5 -107.5q-6 -10 0 -16l117 -113l-122 -125l-121 121q-54 -35 -113.5 -54.5t-123.5 -19.5zM571 487q69 0 123.5 33.5t85.5 88.5t31 119q0 63 -31 118t-85.5 89t-123.5 34t-123.5 -34t-86 -89t-31.5 -118q0 -64 31.5 -119t86 -88.5t123.5 -33.5z" />
    <glyph glyph-name="dollar" unicode="$" horiz-adv-x="1361" 
d="M707 -20q-260 0 -422 104.5t-186 322.5l304 6q24 -99 103.5 -150.5t199.5 -51.5q72 0 127.5 23.5t87.5 64t32 92.5q0 80 -51 119.5t-157 63.5l-237 51q-165 33 -264.5 131.5t-101.5 264.5q-1 136 73.5 235.5t203 153.5t288.5 54q164 0 283.5 -58.5t184 -157t62.5 -217.5
l-295 -5q-14 96 -64 151t-166 55q-60 0 -107 -13t-81 -36.5t-51.5 -55.5t-17.5 -72q0 -63 42.5 -99.5t160.5 -67.5l233 -57q197 -47 284.5 -161t87.5 -277q0 -125 -68.5 -218t-193.5 -144t-294 -51zM582 1653h253v-260h-253v260zM577 69h252v-260h-252v260z" />
    <glyph glyph-name="dong" unicode="&#x20ab;" horiz-adv-x="1072" 
d="M673 265v106q-28 -31 -62.5 -59t-82.5 -45.5t-114 -17.5q-97 0 -173 48.5t-120.5 144.5t-44.5 240q0 136 48 236.5t128.5 156.5t178.5 56q66 0 115.5 -21.5t94.5 -64.5q14 -10 21 -8t7 20v388h245v-1180h-241zM666 892q-34 38 -69.5 58t-84.5 20q-80 0 -131.5 -66.5
t-51.5 -218.5q0 -101 23 -163t64 -89.5t94 -27.5q45 0 80.5 19.5t55.5 51.5t20 68v348zM1035 1335v-129h-591v129h591zM917 141v-141h-786v141h786z" />
    <glyph glyph-name="Euro" unicode="&#x20ac;" horiz-adv-x="1303" 
d="M778 -20q-138 0 -252 54t-196.5 154.5t-127 239t-44.5 307.5q0 225 78 389t217.5 253t323.5 89q138 0 253.5 -53.5t192.5 -146.5l-200 -153q-44 47 -95.5 84t-124.5 37q-95 0 -164 -52t-106 -163t-37 -289q0 -176 40.5 -287t113 -164t167.5 -53q73 0 141 40t107 88
l157 -168q-76 -88 -191.5 -147t-252.5 -59zM850 966v-158h-849v157zM850 642v-160h-849v159z" />
    <glyph glyph-name="florin" unicode="&#x192;" horiz-adv-x="1038" 
d="M915 1034l-37 -203h-217l-157 -897q-22 -125 -108 -197t-221 -72h-230l29 196h119q60 1 88 29.5t41 108.5l147 832h-168l36 203h167l26 149q23 125 109.5 194t217.5 69h238l-32 -194h-132q-43 0 -79 -34.5t-45 -85.5l-17 -98h225z" />
    <glyph glyph-name="franc" unicode="&#x20a3;" horiz-adv-x="1249" 
d="M768 398v-160h-806v159zM138 1446h1032l-1 -243h-699v-374h518v-237h-518v-592h-332v1446z" />
    <glyph glyph-name="lira" unicode="&#x20a4;" horiz-adv-x="1296" 
d="M1214 350q-45 -170 -163.5 -260t-287.5 -90h-722v242h68q65 0 110 40.5t55 127.5q4 13 4.5 29t-0.5 36q0 14 -17 14h-208v158h204l-20 134h-184v160h160l-7 79q-17 156 43 254.5t169 145t239 46.5q92 0 185 -32t168.5 -95.5t114.5 -159.5l-255 -78q-24 56 -62 94.5
t-107 38.5q-47 0 -84 -20t-58 -58t-21 -91q0 -18 3.5 -44.5t7.5 -58.5q3 -21 23 -21h269v-159l-264 -1l18 -134h246v-158h-251q-6 -44 -21.5 -88.5t-41 -85t-61.5 -71.5h275q91 0 144.5 36.5t81.5 123.5z" />
    <glyph glyph-name="uni20BA" unicode="&#x20ba;" horiz-adv-x="1311" 
d="M554 0h-285v1446h334v-1202h70q111 4 200.5 83.5t145.5 232.5l259 -55q-37 -104 -96 -195.5t-145 -161.5t-205.5 -109t-277.5 -39zM844 1143l57 -152l-815 -298l-56 154zM871 828l55 -154l-813 -296l-55 154z" />
    <glyph glyph-name="uni20A6" unicode="&#x20a6;" horiz-adv-x="1558" 
d="M1528 1026v-144l-1511 -1v144zM1528 607v-144l-1511 -1v144zM1175 1446h292v-1446h-263l-687 995v-995h-291v1446h289l660 -957v957z" />
    <glyph glyph-name="uni20B9" unicode="&#x20b9;" horiz-adv-x="1286" 
d="M41 845h423q137 0 200.5 54.5t63.5 171.5q0 114 -64.5 167t-185.5 53h-437v155h484q259 0 403 -100t144 -284q0 -98 -37 -172.5t-98 -124.5t-133 -77q-16 -5 -7 -29l269 -659h-360l-225 634h-440v211zM1235 1447v-144l-1192 -1v144zM1235 1147v-144l-1192 -1v144z" />
    <glyph glyph-name="sterling" unicode="&#xa3;" horiz-adv-x="1296" 
d="M41 0v242h68q75 0 123 48.5t48 157.5q0 48 -5 97.5t-16 131.5h-204v162h171l-20 181q-14 108 17 191t96 140t153 86t185 29q108 0 200 -34t160.5 -98.5t106.5 -154.5l-254 -78q-32 70 -69.5 101.5t-99.5 31.5q-47 0 -84 -20t-58 -58t-21 -91q0 -42 8.5 -97.5t23.5 -127.5
h293v-162h-270q6 -68 5.5 -114.5t-10.5 -96.5q-7 -57 -23.5 -97t-40 -69.5t-52.5 -56.5h269q97 0 145.5 36t80.5 124l247 -54q-48 -174 -160 -262t-291 -88h-722z" />
    <glyph glyph-name="uni20A9" unicode="&#x20a9;" horiz-adv-x="2237" 
d="M2200 1201v-158l-2177 -1v158zM2200 889v-158l-2177 -1v158zM2033 1446l-427 -1446h-233l-272 945l-273 -945h-229l-427 1446h286l270 -955l268 955h212l271 -955l269 955h285z" />
    <glyph glyph-name="yen" unicode="&#xa5;" horiz-adv-x="1318" 
d="M1329 1446l-498 -808v-638h-332v603l-510 843h378l329 -579l326 579h307zM1130 697v-160h-929v159zM1130 383v-158l-929 -1v158z" />
    <glyph glyph-name="cent.tf" horiz-adv-x="1400" 
d="M833 0h-193v336h193v-336zM833 1110h-193v336h193v-336zM732 1276q129 0 224 -53t149.5 -143t62.5 -201h-244q-6 41 -28 81.5t-62 67t-100 26.5q-103 0 -166.5 -78.5t-63.5 -238.5q0 -151 62.5 -239.5t172.5 -88.5q60 0 99.5 29t61 69.5t27.5 75.5h237
q-6 -107 -61.5 -193.5t-150 -137t-220.5 -50.5q-144 0 -257 64t-178 183.5t-65 285.5q0 160 62 282t174.5 190.5t263.5 68.5z" />
    <glyph glyph-name="colonmonetary.tf" horiz-adv-x="1400" 
d="M711 1560h129l-320 -1682h-129zM942 1560h129l-320 -1682h-129zM724 1466q163 0 290.5 -65.5t206 -178.5t92.5 -255h-306q-14 75 -51 133.5t-97 92t-144 33.5q-101 0 -174 -49t-112 -158t-39 -288q0 -270 86.5 -390.5t238.5 -120.5q84 0 144 38.5t97 102t51 139.5h306
q-13 -103 -50 -196.5t-105 -166.5t-175 -115t-259 -42q-202 0 -349 94t-226.5 264t-79.5 397q0 228 79 391.5t226 251.5t350 88z" />
    <glyph glyph-name="dollar.tf" horiz-adv-x="1400" 
d="M726 -20q-260 0 -422 104.5t-186 322.5l304 6q24 -99 103.5 -150.5t199.5 -51.5q72 0 127.5 23.5t87.5 64t32 92.5q0 80 -51 119.5t-157 63.5l-237 51q-165 33 -264.5 131.5t-101.5 264.5q-1 136 73.5 235.5t203 153.5t288.5 54q164 0 283.5 -58.5t184 -157t62.5 -217.5
l-295 -5q-14 96 -64 151t-166 55q-60 0 -107 -13t-81 -36.5t-51.5 -55.5t-17.5 -72q0 -63 42.5 -99.5t160.5 -67.5l233 -57q197 -47 284.5 -161t87.5 -277q0 -125 -68.5 -218t-193.5 -144t-294 -51zM601 1653h253v-260h-253v260zM596 69h252v-260h-252v260z" />
    <glyph glyph-name="dong.tf" horiz-adv-x="1400" 
d="M817 265v106q-28 -31 -62.5 -59t-82.5 -45.5t-114 -17.5q-97 0 -173 48.5t-120.5 144.5t-44.5 240q0 136 48 236.5t128.5 156.5t178.5 56q66 0 115.5 -21.5t94.5 -64.5q14 -10 21 -8t7 20v388h245v-1180h-241zM810 892q-34 38 -69.5 58t-84.5 20q-80 0 -131.5 -66.5
t-51.5 -218.5q0 -101 23 -163t64 -89.5t94 -27.5q45 0 80.5 19.5t55.5 51.5t20 68v348zM1179 1335v-129h-591v129h591zM1061 141v-141h-786v141h786z" />
    <glyph glyph-name="Euro.tf" horiz-adv-x="1400" 
d="M859 -20q-138 0 -252 54t-196.5 154.5t-127 239t-44.5 307.5q0 225 78 389t217.5 253t323.5 89q138 0 253.5 -53.5t192.5 -146.5l-200 -153q-44 47 -95.5 84t-124.5 37q-95 0 -164 -52t-106 -163t-37 -289q0 -176 40.5 -287t113 -164t167.5 -53q73 0 141 40t107 88
l157 -168q-76 -88 -191.5 -147t-252.5 -59zM931 966v-158h-849v157zM931 642v-160h-849v159z" />
    <glyph glyph-name="florin.tf" horiz-adv-x="1400" 
d="M1115 1034l-37 -203h-217l-157 -897q-22 -125 -108 -197t-221 -72h-230l29 196h119q60 1 88 29.5t41 108.5l147 832h-168l36 203h167l26 149q23 125 109.5 194t217.5 69h238l-32 -194h-132q-43 0 -79 -34.5t-45 -85.5l-17 -98h225z" />
    <glyph glyph-name="franc.tf" horiz-adv-x="1400" 
d="M908 398v-160h-806v159zM278 1446h1032l-1 -243h-699v-374h518v-237h-518v-592h-332v1446z" />
    <glyph glyph-name="lira.tf" horiz-adv-x="1400" 
d="M1287 350q-45 -170 -163.5 -260t-287.5 -90h-722v242h68q65 0 110 40.5t55 127.5q4 13 4.5 29t-0.5 36q0 14 -17 14h-208v158h204l-20 134h-184v160h160l-7 79q-17 156 43 254.5t169 145t239 46.5q92 0 185 -32t168.5 -95.5t114.5 -159.5l-255 -78q-24 56 -62 94.5
t-107 38.5q-47 0 -84 -20t-58 -58t-21 -91q0 -18 3.5 -44.5t7.5 -58.5q3 -21 23 -21h269v-159l-264 -1l18 -134h246v-158h-251q-6 -44 -21.5 -88.5t-41 -85t-61.5 -71.5h275q91 0 144.5 36.5t81.5 123.5z" />
    <glyph glyph-name="uni20BA.tf" horiz-adv-x="1400" 
d="M606 0h-285v1446h334v-1202h70q111 4 200.5 83.5t145.5 232.5l259 -55q-37 -104 -96 -195.5t-145 -161.5t-205.5 -109t-277.5 -39zM896 1143l57 -152l-815 -298l-56 154zM923 828l55 -154l-813 -296l-55 154z" />
    <glyph glyph-name="uni20B9.tf" horiz-adv-x="1400" 
d="M103 845h423q137 0 200.5 54.5t63.5 171.5q0 114 -64.5 167t-185.5 53h-437v155h484q259 0 403 -100t144 -284q0 -98 -37 -172.5t-98 -124.5t-133 -77q-16 -5 -7 -29l269 -659h-360l-225 634h-440v211zM1297 1447v-144l-1192 -1v144zM1297 1147v-144l-1192 -1v144z" />
    <glyph glyph-name="sterling.tf" horiz-adv-x="1400" 
d="M114 0v242h68q75 0 123 48.5t48 157.5q0 48 -5 97.5t-16 131.5h-204v162h171l-20 181q-14 108 17 191t96 140t153 86t185 29q108 0 200 -34t160.5 -98.5t106.5 -154.5l-254 -78q-32 70 -69.5 101.5t-99.5 31.5q-47 0 -84 -20t-58 -58t-21 -91q0 -42 8.5 -97.5
t23.5 -127.5h293v-162h-270q6 -68 5.5 -114.5t-10.5 -96.5q-7 -57 -23.5 -97t-40 -69.5t-52.5 -56.5h269q97 0 145.5 36t80.5 124l247 -54q-48 -174 -160 -262t-291 -88h-722z" />
    <glyph glyph-name="yen.tf" horiz-adv-x="1400" 
d="M1370 1446l-498 -808v-638h-332v603l-510 843h378l329 -579l326 579h307zM1171 697v-160h-929v159zM1171 383v-158l-929 -1v158z" />
    <glyph glyph-name="uni2219" unicode="&#x2219;" horiz-adv-x="708" 
d="M344 579q-64 0 -109 45.5t-45 108.5q0 64 45 109t109 45t109 -45t45 -109q0 -63 -45 -108.5t-109 -45.5z" />
    <glyph glyph-name="plus" unicode="+" horiz-adv-x="1177" 
d="M1061 834v-213h-945v213h945zM696 256h-213v945h213v-945z" />
    <glyph glyph-name="minus" unicode="&#x2212;" horiz-adv-x="1177" 
d="M1061 834v-213h-945v213h945z" />
    <glyph glyph-name="multiply" unicode="&#xd7;" horiz-adv-x="1153" 
d="M1034 420l-151 -151l-767 767l149 151zM267 269l-149 151l767 768l151 -151z" />
    <glyph glyph-name="divide" unicode="&#xf7;" horiz-adv-x="1177" 
d="M742 480v-293h-304v293h304zM1061 834v-213h-945v213h945zM742 1268v-293h-304v293h304z" />
    <glyph glyph-name="equal" unicode="=" horiz-adv-x="1177" 
d="M1061 1025v-213l-945 -1v213zM1061 567v-213h-945v213h945z" />
    <glyph glyph-name="notequal" unicode="&#x2260;" horiz-adv-x="1177" 
d="M893 1298l-537 -1230h-148l544 1230h141zM1061 1025v-213l-945 -1v213zM1061 567v-213h-945v213h945z" />
    <glyph glyph-name="greater" unicode="&#x3e;" horiz-adv-x="1155" 
d="M117 459l602 225l-603 232v251l923 -360v-242l-922 -357v251z" />
    <glyph glyph-name="less" unicode="&#x3c;" horiz-adv-x="1155" 
d="M1038 459v-251l-922 357v242l922 360v-251l-601 -232z" />
    <glyph glyph-name="greaterequal" unicode="&#x2265;" horiz-adv-x="1177" 
d="M132 654l602 227l-603 230v252l923 -359v-243l-922 -359v252zM116 273l945 1v-212h-945v211z" />
    <glyph glyph-name="lessequal" unicode="&#x2264;" horiz-adv-x="1177" 
d="M1043 654v-252l-920 359v243l921 359v-252l-601 -230zM1061 273v-211h-945v212z" />
    <glyph glyph-name="plusminus" unicode="&#xb1;" horiz-adv-x="1177" 
d="M1061 283v-211l-945 -1v212h945zM1061 1005v-213l-945 -1v213zM696 427h-213v944h213v-944z" />
    <glyph glyph-name="approxequal" unicode="&#x2248;" horiz-adv-x="1217" 
d="M1100 915q-50 -87 -127.5 -133.5t-165.5 -46.5q-59 0 -106.5 18.5t-90.5 43t-86 42.5t-94 18q-76 0 -129.5 -44t-101.5 -97l-83 146q74 76 146.5 127.5t169.5 51.5q62 0 109.5 -18.5t89 -42.5t83 -42.5t88.5 -18.5q72 0 125 42t88 99zM1100 494q-50 -86 -127.5 -133
t-165.5 -47q-60 0 -108 18.5t-90.5 43t-85 43t-93.5 18.5q-76 0 -130 -44.5t-99 -97.5l-85 147q74 76 146.5 127.5t169.5 51.5q62 0 109.5 -19t89 -42.5t83 -42.5t88.5 -19q72 0 125 42.5t88 98.5z" />
    <glyph glyph-name="asciitilde" unicode="~" horiz-adv-x="1224" 
d="M1097 755q-50 -88 -128 -134.5t-165 -46.5q-60 0 -108 18.5t-90.5 43t-85 43t-93.5 18.5q-76 0 -130 -44.5t-101 -97.5l-83 147q74 76 146 127.5t170 51.5q62 0 109.5 -19t89 -42.5t82.5 -42.5t89 -19q72 0 125 42.5t88 99.5z" />
    <glyph glyph-name="logicalnot" unicode="&#xac;" horiz-adv-x="1177" 
d="M1061 834v-213h-945v213h945zM1061 761v-442h-237l-1 442h238z" />
    <glyph glyph-name="asciicircum" unicode="^" horiz-adv-x="968" 
d="M681 245l-207 511l-208 -510h-197l311 736q19 45 56 61.5t74.5 2t58.5 -62.5l310 -738h-198z" />
    <glyph glyph-name="emptyset" unicode="&#x2205;" horiz-adv-x="1195" 
d="M592 275q-124 0 -226.5 61.5t-163 164t-60.5 227.5q0 124 61 226t163 163.5t226 61.5q125 0 227.5 -61.5t164 -163.5t61.5 -226q0 -125 -61.5 -227.5t-164 -164t-227.5 -61.5zM592 410q88 0 160 43t115 115t43 160q0 86 -43 158t-115 115t-160 43q-87 0 -159 -43
t-114.5 -115t-42.5 -158q0 -88 42.5 -160t114.5 -115t159 -43zM1092 1090l-912 -847l-98 102l916 845z" />
    </font>
</defs>
</svg>
